osu file format v14

[General]
AudioFilename: audio.mp3
AudioLeadIn: 0
PreviewTime: 243561
Countdown: 0
SampleSet: Soft
StackLeniency: 0.6
Mode: 0
LetterboxInBreaks: 0
WidescreenStoryboard: 1

[Editor]
Bookmarks: 1013,19474,35884,52295,68705,85115,105628,122038,140500,156910,173320,190756,207166,227679,244089,260499,276909,293320,299473
DistanceSpacing: 1.3
BeatDivisor: 8
GridSize: 16
TimelineZoom: 1.9

[Metadata]
Title:FLIP FLAP FLIP FLAP
TitleUnicode:FLIP FLAP FLIP FLAP
Artist:TO-MAS feat. Chima
ArtistUnicode:TO-MAS feat. Chima
Creator:VINXIS
Version:Pure Illusion
Source:フリップフラッパーズ
Tags:flip flappers cocona papika yayaka mishima yurara rlc xlni gratz pkk
BeatmapID:1185398
BeatmapSetID:560573

[Difficulty]
HPDrainRate:6
CircleSize:4
OverallDifficulty:8
ApproachRate:8
SliderMultiplier:2.9
SliderTickRate:1

[Events]
//Background and Video events
0,0,"but_Y_is_there_a_blur.jpg",0,0
//Break Periods
//Storyboard Layer 0 (Background)
//Storyboard Layer 1 (Fail)
//Storyboard Layer 2 (Pass)
//Storyboard Layer 3 (Foreground)
//Storyboard Sound Samples

[TimingPoints]
998,512.820512820513,4,2,0,30,1,0
998,-400,4,2,0,30,0,0
5100,-200,4,2,0,30,0,0
8946,-166.666666666667,4,2,0,35,0,0
9972,-166.666666666667,4,2,0,25,0,0
10741,-166.666666666667,4,2,0,35,0,0
12023,-166.666666666667,4,2,0,25,0,0
12792,-166.666666666667,4,2,0,35,0,0
14074,-166.666666666667,4,2,0,25,0,0
14844,-166.666666666667,4,2,0,35,0,0
16126,-166.666666666667,4,2,0,25,0,0
16895,-166.666666666667,4,2,0,35,0,0
35869,-166.666666666667,4,2,0,45,0,0
52280,-142.857142857143,4,2,0,55,0,0
68690,-125,4,2,1,60,0,1
80998,-200,4,2,1,60,0,1
82023,-166.666666666667,4,2,1,60,0,1
83049,-142.857142857143,4,2,1,60,0,1
84074,-125,4,2,1,60,0,1
105613,-166.666666666667,4,2,1,60,0,0
130228,-300,4,2,2,30,0,0
132280,-300,4,2,1,40,0,0
140485,-300,4,2,1,50,0,0
142023,-300,4,2,1,40,0,0
142280,-300,4,2,1,50,0,0
144074,-300,4,2,1,40,0,0
144331,-300,4,2,1,50,0,0
146126,-300,4,2,1,40,0,0
146382,-300,4,2,1,50,0,0
148177,-300,4,2,1,40,0,0
148433,-300,4,2,1,50,0,0
154844,-200,4,2,1,50,0,0
156895,-166.666666666667,4,2,0,50,0,0
173305,-142.857142857143,4,2,0,55,0,0
174844,-142.857142857143,4,2,1,55,0,0
175100,-142.857142857143,4,2,0,55,0,0
176895,-142.857142857143,4,2,1,55,0,0
177151,-142.857142857143,4,2,0,55,0,0
178946,-142.857142857143,4,2,1,55,0,0
179203,-142.857142857143,4,2,0,55,0,0
180998,-142.857142857143,4,2,1,55,0,0
181254,-142.857142857143,4,2,0,55,0,0
183049,-142.857142857143,4,2,1,55,0,0
183305,-142.857142857143,4,2,0,55,0,0
184587,-142.857142857143,4,2,1,55,0,0
190741,512.820512820513,4,2,1,60,1,1
190741,-125,4,2,1,60,0,1
203048,-200,4,2,1,60,0,1
204074,-166.666666666667,4,2,1,60,0,1
205099,-142.857142857143,4,2,1,60,0,1
206125,-125,4,2,1,60,0,1
227664,-166.666666666667,4,2,1,60,0,0
243561,-166.666666666667,4,2,1,30,0,0
243732,-166.666666666667,4,2,1,45,0,0
243903,-166.666666666667,4,2,1,60,0,0
285099,-142.857142857143,4,1,1,60,0,0
299458,-142.857142857143,4,1,1,60,0,1
299587,-142.857142857143,4,1,1,60,0,0
303561,-142.857142857143,4,1,1,60,0,1
303689,-142.857142857143,4,1,1,60,0,0
307664,-142.857142857143,4,1,1,5,0,0

[Colours]
Combo1 : 255,179,255
Combo2 : 147,198,255
Combo3 : 186,116,116
Combo4 : 98,81,255
Combo5 : 149,149,149
Combo6 : 255,192,130
Combo7 : 121,187,124
Combo8 : 254,154,63

[HitObjects]
102,178,998,54,0,L|98:223,1,36.25,2|0,0:0|0:0,0:0:0:0:
98,227,1767,1,0,0:0:0:0:
185,107,2023,2,0,L|189:152,1,36.25,2|0,0:0|0:0,0:0:0:0:
190,161,2792,1,0,0:0:0:0:
318,233,3049,21,2,0:0:0:0:
397,175,3305,2,0,P|443:181|476:191,1,72.5,0|0,0:0|0:0,0:0:0:0:
318,233,4074,1,2,0:0:0:0:
369,317,4331,1,0,0:0:0:0:
397,175,4587,2,0,L|406:130,1,36.25,0|0,0:0|0:0,0:0:0:0:
408,121,4972,1,0,0:0:0:0:
415,98,5100,86,0,P|357:116|256:121,2,145,2|0|2,0:0|0:0|0:0,0:0:0:0:
333,213,6382,2,0,P|313:254|303:292,1,72.5,0|0,0:0|0:0,0:0:0:0:
353,365,6895,1,0,0:0:0:0:
215,305,7151,21,2,0:0:0:0:
333,213,7408,2,0,P|381:199|481:197,1,145,0|0,0:0|0:0,0:0:0:0:
236,156,8177,2,0,L|154:145,2,72.5,2|0|0,0:0|0:0|0:0,0:0:0:0:
288,56,8946,53,0,0:0:0:0:
288,56,9074,1,0,0:0:0:0:
288,56,9203,1,4,0:3:0:0:
385,105,9459,2,0,P|380:154|377:197,1,86.9999973449708,2|0,0:3|0:0,0:0:0:0:
467,344,9972,2,0,P|475:280|481:169,1,173.999994689942,2|2,0:3|0:2,0:0:0:0:
378,192,10741,2,0,L|288:173,1,86.9999973449708,2|4,0:2|0:3,0:0:0:0:
250,183,11126,1,0,0:0:0:0:
207,172,11254,54,0,P|161:217|123:329,1,173.999994689942,4|0,0:3|0:0,0:0:0:0:
19,124,12023,2,0,P|57:172|69:208,1,86.9999973449708,2|0,0:3|0:0,0:0:0:0:
123,318,12536,1,2,0:2:0:0:
249,355,12792,2,0,P|313:352|373:327,1,130.499996017456,2|0,0:2|0:0,0:0:0:0:
373,327,13305,54,0,L|480:340,1,86.9999973449708,4|2,0:3|0:3,0:0:0:0:
138,327,13818,2,0,L|32:340,1,86.9999973449708,0|2,0:0|0:3,0:0:0:0:
338,152,14331,2,0,L|319:251,1,86.9999973449708,0|2,0:0|0:2,0:0:0:0:
174,152,14844,2,0,L|193:251,1,86.9999973449708,2|4,0:2|0:3,0:0:0:0:
89,279,15356,53,4,0:3:0:0:
55,160,15613,1,2,0:3:0:0:
206,247,15869,1,0,0:0:0:0:
83,290,16126,1,2,0:3:0:0:
177,125,16382,1,0,0:0:0:0:
218,259,16639,1,2,0:2:0:0:
40,152,16895,2,0,P|41:107|66:62,1,86.9999973449708,2|4,0:2|0:3,0:0:0:0:
278,54,17408,21,4,0:2:0:0:
278,54,19459,6,0,P|281:116|276:233,1,173.999994689942,4|0,0:0|0:0,0:0:0:0:
256,305,20228,1,0,0:0:0:0:
155,132,20485,2,0,P|151:197|157:311,1,173.999994689942,4|0,0:3|0:0,0:0:0:0:
180,382,21254,1,0,0:0:0:0:
295,212,21510,70,0,P|287:255|276:297,1,86.9999973449708,4|0,0:3|0:0,0:0:0:0:
181,120,22023,1,0,0:0:0:0:
177,219,22280,1,0,0:0:0:0:
123,292,22536,2,0,P|130:334|141:376,1,86.9999973449708,4|0,0:3|0:0,0:0:0:0:
253,76,23049,22,0,L|257:18,1,43.4999986724854,2|0,0:0|0:0,0:0:0:0:
147,85,23305,2,0,L|143:27,1,43.4999986724854,2|0,0:0|0:0,0:0:0:0:
258,280,23562,6,0,P|261:193|259:106,1,173.999994689942,4|0,0:3|0:0,0:0:0:0:
227,30,24331,1,0,0:0:0:0:
119,250,24587,2,0,P|114:163|117:76,1,173.999994689942,4|0,0:3|0:0,0:0:0:0:
150,0,25356,1,0,0:0:0:0:
271,123,25613,70,0,P|266:73|258:19,1,86.9999973449708,4|0,0:3|0:0,0:0:0:0:
101,113,26126,2,0,P|106:63|114:10,1,86.9999973449708,0|0,0:0|0:0,0:0:0:0:
191,189,26639,1,4,0:3:0:0:
191,189,27151,1,4,0:3:0:0:
358,111,27408,1,0,0:0:0:0:
394,292,27664,38,0,P|334:317|208:318,1,173.999994689942,4|0,0:3|0:0,0:0:0:0:
155,291,28433,1,0,0:0:0:0:
303,198,28690,2,0,P|243:173|145:167,1,130.499996017456,4|0,0:3|0:0,0:0:0:0:
148,165,29203,102,0,L|95:170,1,43.4999986724854,2|0,0:0|0:0,0:0:0:0:
124,290,29459,2,0,L|71:285,1,43.4999986724854,2|0,0:0|0:0,0:0:0:0:
287,220,29715,85,4,0:3:0:0:
259,357,29972,1,0,0:0:0:0:
125,322,30228,1,4,0:3:0:0:
152,186,30485,1,0,0:0:0:0:
87,112,30741,2,0,P|95:48|108:2,1,86.9999973449708,4|0,0:3|0:0,0:0:0:0:
170,212,31254,22,0,L|171:266,1,43.4999986724854,2|0,0:0|0:0,0:0:0:0:
303,212,31510,2,0,L|302:266,1,43.4999986724854,2|0,0:0|0:0,0:0:0:0:
231,26,31767,6,0,P|212:78|195:195,1,173.999994689942,4|2,0:3|0:0,0:0:0:0:
195,278,32536,1,0,0:0:0:0:
320,102,32792,2,0,P|317:146|312:189,1,86.9999973449708,4|0,0:3|0:0,0:0:0:0:
105,13,33305,2,0,P|101:57|99:99,1,86.9999973449708,2|0,0:0|0:0,0:0:0:0:
42,192,33818,37,4,0:3:0:0:
160,266,34331,1,4,0:3:0:0:
281,197,34844,1,4,0:3:0:0:
399,271,35356,2,0,P|392:291|360:357,1,86.9999973449708,4|0,0:1|0:0,0:0:0:0:
192,168,35869,5,4,0:3:0:0:
403,251,36126,1,2,0:0:0:0:
403,251,36254,1,2,0:0:0:0:
403,251,36382,1,0,1:0:0:0:
294,206,36639,1,2,0:0:0:0:
333,96,36895,2,2,P|382:78|466:75,1,130.499996017456,4|2,0:2|0:0,0:0:0:0:
486,148,37408,1,8,1:2:0:0:
418,287,37664,1,8,0:3:0:0:
270,253,37921,5,4,0:3:0:0:
323,366,38177,1,2,0:0:0:0:
418,287,38433,1,0,1:0:0:0:
364,175,38690,1,2,0:0:0:0:
270,253,38946,2,0,P|209:241|129:254,1,130.499996017456,4|0,0:2|0:0,0:0:0:0:
65,223,39459,21,4,1:2:0:0:
63,272,39587,1,2,0:0:0:0:
91,313,39715,1,2,0:0:0:0:
270,253,39972,70,0,L|260:157,2,86.9999973449708,4|2|0,0:3|0:2|1:0,0:0:0:0:
160,157,40741,1,2,0:2:0:0:
218,322,40998,2,2,P|269:299|365:310,1,130.499996017456,4|2,0:2|0:2,0:0:0:0:
386,366,41510,1,8,1:2:0:0:
386,366,41767,1,8,0:3:0:0:
458,251,42023,6,0,L|508:169,1,86.9999973449708,4|2,0:3|0:2,0:0:0:0:
368,162,42536,2,0,L|381:65,1,86.9999973449708,0|2,1:0|0:2,0:0:0:0:
241,109,42921,1,0,0:0:0:0:
241,109,43049,2,0,L|225:-5,1,86.9999973449708,4|0,0:2|0:0,0:0:0:0:
85,251,43562,2,0,P|125:245|174:256,1,86.9999973449708,4|0,1:2|0:0,0:0:0:0:
181,349,44074,5,4,0:3:0:0:
76,163,44331,1,2,0:0:0:0:
3,223,44587,2,0,P|1:269|24:325,1,86.9999973449708,0|2,1:0|0:2,0:0:0:0:
15,307,44972,1,0,0:0:0:0:
15,307,45100,1,4,0:2:0:0:
215,187,45356,1,2,0:2:0:0:
280,266,45613,2,0,L|392:282,1,86.9999973449708,8|8,1:2|0:3,0:0:0:0:
352,106,46126,5,4,0:3:0:0:
215,187,46382,1,2,0:2:0:0:
184,44,46639,1,0,1:0:0:0:
299,175,46895,1,2,0:2:0:0:
379,33,47151,2,0,P|430:29|496:88,1,130.499996017456,4|0,0:2|0:2,0:0:0:0:
490,75,47664,2,0,L|473:174,1,86.9999973449708,4|8,1:2|0:3,0:0:0:0:
448,286,48177,102,0,L|352:268,1,86.9999973449708,4|2,1:3|0:3,0:0:0:0:
345,275,48562,1,0,0:0:0:0:
328,280,48690,1,0,1:0:0:0:
256,240,48946,1,2,0:3:0:0:
64,286,49202,2,0,L|160:268,1,86.9999973449708,4|2,1:3|0:3,0:0:0:0:
167,275,49588,1,0,0:0:0:0:
184,280,49716,1,0,1:0:0:0:
256,320,49972,1,2,0:3:0:0:
59,192,50228,102,0,P|45:264|42:378,2,173.999994689942,4|0|0,1:3|1:0|1:0,0:0:0:0:
59,192,51767,1,4,0:2:0:0:
75,197,51895,1,0,0:2:0:0:
91,202,52023,1,2,0:2:0:0:
107,207,52151,1,0,0:2:0:0:
123,212,52280,85,4,0:0:0:0:
225,171,52536,1,0,0:0:0:0:
162,76,52792,2,0,P|232:59|278:71,1,101.499996902466,4|0,0:3|0:0,0:0:0:0:
348,119,53305,2,0,P|458:140|515:73,1,202.999993804932,2|2,0:0|1:0,0:0:0:0:
418,46,54074,1,0,0:0:0:0:
388,243,54331,86,0,L|369:346,1,101.499996902466,2|0,0:0|0:0,0:0:0:0:
270,181,54844,2,0,L|204:257,1,101.499996902466,2|0,0:0|0:0,0:0:0:0:
198,68,55356,2,0,L|96:104,1,101.499996902466,2|0,0:0|0:0,0:0:0:0:
72,227,55869,1,2,1:0:0:0:
72,227,56126,1,0,0:0:0:0:
191,272,56382,22,0,P|260:264|384:314,2,202.999993804932,4|2|4,0:0|0:0|0:3,0:0:0:0:
83,347,57664,1,4,0:3:0:0:
72,227,57921,1,2,1:0:0:0:
321,112,58433,86,0,P|252:120|128:70,2,202.999993804932,4|2|4,0:0|0:0|0:3,0:0:0:0:
429,37,59715,1,4,0:3:0:0:
440,157,59972,1,2,1:0:0:0:
429,37,60228,1,2,0:0:0:0:
440,157,60485,22,0,L|451:266,1,101.499996902466,4|0,0:0|0:0,0:0:0:0:
302,366,60998,2,0,P|338:341|395:331,1,101.499996902466,4|0,0:3|0:0,0:0:0:0:
202,323,61510,2,0,P|108:281|-8:285,1,202.999993804932,2|2,0:0|1:0,0:0:0:0:
213,219,62280,1,0,0:0:0:0:
47,145,62536,101,6,0:0:0:0:
163,85,62792,1,0,0:0:0:0:
227,199,63049,1,2,0:0:0:0:
111,259,63305,1,0,0:0:0:0:
138,170,63562,53,6,0:0:0:0:
254,110,63818,1,0,0:0:0:0:
318,224,64075,1,2,1:0:0:0:
202,284,64331,1,0,0:0:0:0:
227,199,64587,102,0,P|294:193|388:93,1,202.999993804932,6|2,0:0|1:1,0:0:0:0:
379,11,65356,1,0,0:0:0:0:
237,181,65613,86,0,P|304:187|398:287,1,202.999993804932,6|2,0:0|1:1,0:0:0:0:
389,369,66382,1,0,0:0:0:0:
247,163,66639,54,0,P|314:169|467:148,2,202.999993804932,4|4|4,1:2|1:2|1:2,0:0:0:0:
247,163,68177,21,0,1:0:0:0:
255,194,68305,1,0,1:0:0:0:
263,226,68433,1,0,1:0:0:0:
271,257,68561,1,0,1:0:0:0:
280,286,68690,101,4,1:0:0:0:
85,374,68946,2,0,L|92:294,1,58,0|0,1:3|0:0,0:0:0:0:
192,232,69203,2,0,L|178:359,1,116,8|2,0:1|0:2,0:0:0:0:
97,233,69587,1,2,0:2:0:0:
97,233,69715,53,0,1:0:0:0:
85,90,69972,2,0,L|92:170,1,58,0|0,1:3|0:0,0:0:0:0:
192,232,70229,2,0,L|178:105,1,116,8|2,0:1|0:2,0:0:0:0:
168,42,70613,1,2,0:2:0:0:
168,42,70741,38,0,B|199:42|199:42|240:63,1,58,0|0,1:0|0:0,0:0:0:0:
282,133,70998,1,2,1:3:0:0:
462,51,71254,2,0,B|404:43|404:43|346:82,1,116,8|2,0:1|0:3,0:0:0:0:
287,294,71767,37,4,1:1:0:0:
432,348,72023,2,0,P|467:362|490:367,1,58,2|0,1:1|0:0,0:0:0:0:
439,220,72280,2,0,B|334:239|398:278|280:296,1,174,10|0,0:1|0:0,0:0:0:0:
224,342,72792,85,4,1:1:0:0:
107,184,73049,2,0,L|173:189,1,58,0|0,1:0|0:0,0:0:0:0:
293,204,73305,2,0,B|235:218|235:218|166:180,1,116,8|2,0:1|0:2,0:0:0:0:
252,127,73690,1,2,0:2:0:0:
252,127,73818,53,0,1:0:0:0:
364,288,74074,2,0,L|296:280,1,58,0|0,1:0|0:0,0:0:0:0:
177,267,74330,2,0,B|233:251|233:251|303:289,1,116,8|2,0:1|0:2,0:0:0:0:
340,210,74715,1,2,0:2:0:0:
340,210,74844,38,0,L|328:137,1,58,0|0,1:0|0:0,0:0:0:0:
279,94,75100,1,2,1:3:0:0:
445,206,75356,1,8,0:1:0:0:
433,100,75613,37,2,0:3:0:0:
433,100,75741,1,0,0:0:0:0:
433,100,75869,1,4,1:1:0:0:
365,261,76126,1,2,1:1:0:0:
206,220,76382,2,0,P|201:160|271:42,1,174,10|0,0:1|0:0,0:0:0:0:
286,214,76895,5,4,1:3:0:0:
151,297,77151,1,4,0:3:0:0:
30,194,77408,1,8,0:1:0:0:
90,47,77664,1,2,0:2:0:0:
90,47,77792,1,2,0:2:0:0:
90,47,77921,1,4,1:2:0:0:
247,59,78177,2,0,L|368:39,1,116,2|8,1:1|0:1,0:0:0:0:
17,286,78690,2,0,L|88:275,1,58,2|0,1:1|1:0,0:0:0:0:
151,297,78946,21,4,1:3:0:0:
208,201,79203,1,4,0:3:0:0:
338,166,79459,1,8,0:1:0:0:
464,266,79715,1,2,0:2:0:0:
464,266,79844,1,2,0:2:0:0:
464,266,79972,1,4,1:2:0:0:
458,62,80228,2,0,L|442:176,1,116,2|8,1:1|0:1,0:0:0:0:
347,352,80741,2,0,L|356:288,1,58,2|0,1:1|1:0,0:0:0:0:
358,216,80998,70,0,B|341:179|341:179|363:110,1,108.75,4|2,1:2|0:2,0:0:0:0:
417,57,81510,1,8,0:1:0:0:
239,188,81767,1,2,0:2:0:0:
248,28,82023,70,0,L|260:167,1,130.499996017456,4|2,1:2|0:2,0:0:0:0:
161,191,82536,2,0,L|70:175,1,86.9999973449708,8|2,0:1|0:2,0:0:0:0:
6,158,82921,1,2,0:0:0:0:
6,158,83049,6,0,L|134:139,1,101.499996902466,4|0,1:2|1:0,0:0:0:0:
23,338,83562,2,0,L|181:313,1,152.249995353699,4|0,1:2|2:0,0:0:0:0:
245,261,84074,5,0,1:0:0:0:
272,230,84203,1,0,1:0:0:0:
311,222,84331,1,0,1:0:0:0:
350,228,84459,1,0,1:0:0:0:
384,249,84587,1,0,1:0:0:0:
413,276,84715,1,0,1:0:0:0:
453,281,84844,1,0,1:0:0:0:
491,268,84972,1,0,1:0:0:0:
512,230,85100,101,4,1:1:0:0:
318,316,85356,2,0,L|316:383,1,58,0|0,1:3|0:0,0:0:0:0:
221,283,85613,2,0,L|224:160,1,116,8|2,0:1|0:0,0:0:0:0:
141,345,85998,1,2,0:0:0:0:
141,345,86126,53,0,1:0:0:0:
127,200,86382,2,0,L|129:267,1,58,0|0,1:3|0:0,0:0:0:0:
224,167,86639,2,0,L|220:44,1,116,8|2,0:1|0:0,0:0:0:0:
305,227,87023,1,2,0:0:0:0:
305,227,87151,38,0,B|330:239|330:239|360:240,1,58,0|0,1:0|0:0,0:0:0:0:
346,142,87408,1,2,1:3:0:0:
457,156,87664,2,0,B|399:163|399:163|346:142,1,116,8|2,0:1|0:3,0:0:0:0:
215,221,88177,38,0,B|190:233|159:234,1,58,4|0,1:1|0:0,0:0:0:0:
166,142,88433,1,2,1:3:0:0:
52,157,88690,2,0,B|110:164|166:142,1,116,8|2,0:1|0:3,0:0:0:0:
242,54,89074,1,0,0:0:0:0:
242,54,89203,85,4,1:1:0:0:
321,201,89459,2,0,L|327:137,1,58,0|0,1:0|0:0,0:0:0:0:
344,0,89715,2,0,B|357:54|357:54|342:112,1,116,8|2,0:1|0:2,0:0:0:0:
242,54,90100,1,2,0:2:0:0:
242,54,90229,53,0,1:0:0:0:
163,201,90485,2,0,L|157:137,1,58,0|0,1:0|0:0,0:0:0:0:
140,0,90741,2,0,B|126:54|126:54|141:112,1,116,8|2,0:1|0:2,0:0:0:0:
242,54,91126,1,2,0:2:0:0:
242,54,91254,38,0,P|270:56|299:56,1,58,0|0,1:0|0:0,0:0:0:0:
372,27,91510,1,2,1:3:0:0:
291,157,91767,1,8,0:1:0:0:
444,163,92023,1,2,0:3:0:0:
444,163,92151,1,0,0:0:0:0:
444,163,92280,37,4,1:1:0:0:
299,56,92536,1,2,0:1:0:0:
126,108,92792,1,10,0:1:0:0:
91,286,93049,1,0,0:0:0:0:
257,357,93305,102,0,P|313:368|370:358,2,116,4|0|8,0:1|0:0|0:1,0:0:0:0:
137,123,94331,2,0,P|80:111|23:121,2,116,4|0|8,0:1|0:0|0:1,0:0:0:0:
234,39,95100,1,4,0:3:0:0:
406,142,95356,6,0,P|338:147|282:116,1,116,0|0,1:0|0:0,0:0:0:0:
234,39,95741,1,0,0:0:0:0:
233,39,95869,2,0,P|259:26|288:20,1,58,8|0,0:1|0:0,0:0:0:0:
287,234,96126,2,0,P|258:228|233:216,1,58,2|0,0:1|0:0,0:0:0:0:
295,127,96382,69,0,1:1:0:0:
128,188,96639,2,0,B|117:309|168:239|148:379,1,174,12|0,0:1|0:0,0:0:0:0:
61,326,97151,1,0,0:0:0:0:
61,326,97280,1,0,0:0:0:0:
61,326,97408,53,0,1:0:0:0:
290,220,97664,2,0,L|233:216,1,58,0|0,1:0|0:0,0:0:0:0:
280,321,97921,2,0,L|404:312,1,116,8|0,0:1|0:0,0:0:0:0:
443,250,98305,1,0,0:0:0:0:
443,250,98433,21,0,1:0:0:0:
213,144,98690,2,0,L|270:139,1,58,0|0,1:0|0:0,0:0:0:0:
224,245,98947,2,0,L|99:236,1,116,8|0,0:1|0:0,0:0:0:0:
83,266,99331,1,0,0:0:0:0:
61,299,99459,85,2,1:2:0:0:
61,299,99715,2,0,B|56:331|56:331|58:356,1,58,0|0,1:0|0:0,0:0:0:0:
151,171,99972,2,0,B|153:145|153:145|148:113,1,58,8|0,0:1|0:0,0:0:0:0:
108,236,100228,1,2,0:0:0:0:
18,108,100485,21,2,1:2:0:0:
18,108,100741,2,0,B|13:76|13:76|16:51,1,58,0|0,1:0|0:0,0:0:0:0:
108,236,100998,2,0,B|111:262|111:262|106:294,1,58,8|0,0:1|0:0,0:0:0:0:
65,171,101254,1,2,0:0:0:0:
275,43,101510,85,2,1:2:0:0:
275,43,101767,2,0,P|248:52|219:56,1,58,0|0,1:0|0:0,0:0:0:0:
65,171,102023,2,0,P|94:175|122:184,1,58,8|0,0:1|0:0,0:0:0:0:
174,124,102280,1,2,0:0:0:0:
384,252,102536,21,2,1:2:0:0:
384,252,102793,2,0,P|356:243|327:239,1,58,0|0,1:0|0:0,0:0:0:0:
174,124,103049,2,0,P|202:120|230:111,1,58,8|0,0:1|0:0,0:0:0:0:
283,171,103306,1,2,0:0:0:0:
178,21,103562,53,2,1:2:0:0:
445,72,104074,1,8,1:1:0:0:
47,37,104587,1,4,1:2:0:0:
47,37,105613,6,0,P|91:43|148:48,1,86.9999973449708,4|2,1:2|0:2,0:0:0:0:
269,150,106126,2,0,P|225:144|168:139,1,86.9999973449708,8|2,0:1|0:2,0:0:0:0:
182,139,106510,1,0,0:0:0:0:
182,139,106639,2,2,P|160:205|173:273,1,130.499996017456,0|0,1:1|0:1,0:1:0:0:
322,267,107151,2,2,P|281:243|229:241,1,86.9999973449708,8|2,0:1|0:1,0:1:0:0:
66,320,107664,37,2,1:1:0:0:
50,216,107921,1,0,1:1:0:0:
300,209,108177,69,8,0:1:0:0:
280,316,108433,1,2,0:2:0:0:
200,243,108690,1,2,1:2:0:0:
450,256,108946,37,2,0:3:0:0:
450,256,109203,2,0,P|443:305|435:355,1,86.9999973449708,8|10,0:1|1:3,0:0:0:0:
512,167,109715,69,4,1:2:0:0:
140,140,110100,1,2,0:2:0:0:
140,140,110228,1,8,1:1:0:0:
245,207,110485,1,2,0:2:0:0:
314,104,110741,2,2,P|369:83|465:94,1,130.499996017456,0|0,1:1|0:1,0:1:0:0:
250,39,111254,2,2,P|200:49|157:48,1,86.9999973449708,8|2,0:1|0:1,0:1:0:0:
84,80,111639,1,0,0:0:0:0:
84,80,111767,38,0,L|104:189,1,86.9999973449708,2|0,1:1|1:2,0:0:0:0:
208,364,112280,2,0,L|221:256,1,86.9999973449708,8|2,0:1|0:2,0:0:0:0:
112,183,112792,2,0,L|26:199,1,86.9999973449708,2|2,1:2|0:3,0:0:0:0:
273,165,113305,1,8,0:1:0:0:
490,314,113562,5,10,1:3:0:0:
490,314,113690,1,0,1:0:0:0:
490,314,113818,1,4,1:2:0:0:
371,331,114074,1,2,1:2:0:0:
356,210,114331,2,0,L|344:67,1,130.499996017456,8|2,0:1|0:2,0:0:0:0:
345,79,114844,1,0,1:0:0:0:
174,187,115100,2,2,P|221:174|278:151,1,86.9999973449708,0|8,1:1|0:1,0:1:0:0:
356,210,115613,1,2,0:1:0:0:
266,358,115869,102,0,P|213:339|125:328,1,130.499996017456,2|0,1:1|0:0,0:0:0:0:
140,329,116382,2,0,P|131:285|126:230,1,86.9999973449708,8|2,0:1|0:2,0:0:0:0:
208,69,116895,2,0,P|187:120|169:153,1,86.9999973449708,2|2,1:2|1:3,0:0:0:0:
64,147,117408,1,8,0:1:0:0:
231,219,117664,1,10,1:3:0:0:
289,39,117921,5,4,1:2:0:0:
452,273,118305,1,2,0:2:0:0:
452,273,118433,2,0,P|398:274|348:255,1,86.9999973449708,8|2,0:1|0:2,0:0:0:0:
238,368,118946,2,2,P|253:329|245:218,1,130.499996017456,0|0,1:1|0:1,0:1:0:0:
259,123,119459,2,2,P|212:128|165:159,1,86.9999973449708,8|2,0:1|0:1,0:0:0:0:
107,205,119844,1,0,0:0:0:0:
107,205,119972,102,0,L|86:116,1,86.9999973449708,2|0,1:1|1:0,0:0:0:0:
133,307,120485,2,0,L|66:369,1,86.9999973449708,8|2,0:1|0:2,0:0:0:0:
207,232,120869,1,0,0:0:0:0:
207,232,120998,2,0,L|294:258,1,86.9999973449708,2|2,1:2|1:3,0:0:0:0:
460,322,121510,1,8,0:1:0:0:
310,264,121767,1,10,1:3:0:0:
481,138,122023,86,0,P|487:166|490:195,2,57.9999982299805,6|0|0,1:2|0:0|0:2,0:0:0:0:
395,264,122536,2,0,P|386:291|374:318,2,57.9999982299805,8|0|0,1:1|0:0|0:2,0:0:0:0:
257,331,123049,2,0,P|235:350|212:367,2,57.9999982299805,2|0|0,1:2|0:0|0:2,0:0:0:0:
103,321,123562,2,0,P|74:327|45:330,2,57.9999982299805,8|0|0,1:1|0:0|0:2,0:0:0:0:
335,304,124074,102,0,P|331:275|331:246,2,57.9999982299805,2|0|0,1:2|0:0|0:0,0:0:0:0:
199,265,124587,2,0,P|210:238|224:213,2,57.9999982299805,8|0|0,1:1|0:0|0:0,0:0:0:0:
101,163,125100,2,0,P|124:145|149:131,2,57.9999982299805,2|0|0,1:2|0:0|0:0,0:0:0:0:
68,25,125613,2,0,P|96:21|125:21,2,57.9999982299805,8|0|0,1:1|0:0|0:0,0:0:0:0:
236,62,126126,6,0,L|334:56,1,86.9999973449708,8|4,1:1|0:3,0:0:0:0:
101,163,126639,2,0,L|3:157,1,86.9999973449708,8|4,1:1|0:3,0:0:0:0:
236,264,127151,2,0,L|334:258,1,86.9999973449708,8|4,1:1|0:3,0:0:0:0:
101,365,127664,2,0,L|3:359,1,86.9999973449708,8|4,1:1|0:3,0:0:0:0:
21,335,128049,1,4,0:3:0:0:
21,335,128177,37,8,0:1:0:0:
117,279,128433,1,8,0:1:0:0:
188,365,128690,1,8,0:1:0:0:
284,309,128946,1,8,0:1:0:0:
282,265,129074,1,8,0:1:0:0:
280,222,129202,1,8,0:1:0:0:
279,178,129330,1,8,0:1:0:0:
277,135,129458,1,8,0:1:0:0:
275,91,129587,1,8,0:1:0:0:
274,48,129715,70,0,P|247:38|218:32,2,57.9999982299805,2|0|0,0:3|0:0|0:0,0:0:0:0:
151,86,130228,85,6,0:2:0:0:
169,367,132280,86,0,P|122:372|73:366,1,96.6666666666667,2|0,0:0|0:0,0:0:0:0:
74,367,133305,2,0,B|87:306|87:306|75:250|75:250|94:178,2,193.333333333333,2|2|2,0:0|0:0|0:0,0:0:0:0:
195,191,135869,2,0,P|194:166|189:143,1,48.3333333333333
206,307,136382,54,0,P|253:317|300:307,1,96.6666666666667,2|0,0:0|0:0,0:0:0:0:
438,220,137151,1,0,0:0:0:0:
438,220,137280,1,0,0:0:0:0:
438,220,137408,2,0,P|343:204|250:229,2,193.333333333333,2|0|0,0:0|0:0|0:0,0:0:0:0:
343,206,140485,85,4,3:1:0:0:
343,206,140998,1,0,0:0:0:0:
438,220,141254,1,0,0:0:0:0:
257,259,141510,2,0,P|251:211|243:160,1,96.6666666666667,2|2,0:0|0:0,0:0:0:0:
243,163,142280,1,0,0:0:0:0:
162,103,142536,6,0,L|114:115,2,48.3333333333333,0|0|0,3:3|0:0|0:0,0:0:0:0:
177,21,143305,1,0,0:0:0:0:
153,187,143562,2,0,L|42:216,1,96.6666666666667,2|2,0:0|0:0,0:0:0:0:
310,27,144587,101,0,3:0:0:0:
310,27,145100,1,0,0:0:0:0:
300,137,145356,1,0,0:0:0:0:
407,141,145613,2,0,L|513:149,1,96.6666666666667,2|2,0:0|0:0,0:0:0:0:
503,148,146382,1,0,0:0:0:0:
491,241,146639,6,0,P|496:275|501:305,1,48.3333333333333,0|0,3:0|0:0,0:0:0:0:
413,349,147151,2,0,P|408:315|403:285,1,48.3333333333333,0|0,0:0|0:0,0:0:0:0:
316,251,147664,2,0,P|310:303|303:359,1,96.6666666666667,2|2,0:2|0:2,0:0:0:0:
49,100,148690,101,0,3:0:0:0:
49,100,149203,1,2,0:0:0:0:
150,156,149459,1,2,0:0:0:0:
204,58,149715,2,0,P|243:43|306:40,1,96.6666666666667,2|0,0:0|0:0,0:0:0:0:
150,156,150485,1,0,0:0:0:0:
92,246,150741,6,0,P|61:260|28:265,2,48.3333333333333,0|0|2,3:0|0:0|0:0,0:0:0:0:
150,156,151510,1,0,0:0:0:0:
240,220,151767,2,0,P|291:231|356:228,1,96.6666666666667,2|0,0:0|0:0,0:0:0:0:
372,156,152536,1,0,0:0:0:0:
372,156,152792,102,0,L|387:40,1,96.6666666666667,4|0,0:3|0:0,0:0:0:0:
256,128,153562,1,0,0:0:0:0:
140,156,153818,2,0,L|125:40,1,96.6666666666667,4|0,0:3|0:0,0:0:0:0:
256,128,154587,1,0,0:0:0:0:
321,261,154844,54,0,P|251:282|182:263,2,145,0|0|0,1:0|1:0|1:0,0:0:0:0:
321,261,156382,2,0,P|330:305|327:335,1,72.5,4|0,0:1|0:0,0:0:0:0:
256,128,156895,5,4,0:3:0:0:
328,268,157151,1,2,0:2:0:0:
328,268,157280,1,2,0:2:0:0:
328,268,157408,1,2,0:3:0:0:
379,55,157664,1,2,0:2:0:0:
448,186,157921,2,0,P|405:157|362:147,1,86.9999973449708,4|2,0:2|0:3,0:0:0:0:
251,306,158433,2,0,P|292:293|328:268,1,86.9999973449708,2|2,0:2|0:3,0:0:0:0:
289,43,158946,5,4,0:3:0:0:
240,185,159203,1,2,0:0:0:0:
348,162,159459,1,2,0:3:0:0:
454,195,159715,1,2,0:0:0:0:
454,195,159972,2,0,P|426:140|429:62,1,130.499996017456,4|0,0:2|0:0,0:0:0:0:
474,9,160485,21,2,1:2:0:0:
423,0,160613,1,2,0:0:0:0:
374,14,160741,1,2,0:0:0:0:
258,103,160998,70,0,P|203:114|122:94,1,130.499996017456,4|2,0:3|0:2,0:0:0:0:
131,98,161510,2,0,P|138:141|139:184,1,86.9999973449708,2|2,1:3|0:2,0:0:0:0:
53,355,162023,2,0,P|53:311|60:268,1,86.9999973449708,4|2,0:2|0:3,0:0:0:0:
189,321,162536,1,2,1:2:0:0:
279,253,162792,1,10,0:3:0:0:
385,318,163049,6,0,L|473:355,1,86.9999973449708,4|2,0:3|0:0,0:0:0:0:
393,186,163562,2,0,L|487:174,1,86.9999973449708,2|2,1:3|0:0,0:0:0:0:
333,67,163946,1,0,0:2:0:0:
333,67,164074,2,0,L|409:9,1,86.9999973449708,4|2,0:2|0:3,0:0:0:0:
263,176,164587,1,2,1:2:0:0:
135,167,164844,1,0,0:0:0:0:
80,71,165100,102,0,P|121:59|165:61,1,86.9999973449708,4|2,0:3|0:2,0:0:0:0:
165,273,165613,2,0,P|121:275|80:264,1,86.9999973449708,2|2,1:3|0:2,0:0:0:0:
79,264,165998,1,0,0:0:0:0:
79,264,166126,1,4,0:2:0:0:
232,352,166382,1,2,0:3:0:0:
297,251,166639,2,0,P|304:211|303:160,1,86.9999973449708,2|10,1:2|0:3,0:0:0:0:
241,90,167151,5,4,0:3:0:0:
421,174,167408,1,2,0:0:0:0:
345,357,167664,1,2,1:3:0:0:
165,273,167921,1,2,0:0:0:0:
297,251,168177,2,0,P|365:253|438:262,1,130.499996017456,4|0,0:2|0:3,0:0:0:0:
458,277,168690,2,0,P|473:210|473:172,1,86.9999973449708,2|10,1:2|0:3,0:0:0:0:
436,62,169203,102,0,L|338:74,1,86.9999973449708,0|2,1:3|0:3,0:0:0:0:
332,75,169587,1,0,0:0:0:0:
314,77,169715,1,0,1:0:0:0:
256,185,169972,1,2,0:3:0:0:
76,62,170228,2,0,L|174:74,1,86.9999973449708,0|2,1:3|0:3,0:0:0:0:
180,75,170612,1,0,0:0:0:0:
198,77,170740,1,0,1:0:0:0:
256,220,170998,1,2,0:3:0:0:
53,183,171254,102,0,P|52:104|64:0,2,173.999994689942,0|0|0,1:3|1:3|1:3,0:0:0:0:
254,260,172792,1,4,0:2:0:0:
222,253,172920,1,0,0:0:0:0:
190,250,173048,1,2,0:0:0:0:
157,250,173176,1,0,0:0:0:0:
124,257,173305,85,4,0:3:0:0:
17,226,173562,1,2,0:3:0:0:
17,226,173690,1,0,0:2:0:0:
17,226,173818,1,2,1:2:0:0:
51,118,174074,1,2,0:3:0:0:
158,160,174331,2,2,L|173:317,1,152.249995353699,4|2,0:2|0:2,0:1:0:0:
172,311,174844,1,8,0:1:0:0:
294,186,175100,1,4,0:3:0:0:
294,186,175228,1,0,0:0:0:0:
294,186,175356,86,0,L|284:291,1,101.499996902466,4|2,0:3|0:3,0:0:0:0:
388,350,175869,1,2,1:2:0:0:
477,260,176126,1,2,0:3:0:0:
408,186,176382,2,2,L|432:357,1,152.249995353699,4|2,0:2|0:2,0:1:0:0:
429,336,176895,1,8,0:1:0:0:
495,178,177151,22,0,L|502:125,2,50.749998451233,4|0|4,0:3|0:0|0:3,0:0:0:0:
368,155,177664,1,2,0:3:0:0:
342,156,177792,1,0,0:0:0:0:
317,147,177921,1,2,1:2:0:0:
296,132,178049,1,0,0:0:0:0:
281,111,178177,1,2,0:3:0:0:
105,264,178433,2,2,P|174:257|251:198,1,152.249995353699,4|2,0:2|0:2,0:1:0:0:
241,211,178946,1,8,0:1:0:0:
282,321,179203,86,0,L|294:379,2,50.749998451233,4|0|4,0:3|0:0|0:3,0:0:0:0:
224,128,179715,1,2,0:3:0:0:
249,127,179844,1,0,0:0:0:0:
273,133,179972,1,2,1:2:0:0:
294,145,180100,1,0,0:0:0:0:
313,160,180228,1,2,0:3:0:0:
96,236,180485,2,2,P|80:192|84:83,1,152.249995353699,4|2,0:2|0:2,0:1:0:0:
82,87,180998,1,8,0:1:0:0:
213,71,181254,21,4,0:3:0:0:
213,71,181382,1,0,0:0:0:0:
213,71,181510,1,4,0:3:0:0:
328,49,181767,2,0,L|431:28,1,101.499996902466,2|2,0:3|1:2,0:0:0:0:
482,197,182280,1,2,0:3:0:0:
301,153,182536,2,2,L|464:172,1,152.249995353699,4|2,0:2|0:2,0:1:0:0:
452,170,183049,1,8,0:1:0:0:
365,288,183305,101,4,0:3:0:0:
365,288,183433,1,0,0:0:0:0:
365,288,183562,1,4,0:3:0:0:
494,350,183818,1,2,0:3:0:0:
324,370,184074,1,2,1:2:0:0:
439,228,184331,1,2,0:3:0:0:
347,96,184587,54,0,P|303:110|251:152,1,101.499996902466,8|2,0:1|0:2,0:0:0:0:
49,165,185100,1,2,1:2:0:0:
85,304,185356,1,2,0:2:0:0:
202,206,185613,102,2,P|173:131|102:62,1,152.249995353699,0|2,1:1|0:2,0:1:0:0:
125,78,186126,2,0,P|69:62|4:37,1,101.499996902466,8|2,0:1|0:2,0:0:0:0:
150,277,186639,86,2,P|200:240|301:234,1,152.249995353699,0|2,1:1|0:2,0:1:0:0:
287,230,187151,2,0,P|305:175|316:130,1,101.499996902466,8|2,1:1|0:2,0:0:0:0:
235,52,187664,54,0,L|183:39,2,50.749998451233,4|0|2,1:2|0:0|0:2,0:0:0:0:
396,66,188177,1,4,1:2:0:0:
396,66,188305,1,0,0:0:0:0:
396,66,188433,1,2,0:2:0:0:
184,154,188690,2,0,L|125:166,2,50.749998451233,4|0|2,1:2|0:2|0:2,0:0:0:0:
406,184,189203,1,4,1:2:0:0:
406,184,189331,1,0,0:0:0:0:
406,184,189459,1,2,0:2:0:0:
406,184,189972,21,8,0:1:0:0:
252,233,190228,1,8,0:1:0:0:
254,270,190356,1,0,0:0:0:0:
256,308,190484,1,0,0:0:0:0:
259,346,190612,1,0,0:0:0:0:
261,384,190741,101,4,1:0:0:0:
153,259,190997,1,0,1:0:0:0:
273,158,191253,2,0,P|274:215|253:269,1,116,8|2,0:1|0:0,0:0:0:0:
205,324,191638,1,2,0:0:0:0:
205,324,191766,53,0,1:0:0:0:
354,215,192023,1,0,1:0:0:0:
492,369,192279,2,0,P|486:289|463:237,1,116,8|2,0:1|1:2,0:0:0:0:
398,283,192664,1,2,0:0:0:0:
354,215,192792,37,0,1:0:0:0:
226,297,193048,1,2,1:3:0:0:
114,194,193305,1,8,0:1:0:0:
178,57,193561,1,2,0:3:0:0:
330,64,193817,37,4,1:1:0:0:
362,222,194074,1,2,1:1:0:0:
362,222,194202,1,0,0:0:0:0:
362,222,194330,2,0,B|251:212|309:260|194:249,1,174,10|0,0:1|0:0,0:0:0:0:
114,194,194843,85,4,1:0:0:0:
185,24,195099,1,0,1:0:0:0:
1,44,195356,2,0,P|30:91|83:121,1,116,8|2,0:1|0:0,0:0:0:0:
157,106,195741,1,2,0:0:0:0:
157,106,195869,53,0,1:0:0:0:
266,245,196125,1,0,1:0:0:0:
377,108,196382,2,0,P|320:104|267:126,1,116,8|2,0:1|1:2,0:0:0:0:
222,185,196766,1,2,0:0:0:0:
266,245,196894,37,0,1:0:0:0:
96,202,197151,1,2,0:3:0:0:
182,338,197407,1,8,0:1:0:0:
88,191,197664,1,2,0:3:0:0:
18,344,197920,37,4,1:1:0:0:
196,201,198176,1,2,1:1:0:0:
331,337,198433,2,0,P|395:314|451:211,1,174,10|0,0:1|0:0,0:0:0:0:
417,151,198946,5,4,1:3:0:0:
337,66,199202,1,4,0:3:0:0:
200,40,199458,1,8,0:1:0:0:
50,105,199715,1,2,0:0:0:0:
50,105,199843,1,2,0:0:0:0:
50,105,199971,1,4,1:2:0:0:
171,187,200228,2,0,L|185:48,1,116,2|8,1:1|0:1,0:0:0:0:
347,333,200741,2,0,L|354:262,1,58,2|0,1:1|1:0,0:0:0:0:
360,185,200997,21,4,1:3:0:0:
267,269,201253,1,4,0:3:0:0:
171,187,201510,1,8,0:1:0:0:
264,103,201766,1,2,0:0:0:0:
264,103,201894,1,2,0:0:0:0:
264,103,202023,1,4,1:2:0:0:
181,46,202279,2,0,L|50:59,1,116,2|8,1:1|0:1,0:0:0:0:
283,114,202792,2,0,L|361:106,1,58,2|0,1:1|1:0,0:0:0:0:
418,63,203048,70,0,B|463:53|495:54|495:54|492:89,1,108.75,4|2,1:2|0:0,0:0:0:0:
474,165,203561,1,8,0:1:0:0:
264,103,203817,1,2,0:0:0:0:
277,210,204074,70,0,L|287:80,1,130.499996017456,4|2,1:2|0:0,0:0:0:0:
245,12,204587,1,8,0:1:0:0:
139,262,204843,1,2,0:0:0:0:
139,262,204971,1,2,0:0:0:0:
139,262,205099,102,0,B|200:265|200:265|236:293|236:293|299:296,1,152.249995353699,4|0,1:2|0:0,0:0:0:0:
273,198,205612,2,0,P|320:193|377:207,1,101.499996902466,4|0,1:2|0:0,0:0:0:0:
420,326,206126,37,0,1:0:0:0:
387,364,206254,1,0,1:0:0:0:
341,384,206382,1,0,1:0:0:0:
291,383,206510,1,0,1:0:0:0:
245,362,206639,1,0,1:0:0:0:
213,323,206767,1,0,1:0:0:0:
200,274,206895,1,0,1:0:0:0:
208,225,207023,1,0,1:0:0:0:
240,187,207151,101,4,1:0:0:0:
367,259,207407,1,0,1:0:0:0:
413,105,207664,2,0,P|359:130|320:189,1,116,8|2,0:1|0:2,0:0:0:0:
294,248,208048,1,2,0:2:0:0:
294,248,208176,53,0,1:0:0:0:
335,53,208433,1,0,1:0:0:0:
490,151,208689,2,0,P|446:177|364:167,1,116,8|2,0:1|1:2,0:0:0:0:
326,127,209074,1,2,0:2:0:0:
335,53,209202,37,0,1:0:0:0:
425,262,209458,1,2,1:3:0:0:
430,93,209715,1,8,0:1:0:0:
305,251,209971,1,2,0:3:0:0:
305,251,210099,1,0,0:0:0:0:
305,251,210228,37,4,1:0:0:0:
148,122,210484,2,2,B|121:177|121:177|142:240,1,116,0|10,1:1|0:1,0:0:0:0:
236,323,210997,1,0,1:0:0:0:
93,326,211253,85,4,1:0:0:0:
219,180,211510,1,0,1:0:0:0:
78,46,211766,2,0,P|34:95|22:151,1,116,8|2,0:1|0:2,0:0:0:0:
56,212,212151,1,2,0:2:0:0:
56,212,212279,53,0,1:0:0:0:
219,180,212535,1,0,1:0:0:0:
183,359,212792,2,0,P|139:310|127:254,1,116,8|2,0:1|1:2,0:0:0:0:
144,191,213176,1,2,0:2:0:0:
115,124,213305,37,0,1:0:0:0:
226,27,213561,1,2,1:3:0:0:
355,99,213817,1,8,0:1:0:0:
323,241,214074,1,2,0:3:0:0:
323,241,214202,1,0,0:0:0:0:
323,241,214330,37,4,1:0:0:0:
502,128,214587,1,2,1:1:0:0:
465,277,214843,1,10,0:1:0:0:
355,99,215099,1,0,1:0:0:0:
412,183,215356,101,4,1:0:0:0:
239,260,215612,1,2,0:0:0:0:
239,260,215741,1,0,0:0:0:0:
239,260,215869,2,0,P|231:198|214:79,1,174,8|0,0:1|0:0,0:0:0:0:
215,87,216382,1,0,1:0:0:0:
334,124,216638,1,2,0:0:0:0:
109,204,216894,2,0,P|117:267|126:329,1,116,8|0,0:1|1:0,0:0:0:0:
124,318,217279,1,0,0:0:0:0:
124,318,217407,6,0,L|0:336,1,116,0|2,1:0|0:2,0:0:0:0:
224,212,217920,2,0,L|104:203,1,116,8|2,0:1|0:2,0:0:0:0:
108,203,218305,1,0,0:0:0:0:
108,203,218433,1,0,1:0:0:0:
320,358,218689,2,0,P|393:362|480:274,1,174,10|0,0:1|0:0,0:0:0:0:
238,322,219202,6,0,L|226:380,2,58,2|0|0,0:2|0:0|1:0,0:0:0:0:
284,150,219715,2,0,B|312:203|312:203|294:275,1,116,0|8,1:2|0:1,0:0:0:0:
208,218,220228,21,2,0:2:0:0:
208,218,220356,1,0,0:0:0:0:
208,218,220484,1,0,1:0:0:0:
320,358,220741,1,0,1:1:0:0:
457,245,220997,2,0,L|474:111,1,116,8|2,0:1|0:2,0:0:0:0:
471,129,221382,1,0,0:0:0:0:
471,129,221510,85,0,1:0:0:0:
363,203,221766,1,8,0:1:0:0:
339,201,221894,1,2,0:0:0:0:
317,193,222023,1,8,0:1:0:0:
299,178,222151,1,2,0:0:0:0:
285,159,222279,1,8,0:1:0:0:
333,366,222535,1,4,1:2:0:0:
186,325,222792,21,10,1:1:0:0:
343,272,223048,1,4,0:2:0:0:
181,339,223305,1,10,1:1:0:0:
80,185,223561,85,6,1:0:0:0:
183,242,223817,1,8,1:0:0:0:
216,251,223946,1,2,0:0:0:0:
250,245,224074,1,8,0:1:0:0:
279,226,224202,1,2,0:0:0:0:
295,195,224330,1,8,1:1:0:0:
89,288,224587,1,4,1:2:0:0:
211,161,224843,21,10,1:1:0:0:
31,130,225099,1,4,0:2:0:0:
216,179,225356,1,10,0:1:0:0:
317,16,225612,53,6,1:0:0:0:
228,288,226125,1,8,1:1:0:0:
473,346,226638,1,4,1:2:0:0:
472,346,227664,86,0,P|474:302|472:259,1,86.9999973449708,2|2,3:3|0:0,0:0:0:0:
363,190,228176,2,0,P|361:146|363:103,1,86.9999973449708,2|0,3:2|0:0,0:0:0:0:
254,259,228689,2,0,P|191:257|84:242,1,130.499996017456,2|0,3:2|0:0,0:0:0:0:
124,249,229202,2,0,P|124:300|128:349,1,86.9999973449708,2|2,3:2|0:0,0:0:0:0:
215,156,229715,6,0,P|217:112|217:69,2,86.9999973449708,0|0|0,3:0|0:0|3:0,0:0:0:0:
124,249,230484,1,0,0:0:0:0:
6,102,230741,1,2,3:0:0:0:
136,94,230997,1,0,0:0:0:0:
138,223,231253,1,2,3:2:0:0:
8,233,231510,1,2,0:0:0:0:
297,252,231766,22,0,P|340:254|384:253,1,86.9999973449708,2|2,3:3|0:0,0:0:0:0:
241,95,232279,2,0,P|197:93|154:96,1,86.9999973449708,2|2,3:2|0:0,0:0:0:0:
371,7,232792,2,0,P|433:17|502:74,1,130.499996017456,2|0,3:2|0:0,0:0:0:0:
487,55,233305,2,0,P|487:98|489:142,1,86.9999973449708,2|2,3:2|0:0,0:0:0:0:
381,339,233817,86,0,P|383:295|382:252,2,86.9999973449708,0|0|0,3:0|0:0|3:0,0:0:0:0:
277,299,234587,1,0,0:0:0:0:
173,339,234843,1,0,3:0:0:0:
173,339,235099,1,0,0:0:0:0:
69,299,235356,2,0,P|76:256|79:212,1,86.9999973449708,0|0,3:0|0:0,0:0:0:0:
168,54,235869,22,0,P|171:97|178:140,1,86.9999973449708,2|2,3:3|0:0,0:0:0:0:
187,156,236253,1,0,0:0:0:0:
195,171,236382,1,2,3:2:0:0:
91,191,236638,1,2,0:0:0:0:
152,357,236894,2,0,P|148:313|141:270,1,86.9999973449708,2|0,3:1|0:0,0:0:0:0:
115,231,237279,1,0,0:0:0:0:
91,191,237407,1,2,3:2:0:0:
259,244,237664,1,2,0:0:0:0:
411,160,237920,86,0,P|415:116|424:74,1,86.9999973449708,0|0,3:0|0:0,0:0:0:0:
342,258,238433,2,0,P|337:214|328:172,1,86.9999973449708,0|0,3:0|0:0,0:0:0:0:
411,358,238946,2,0,P|415:314|424:272,1,86.9999973449708,2|0,3:1|0:0,0:0:0:0:
288,354,239458,1,0,3:0:0:0:
222,227,239715,1,0,0:0:0:0:
94,290,239971,22,0,P|51:280|10:265,1,86.9999973449708,2|2,3:3|0:0,0:0:0:0:
10,265,240356,1,0,0:0:0:0:
10,265,240484,1,2,3:2:0:0:
167,362,240741,1,0,0:0:0:0:
224,203,240997,2,0,P|234:143|235:41,1,130.499996017456,2|0,3:1|0:0,0:0:0:0:
236,73,241510,2,0,P|293:79|349:74,1,86.9999973449708,2|2,3:2|0:0,0:0:0:0:
323,78,243561,86,0,L|351:82,5,28.9999991149903,0|0|0|0|0|0,1:0|1:0|1:0|1:0|1:0|1:0,1:0:0:0:
365,85,244074,37,4,1:0:0:0:
481,237,244330,1,2,0:2:0:0:
481,237,244458,1,2,0:2:0:0:
481,237,244587,1,0,1:0:0:0:
491,95,244843,1,2,0:2:0:0:
206,251,245099,2,2,L|334:228,1,130.499996017456,0|2,1:2|0:2,0:0:0:0:
350,213,245612,1,8,1:2:0:0:
305,345,245869,1,2,0:2:0:0:
206,251,246125,38,2,L|107:231,1,86.9999973449708,0|2,1:1|0:1,0:1:0:0:
218,61,246638,2,0,L|232:153,1,86.9999973449708,2|0,1:1|0:0,0:0:0:0:
334,168,247151,1,4,1:2:0:0:
355,169,247279,1,0,0:0:0:0:
376,165,247407,1,2,0:3:0:0:
396,158,247535,1,0,0:0:0:0:
413,144,247664,1,8,1:2:0:0:
439,47,247920,1,2,0:3:0:0:
265,118,248176,6,2,P|266:205|292:288,1,173.999994689942,4|0,1:1|1:1,0:1:0:0:
331,40,248946,1,2,0:2:0:0:
169,189,249202,1,2,1:1:0:0:
169,189,249330,1,0,0:0:0:0:
169,189,249458,1,2,0:2:0:0:
169,189,249587,1,0,0:2:0:0:
169,189,249715,2,0,L|152:98,1,86.9999973449708,8|2,1:2|0:2,0:0:0:0:
153,103,250099,1,0,0:0:0:0:
153,103,250228,38,0,L|56:85,1,86.9999973449708,0|2,1:2|0:2,0:0:0:0:
73,264,250741,2,0,L|215:290,1,130.499996017456,2|0,1:2|0:0,0:0:0:0:
222,280,251253,1,4,1:2:0:0:
92,351,251510,1,2,0:3:0:0:
38,193,251766,1,8,1:2:0:0:
176,125,252023,1,2,0:3:0:0:
374,233,252279,6,0,L|481:245,1,86.9999973449708,4|2,1:1|0:2,0:0:0:0:
460,242,252664,1,0,0:2:0:0:
460,242,252792,1,0,1:0:0:0:
347,338,253048,1,2,0:2:0:0:
256,231,253305,2,2,P|239:279|233:371,1,130.499996017456,0|2,1:2|0:2,0:0:0:0:
172,192,253817,2,0,P|167:141|147:91,1,86.9999973449708,8|2,1:2|0:2,0:0:0:0:
93,236,254330,37,0,1:0:0:0:
324,300,254587,1,2,0:1:0:0:
324,300,254715,1,0,0:0:0:0:
324,300,254843,1,0,1:3:0:0:
155,367,255099,1,2,0:1:0:0:
256,183,255356,2,2,L|244:271,1,86.9999973449708,4|2,1:2|0:1,0:1:0:0:
28,306,255869,2,0,L|113:290,1,86.9999973449708,8|2,1:2|0:3,0:0:0:0:
134,283,256253,1,0,0:0:0:0:
155,283,256382,5,6,1:1:0:0:
350,224,256638,2,2,P|392:248|426:279,1,86.9999973449708,0|0,0:1|1:1,0:1:0:0:
272,282,257151,1,2,0:1:0:0:
238,119,257407,1,2,1:1:0:0:
217,111,257535,1,0,0:0:0:0:
195,110,257664,1,2,0:2:0:0:
174,116,257792,1,0,0:0:0:0:
156,128,257920,1,8,1:2:0:0:
127,219,258176,1,2,0:2:0:0:
313,149,258433,38,0,L|337:30,1,86.9999973449708,0|2,1:0|0:2,0:0:0:0:
453,302,258946,1,2,1:2:0:0:
453,302,259074,1,0,0:0:0:0:
453,302,259202,1,0,0:0:0:0:
453,302,259330,1,0,0:0:0:0:
453,302,259458,2,0,L|479:193,1,86.9999973449708,4|2,1:2|0:3,0:0:0:0:
360,191,259843,1,0,0:0:0:0:
360,191,259971,2,0,L|347:89,1,86.9999973449708,8|2,1:2|0:3,0:0:0:0:
246,217,260356,1,0,0:0:0:0:
246,217,260484,5,4,1:0:0:0:
326,297,260741,1,2,0:2:0:0:
177,295,260997,2,0,P|102:279|26:290,1,130.499996017456,8|0,1:1|0:0,0:0:0:0:
0,214,261510,1,0,1:2:0:0:
3,170,261638,1,0,0:0:0:0:
7,127,261766,1,0,0:0:0:0:
10,83,261894,1,2,0:2:0:0:
14,40,262023,2,0,P|78:44|142:28,1,130.499996017456,8|0,1:1|0:0,0:0:0:0:
222,95,262535,37,0,1:1:0:0:
222,95,262664,1,0,0:0:0:0:
222,95,262792,1,2,0:1:0:0:
279,276,263048,2,0,P|275:212|291:148,1,130.499996017456,10|0,1:1|0:0,0:0:0:0:
222,95,263561,1,4,1:2:0:0:
222,95,263689,1,0,0:0:0:0:
222,95,263817,1,2,0:3:0:0:
325,32,264074,2,0,P|377:32|434:42,1,86.9999973449708,8|2,1:1|0:3,0:0:0:0:
411,36,264458,1,0,0:0:0:0:
411,36,264587,6,0,L|401:137,1,86.9999973449708,4|0,1:1|0:0,0:0:0:0:
450,349,265099,2,0,P|460:275|455:196,1,130.499996017456,8|0,1:1|0:0,0:0:0:0:
393,148,265612,1,2,1:1:0:0:
349,149,265740,1,0,0:0:0:0:
306,151,265868,1,2,0:2:0:0:
262,153,265996,1,0,0:2:0:0:
219,155,266125,2,0,P|209:229|214:308,1,130.499996017456,8|0,1:1|0:0,0:0:0:0:
282,348,266638,37,0,1:2:0:0:
282,348,266766,1,0,0:0:0:0:
282,348,266894,1,2,0:2:0:0:
110,350,267151,1,10,1:1:0:0:
110,350,267279,1,0,0:0:0:0:
110,350,267407,1,0,0:0:0:0:
110,350,267535,1,0,0:0:0:0:
110,350,267664,2,0,L|122:243,1,86.9999973449708,4|2,1:2|0:3,0:0:0:0:
187,166,268048,1,0,0:0:0:0:
187,166,268176,2,0,L|175:59,1,86.9999973449708,8|2,1:1|0:3,0:0:0:0:
423,101,268689,5,4,1:1:0:0:
341,163,268946,1,2,0:2:0:0:
282,80,269202,1,8,1:1:0:0:
363,19,269458,1,2,0:2:0:0:
320,187,269715,1,0,1:2:0:0:
320,187,269843,1,0,0:0:0:0:
320,187,269971,1,0,0:0:0:0:
320,187,270099,1,2,0:2:0:0:
320,187,270228,2,0,L|326:294,1,86.9999973449708,8|2,1:1|0:2,0:0:0:0:
265,365,270741,38,0,P|224:350|181:340,1,86.9999973449708,0|2,1:0|0:1,0:0:0:0:
441,384,271253,1,8,1:1:0:0:
436,340,271381,1,0,0:0:0:0:
432,297,271509,1,2,0:1:0:0:
428,254,271637,1,0,0:0:0:0:
423,210,271766,2,0,P|463:195|506:185,1,86.9999973449708,4|2,1:2|0:3,0:0:0:0:
299,219,272279,1,8,1:1:0:0:
213,129,272535,1,2,0:3:0:0:
272,32,272792,6,0,P|206:22|123:54,1,130.499996017456,6|0,1:1|0:0,0:0:0:0:
213,129,273305,2,0,P|275:146|339:136,1,130.499996017456,8|0,1:1|0:0,0:0:0:0:
406,191,273817,1,2,1:1:0:0:
402,234,273945,1,0,0:0:0:0:
399,277,274073,1,2,0:2:0:0:
396,321,274201,1,0,0:0:0:0:
393,364,274329,1,8,1:1:0:0:
188,270,274587,1,2,0:2:0:0:
188,270,274715,1,0,0:0:0:0:
188,270,274843,38,0,L|309:290,1,86.9999973449708,0|2,1:0|0:2,0:0:0:0:
493,218,275356,2,0,L|407:232,1,86.9999973449708,10|0,1:1|0:0,0:0:0:0:
161,117,275869,2,0,L|282:137,1,86.9999973449708,4|2,1:2|0:3,0:0:0:0:
229,291,276382,1,8,1:1:0:0:
107,345,276638,1,2,0:3:0:0:
65,216,276894,5,4,1:3:0:0:
138,264,277151,2,0,L|151:371,1,86.9999973449708,2|8,0:1|1:0,0:0:0:0:
195,196,277664,1,2,0:2:0:0:
206,190,277792,1,2,0:2:0:0:
218,185,277920,2,0,L|225:85,1,86.9999973449708,4|2,1:2|0:2,0:0:0:0:
293,244,278433,1,10,1:1:0:0:
364,179,278689,1,8,0:3:0:0:
456,203,278946,53,4,1:3:0:0:
387,350,279202,2,0,L|375:263,1,86.9999973449708,2|8,0:1|1:0,0:0:0:0:
275,75,279715,1,2,0:2:0:0:
283,84,279843,1,2,0:2:0:0:
292,92,279971,2,0,L|286:190,1,86.9999973449708,4|2,1:2|0:2,0:0:0:0:
285,204,280356,1,0,0:0:0:0:
283,230,280484,1,10,1:1:0:0:
165,104,280741,1,8,0:3:0:0:
47,221,280997,53,4,1:3:0:0:
201,282,281253,1,2,0:1:0:0:
266,87,281510,1,8,1:1:0:0:
302,267,281766,1,2,0:2:0:0:
302,267,281894,1,2,0:2:0:0:
302,267,282023,2,0,L|281:147,1,86.9999973449708,4|2,1:2|0:2,0:0:0:0:
408,157,282407,1,0,0:0:0:0:
408,157,282535,2,0,L|423:59,1,86.9999973449708,10|8,1:1|0:3,0:0:0:0:
508,232,283048,53,4,1:3:0:0:
353,288,283305,1,2,0:1:0:0:
271,132,283561,1,8,1:1:0:0:
222,349,283817,1,2,0:2:0:0:
233,342,283946,1,2,0:2:0:0:
244,336,284074,2,0,L|255:240,1,86.9999973449708,4|2,1:2|0:2,0:0:0:0:
144,46,284587,1,10,1:1:0:0:
174,168,284843,1,8,0:3:0:0:
52,192,285099,53,4,1:2:0:0:
311,252,285356,2,2,P|304:306|295:357,1,101.499996902466,2|10,0:2|1:1,0:0:0:0:
253,81,285869,1,2,0:2:0:0:
253,81,285997,1,2,0:2:0:0:
253,81,286125,1,4,1:2:0:0:
411,207,286382,1,2,0:2:0:0:
203,290,286638,2,2,P|131:296|45:353,1,152.249995353699,8|2,1:1|0:2,0:0:0:0:
62,334,287151,53,4,1:2:0:0:
244,214,287407,1,2,0:1:0:0:
124,95,287664,2,0,P|142:160|159:200,1,101.499996902466,8|2,1:0|0:2,0:0:0:0:
328,260,288176,1,4,1:2:0:0:
359,52,288433,1,2,0:2:0:0:
359,52,288561,1,2,0:2:0:0:
359,52,288689,1,10,1:1:0:0:
497,172,288946,1,2,0:0:0:0:
497,172,289074,1,0,0:0:0:0:
497,172,289202,54,2,L|386:149,1,101.499996902466,4|2,1:2|0:1,0:0:0:0:
288,358,289715,2,0,P|269:307|304:194,1,152.249995353699,8|2,1:0|0:2,0:0:0:0:
288,213,290228,1,4,1:2:0:0:
452,96,290484,1,2,0:2:0:0:
452,96,290612,1,2,0:2:0:0:
452,96,290741,1,10,0:1:0:0:
431,243,290997,1,2,0:2:0:0:
309,74,291253,54,2,L|195:93,1,101.499996902466,4|2,0:2|0:1,0:0:0:0:
188,94,291638,1,2,0:2:0:0:
168,97,291766,1,8,0:0:0:0:
35,161,292023,1,2,0:1:0:0:
64,168,292151,1,2,0:2:0:0:
93,175,292279,1,4,0:2:0:0:
254,215,292535,1,2,0:2:0:0:
214,224,292664,1,2,0:2:0:0:
174,234,292792,1,10,0:1:0:0:
22,265,293048,1,2,0:2:0:0:
243,337,293305,54,0,P|294:344|344:345,1,101.499996902466,8|0,0:1|0:0,0:0:0:0:
347,88,293817,2,0,P|297:89|247:96,1,101.499996902466,8|0,0:1|0:0,0:0:0:0:
419,264,294330,2,0,P|418:214|411:163,1,101.499996902466,8|0,0:1|0:0,0:0:0:0:
170,160,294843,2,0,P|163:211|162:261,1,101.499996902466,8|0,0:1|0:0,0:0:0:0:
462,95,295356,53,0,1:0:0:0:
411,90,295484,1,0,1:0:0:0:
361,94,295612,1,0,1:0:0:0:
312,108,295740,1,0,1:0:0:0:
266,129,295868,1,0,1:0:0:0:
219,150,295997,1,0,1:0:0:0:
170,160,296125,1,0,1:0:0:0:
119,158,296253,1,0,1:0:0:0:
70,144,296382,53,0,1:0:0:0:
119,113,296510,1,0,1:0:0:0:
178,111,296638,1,0,1:0:0:0:
228,141,296766,1,0,1:0:0:0:
256,192,296894,1,0,1:0:0:0:
254,250,297023,1,0,1:0:0:0:
221,299,297151,2,0,P|202:316|181:329,1,50.749998451233,0|0,1:0|1:0,0:0:0:0:
256,192,299458,69,2,2:3:0:0:
256,192,299715,12,2,303561,2:3:0:0:
256,192,303689,12,0,307664,2:0:0:0:
