osu file format v14

[General]
AudioFilename: audio.mp3
AudioLeadIn: 0
PreviewTime: 50457
Countdown: 0
SampleSet: Normal
StackLeniency: 0.7
Mode: 1
LetterboxInBreaks: 0
WidescreenStoryboard: 0

[Editor]
Bookmarks: 1355,17765,34175,50585,66996,79303,87508
DistanceSpacing: 1.2
BeatDivisor: 4
GridSize: 32
TimelineZoom: 1

[Metadata]
Title:FLIP FLAP FLIP FLAP (TV Size)
TitleUnicode:FLIP FLAP FLIP FLAP (TV Size)
Artist:TO-MAS feat. Chima
ArtistUnicode:TO-MAS feat. Chima
Creator:Roger
Version:Creamy's Oni
Source:フリップフラッパーズ
Tags:taiko ed ending Flip Flappers 伊藤真澄 Itou Masumi creamy candy
BeatmapID:2166318
BeatmapSetID:1036089

[Difficulty]
HPDrainRate:6
CircleSize:2
OverallDifficulty:5
ApproachRate:0
SliderMultiplier:1.4
SliderTickRate:1

[Events]
//Background and Video events
0,0,"creamy.jpg",0,15
//Break Periods
//Storyboard Layer 0 (Background)
//Storyboard Layer 1 (Fail)
//Storyboard Layer 2 (Pass)
//Storyboard Layer 3 (Foreground)
//Storyboard Layer 4 (Overlay)
//Storyboard Sound Samples

[TimingPoints]
1355,512.820512820513,4,1,0,50,1,0
17765,-100,4,1,0,60,0,0
34175,-100,4,1,0,70,0,0
50585,-95.2380952380952,4,1,0,80,0,1
65970,-95.2380952380952,4,1,0,80,0,0
66996,-95.2380952380952,4,1,0,80,0,1
85457,-95.2380952380952,4,1,0,80,0,0

[HitObjects]
256,192,1355,5,4,0:0:0:0:
256,192,1867,1,8,0:0:0:0:
256,192,2124,1,0,0:0:0:0:
256,192,2380,1,8,0:0:0:0:
256,192,2893,1,0,0:0:0:0:
256,192,3149,1,8,0:0:0:0:
256,192,3406,1,8,0:0:0:0:
256,192,3662,1,0,0:0:0:0:
256,192,3919,1,8,0:0:0:0:
256,192,4175,1,0,0:0:0:0:
256,192,4431,1,8,0:0:0:0:
256,192,4944,1,8,0:0:0:0:
256,192,5072,1,8,0:0:0:0:
256,192,5201,1,0,0:0:0:0:
256,192,5457,1,8,0:0:0:0:
256,192,5970,1,0,0:0:0:0:
256,192,6226,1,0,0:0:0:0:
256,192,6483,1,8,0:0:0:0:
256,192,6996,1,8,0:0:0:0:
256,192,7252,1,0,0:0:0:0:
256,192,7508,1,8,0:0:0:0:
256,192,7765,1,0,0:0:0:0:
256,192,8021,1,0,0:0:0:0:
256,192,8278,1,8,0:0:0:0:
256,192,8534,1,0,0:0:0:0:
256,192,9047,1,0,0:0:0:0:
256,192,9303,1,0,0:0:0:0:
256,192,9560,1,8,0:0:0:0:
256,192,10072,1,8,0:0:0:0:
256,192,10329,1,8,0:0:0:0:
256,192,10585,1,0,0:0:0:0:
256,192,11098,1,8,0:0:0:0:
256,192,11226,1,0,0:0:0:0:
256,192,11355,1,0,0:0:0:0:
256,192,11611,1,8,0:0:0:0:
256,192,11867,1,0,0:0:0:0:
256,192,12124,1,8,0:0:0:0:
256,192,12380,1,0,0:0:0:0:
256,192,12637,1,8,0:0:0:0:
256,192,13149,1,8,0:0:0:0:
256,192,13278,1,8,0:0:0:0:
256,192,13406,1,0,0:0:0:0:
256,192,13662,1,8,0:0:0:0:
256,192,14175,1,0,0:0:0:0:
256,192,14431,1,0,0:0:0:0:
256,192,14688,1,8,0:0:0:0:
256,192,14944,1,0,0:0:0:0:
256,192,15201,1,8,0:0:0:0:
256,192,15457,1,0,0:0:0:0:
256,192,15713,1,8,0:0:0:0:
256,192,16226,1,8,0:0:0:0:
256,192,16739,1,0,0:0:0:0:
256,192,17252,1,4,0:0:0:0:
256,192,17765,1,8,0:0:0:0:
256,192,17893,1,0,0:0:0:0:
256,192,18021,1,0,0:0:0:0:
256,192,18278,1,8,0:0:0:0:
256,192,18534,1,0,0:0:0:0:
256,192,18790,1,8,0:0:0:0:
256,192,19303,1,8,0:0:0:0:
256,192,19560,1,0,0:0:0:0:
256,192,19816,1,8,0:0:0:0:
256,192,20072,1,8,0:0:0:0:
256,192,20329,1,0,0:0:0:0:
256,192,20585,1,8,0:0:0:0:
256,192,20842,1,0,0:0:0:0:
256,192,21355,1,8,0:0:0:0:
256,192,21483,1,8,0:0:0:0:
256,192,21611,1,0,0:0:0:0:
256,192,21867,1,8,0:0:0:0:
256,192,21996,1,0,0:0:0:0:
256,192,22125,1,0,0:0:0:0:
256,192,22380,1,8,0:0:0:0:
256,192,22637,1,0,0:0:0:0:
256,192,22893,1,8,0:0:0:0:
256,192,23406,1,8,0:0:0:0:
256,192,23662,1,0,0:0:0:0:
256,192,23919,1,8,0:0:0:0:
256,192,24175,1,8,0:0:0:0:
256,192,24431,1,0,0:0:0:0:
256,192,24688,1,8,0:0:0:0:
256,192,24944,1,0,0:0:0:0:
256,192,25457,1,0,0:0:0:0:
256,192,25713,1,0,0:0:0:0:
256,192,25842,1,0,0:0:0:0:
256,192,25970,1,8,0:0:0:0:
256,192,26483,1,8,0:0:0:0:
256,192,26739,1,0,0:0:0:0:
256,192,26996,1,8,0:0:0:0:
256,192,27508,1,0,0:0:0:0:
256,192,27765,1,0,0:0:0:0:
256,192,28021,1,8,0:0:0:0:
256,192,28278,1,0,0:0:0:0:
256,192,28534,1,8,0:0:0:0:
256,192,28790,1,0,0:0:0:0:
256,192,29047,1,8,0:0:0:0:
256,192,29560,1,0,0:0:0:0:
256,192,29816,1,0,0:0:0:0:
256,192,30072,1,8,0:0:0:0:
256,192,30585,1,0,0:0:0:0:
256,192,30842,1,8,0:0:0:0:
256,192,31098,1,8,0:0:0:0:
256,192,31611,1,0,0:0:0:0:
256,192,31867,1,8,0:0:0:0:
256,192,32124,1,0,0:0:0:0:
256,192,32637,1,8,0:0:0:0:
256,192,33149,1,0,0:0:0:0:
256,192,33662,1,0,0:0:0:0:
256,192,33790,1,0,0:0:0:0:
256,192,33919,1,0,0:0:0:0:
256,192,34047,1,0,0:0:0:0:
256,192,34175,1,8,0:0:0:0:
256,192,34431,1,0,0:0:0:0:
256,192,34688,1,8,0:0:0:0:
256,192,34944,1,8,0:0:0:0:
256,192,35201,1,0,0:0:0:0:
256,192,35713,1,8,0:0:0:0:
256,192,35970,1,8,0:0:0:0:
256,192,36226,1,0,0:0:0:0:
256,192,36483,1,8,0:0:0:0:
256,192,36739,1,0,0:0:0:0:
256,192,36996,1,8,0:0:0:0:
256,192,37252,1,0,0:0:0:0:
256,192,37765,1,0,0:0:0:0:
256,192,38021,1,0,0:0:0:0:
256,192,38149,1,0,0:0:0:0:
256,192,38278,1,8,0:0:0:0:
256,192,38534,1,8,0:0:0:0:
256,192,38790,1,0,0:0:0:0:
256,192,39047,1,0,0:0:0:0:
256,192,39303,1,8,0:0:0:0:
256,192,39816,1,0,0:0:0:0:
256,192,40072,1,0,0:0:0:0:
256,192,40201,1,0,0:0:0:0:
256,192,40329,1,8,0:0:0:0:
256,192,40842,1,8,0:0:0:0:
256,192,41098,1,8,0:0:0:0:
256,192,41355,1,0,0:0:0:0:
256,192,41867,1,0,0:0:0:0:
256,192,42124,1,0,0:0:0:0:
256,192,42252,1,0,0:0:0:0:
256,192,42380,1,8,0:0:0:0:
256,192,42637,1,0,0:0:0:0:
256,192,42893,1,8,0:0:0:0:
256,192,43149,1,8,0:0:0:0:
256,192,43406,1,0,0:0:0:0:
256,192,43919,1,8,0:0:0:0:
256,192,44175,1,0,0:0:0:0:
256,192,44431,1,8,0:0:0:0:
256,192,44688,1,8,0:0:0:0:
256,192,44944,1,0,0:0:0:0:
256,192,45201,1,0,0:0:0:0:
256,192,45457,1,8,0:0:0:0:
256,192,45713,1,0,0:0:0:0:
256,192,45970,1,8,0:0:0:0:
256,192,46226,1,0,0:0:0:0:
256,192,46483,1,12,0:0:0:0:
256,192,46996,1,0,0:0:0:0:
256,192,47508,1,12,0:0:0:0:
256,192,47893,1,0,0:0:0:0:
256,192,48021,1,0,0:0:0:0:
256,192,48278,1,0,0:0:0:0:
256,192,48534,1,12,0:0:0:0:
256,192,49047,1,4,0:0:0:0:
256,192,49560,1,12,0:0:0:0:
256,192,50072,1,4,0:0:0:0:
256,192,50585,5,12,0:0:0:0:
256,192,50970,1,0,0:0:0:0:
256,192,51098,1,0,0:0:0:0:
256,192,51483,1,8,0:0:0:0:
256,192,51611,1,8,0:0:0:0:
256,192,51996,1,0,0:0:0:0:
256,192,52124,1,0,0:0:0:0:
256,192,52637,1,8,0:0:0:0:
256,192,52893,1,8,0:0:0:0:
256,192,53021,1,8,0:0:0:0:
256,192,53149,1,0,0:0:0:0:
256,192,53406,1,8,0:0:0:0:
256,192,53662,1,0,0:0:0:0:
256,192,53919,1,8,0:0:0:0:
256,192,54175,1,0,0:0:0:0:
256,192,54688,1,0,0:0:0:0:
256,192,55072,1,8,0:0:0:0:
256,192,55201,1,8,0:0:0:0:
256,192,55585,1,0,0:0:0:0:
256,192,55713,1,0,0:0:0:0:
256,192,56098,1,8,0:0:0:0:
256,192,56226,1,8,0:0:0:0:
256,192,56739,1,8,0:0:0:0:
256,192,56996,1,0,0:0:0:0:
256,192,57124,1,0,0:0:0:0:
256,192,57252,1,8,0:0:0:0:
256,192,57508,1,0,0:0:0:0:
256,192,57765,1,0,0:0:0:0:
256,192,58021,1,8,0:0:0:0:
256,192,58278,1,8,0:0:0:0:
256,192,58534,1,0,0:0:0:0:
256,192,58662,1,0,0:0:0:0:
256,192,58790,1,8,0:0:0:0:
256,192,59047,1,0,0:0:0:0:
256,192,59303,1,8,0:0:0:0:
256,192,59560,1,0,0:0:0:0:
256,192,59816,1,0,0:0:0:0:
256,192,60072,1,8,0:0:0:0:
256,192,60585,1,0,0:0:0:0:
256,192,60713,1,0,0:0:0:0:
256,192,60842,1,8,0:0:0:0:
256,192,61098,1,0,0:0:0:0:
256,192,61355,1,8,0:0:0:0:
256,192,61611,1,0,0:0:0:0:
256,192,61867,1,8,0:0:0:0:
256,192,62124,1,8,0:0:0:0:
256,192,62380,1,0,0:0:0:0:
256,192,62637,1,0,0:0:0:0:
256,192,62893,1,8,0:0:0:0:
256,192,63406,1,0,0:0:0:0:
256,192,63662,1,8,0:0:0:0:
256,192,63790,1,8,0:0:0:0:
256,192,63919,1,0,0:0:0:0:
256,192,64431,1,0,0:0:0:0:
256,192,64688,1,0,0:0:0:0:
256,192,64816,1,0,0:0:0:0:
256,192,64944,1,8,0:0:0:0:
256,192,65201,1,0,0:0:0:0:
256,192,65457,1,8,0:0:0:0:
256,192,65713,1,0,0:0:0:0:
256,192,65970,1,12,0:0:0:0:
256,192,66483,1,4,0:0:0:0:
256,192,66996,1,12,0:0:0:0:
256,192,67380,1,0,0:0:0:0:
256,192,67508,1,0,0:0:0:0:
256,192,67893,1,8,0:0:0:0:
256,192,68021,1,8,0:0:0:0:
256,192,68406,1,0,0:0:0:0:
256,192,68534,1,0,0:0:0:0:
256,192,69047,1,8,0:0:0:0:
256,192,69303,1,0,0:0:0:0:
256,192,69431,1,0,0:0:0:0:
256,192,69560,1,8,0:0:0:0:
256,192,69816,1,0,0:0:0:0:
256,192,70072,1,8,0:0:0:0:
256,192,70329,1,0,0:0:0:0:
256,192,70585,1,8,0:0:0:0:
256,192,70842,1,8,0:0:0:0:
256,192,71098,1,0,0:0:0:0:
256,192,71483,1,8,0:0:0:0:
256,192,71611,1,8,0:0:0:0:
256,192,71996,1,0,0:0:0:0:
256,192,72124,1,0,0:0:0:0:
256,192,72508,1,8,0:0:0:0:
256,192,72637,1,8,0:0:0:0:
256,192,73149,1,8,0:0:0:0:
256,192,73406,1,0,0:0:0:0:
256,192,73534,1,0,0:0:0:0:
256,192,73662,1,8,0:0:0:0:
256,192,73919,1,0,0:0:0:0:
256,192,74175,1,0,0:0:0:0:
256,192,74431,1,8,0:0:0:0:
256,192,74688,1,8,0:0:0:0:
256,192,74944,1,0,0:0:0:0:
256,192,75201,1,8,0:0:0:0:
256,192,75457,1,8,0:0:0:0:
256,192,75585,1,8,0:0:0:0:
256,192,75713,1,0,0:0:0:0:
256,192,76226,1,8,0:0:0:0:
256,192,76483,1,0,0:0:0:0:
256,192,76611,1,0,0:0:0:0:
256,192,76739,1,8,0:0:0:0:
256,192,76996,1,0,0:0:0:0:
256,192,77252,1,8,0:0:0:0:
256,192,77508,1,0,0:0:0:0:
256,192,77765,1,8,0:0:0:0:
256,192,78021,1,8,0:0:0:0:
256,192,78278,1,0,0:0:0:0:
256,192,78534,1,0,0:0:0:0:
256,192,78662,1,0,0:0:0:0:
256,192,78790,1,8,0:0:0:0:
256,192,79047,1,8,0:0:0:0:
256,192,79175,1,0,0:0:0:0:
256,192,79303,1,8,0:0:0:0:
256,192,79560,1,0,0:0:0:0:
256,192,79816,1,8,0:0:0:0:
256,192,80072,1,8,0:0:0:0:
256,192,80201,1,8,0:0:0:0:
256,192,80329,1,0,0:0:0:0:
256,192,80585,1,0,0:0:0:0:
256,192,80842,1,8,0:0:0:0:
256,192,81098,1,8,0:0:0:0:
256,192,81226,1,0,0:0:0:0:
256,192,81355,1,8,0:0:0:0:
256,192,81611,1,0,0:0:0:0:
256,192,81867,1,0,0:0:0:0:
256,192,82124,1,8,0:0:0:0:
256,192,82637,1,0,0:0:0:0:
256,192,82893,1,8,0:0:0:0:
256,192,83149,1,0,0:0:0:0:
256,192,83406,1,8,0:0:0:0:
256,192,83662,1,8,0:0:0:0:
256,192,83790,1,0,0:0:0:0:
256,192,83919,1,8,0:0:0:0:
256,192,84175,1,8,0:0:0:0:
256,192,84431,1,0,0:0:0:0:
256,192,84688,1,8,0:0:0:0:
256,192,84816,1,0,0:0:0:0:
256,192,84944,1,8,0:0:0:0:
256,192,85201,1,0,0:0:0:0:
256,192,85329,1,0,0:0:0:0:
256,192,85457,1,8,0:0:0:0:
256,192,85970,1,4,0:0:0:0:
256,192,86483,1,12,0:0:0:0:
