osu file format v14

[General]
AudioFilename: FLIP FLAP FLIP FLAP.mp3
AudioLeadIn: 0
PreviewTime: 49868
Countdown: 0
SampleSet: Soft
StackLeniency: 0.7
Mode: 0
LetterboxInBreaks: 0
WidescreenStoryboard: 0

[Editor]
DistanceSpacing: 1.2
BeatDivisor: 4
GridSize: 16
TimelineZoom: 1

[Metadata]
Title:FLIP FLAP FLIP FLAP (TV SIZE)
TitleUnicode:FLIP FLAP FLIP FLAP (TV SIZE)
Artist:TO-MAS feat. Chima
ArtistUnicode:TO-MAS feat. Chima
Creator:Hailie
Version:Normal
Source:フリップフラッパーズ
Tags:flip flappers 伊藤真澄 itou masumi anime ed ending DJ Lucky
BeatmapID:1150385
BeatmapSetID:542737

[Difficulty]
HPDrainRate:4
CircleSize:3.3
OverallDifficulty:4
ApproachRate:5
SliderMultiplier:1.4
SliderTickRate:1

[Events]
//Background and Video events
Video,-700,"video.flv"
0,0,"background.jpg",0,0
//Break Periods
//Storyboard Layer 0 (Background)
//Storyboard Layer 1 (Fail)
//Storyboard Layer 2 (Pass)
//Storyboard Layer 3 (Foreground)
//Storyboard Sound Samples

[TimingPoints]
766,512.820512820513,4,2,1,60,1,0
47945,-100,4,2,1,70,0,0
48458,-100,4,2,1,75,0,0
48971,-100,4,2,1,80,0,0
49996,-100,4,2,1,80,0,1
65381,-100,4,2,1,80,0,0
66407,-100,4,2,1,80,0,1
84868,-100,4,2,1,80,0,0

[Colours]
Combo1 : 128,255,255
Combo2 : 255,255,0
Combo3 : 255,0,128
Combo4 : 255,128,64

[HitObjects]
20,196,766,6,0,P|69:227|152:188,1,140,6|4,0:0|0:3,0:0:0:0:
171,128,1535,1,0,0:0:0:0:
171,128,1791,2,0,P|235:102|308:130,1,140,2|4,0:0|0:3,0:0:0:0:
327,202,2560,1,0,0:0:0:0:
327,202,2817,6,0,L|307:299,1,70,2|0,0:0|0:0,0:0:0:0:
282,348,3330,2,0,P|246:338|198:345,1,70,4|0,0:3|0:0,0:0:0:0:
130,342,3842,2,0,P|69:328|51:255,1,140,2|6,0:0|0:3,0:0:0:0:
66,177,4612,1,2,0:0:0:0:
66,177,4868,6,0,P|132:151|204:184,1,140,2|4,0:0|0:3,0:0:0:0:
273,202,5637,1,0,0:0:0:0:
273,202,5894,2,0,L|266:372,1,140,2|4,0:0|0:3,0:0:0:0:
186,358,6663,1,0,0:0:0:0:
186,358,6919,6,0,P|140:361|111:349,2,70,2|0|4,0:0|0:0|0:3,0:0:0:0:
165,276,7689,1,0,0:0:0:0:
165,276,7945,2,0,P|167:241|205:197,1,70,2|0,0:0|0:0,0:0:0:0:
244,154,8458,2,0,P|276:148|331:158,1,70,4|0,0:3|0:0,0:0:0:0:
395,167,8971,6,0,P|411:236|374:309,1,140,2|4,0:0|0:3,0:0:0:0:
311,338,9740,1,0,0:0:0:0:
227,326,9996,2,0,P|184:271|181:203,1,140,2|6,0:0|0:3,0:0:0:0:
267,184,10766,1,2,0:0:0:0:
267,184,11022,6,0,B|321:161|347:205|408:178,1,140,2|4,0:0|0:3,0:0:0:0:
480,143,11791,1,0,0:0:0:0:
414,90,12048,2,0,B|357:119|331:75|277:98,1,140,2|6,0:0|0:3,0:0:0:0:
196,71,12817,1,2,0:0:0:0:
196,71,13073,6,0,P|191:131|274:183,1,140,2|4,0:0|0:3,0:0:0:0:
310,235,13842,1,0,0:0:0:0:
310,235,14099,2,0,L|293:327,1,70,2|0,0:0|0:0,0:0:0:0:
225,347,14612,2,0,P|186:339|145:347,1,70,4|0,0:3|0:0,0:0:0:0:
77,315,15124,2,0,P|44:267|68:186,2,140,2|2|2,0:0|0:0|0:0,0:0:0:0:
217,222,16663,1,4,0:0:0:0:
349,118,17176,6,0,P|382:113|427:122,2,70,2|2|4,0:0|0:0|0:3,0:0:0:0:
270,149,17945,1,0,0:0:0:0:
200,102,18201,2,0,P|131:101|84:177,1,140,2|4,0:0|0:3,0:0:0:0:
53,227,18971,1,0,0:0:0:0:
53,227,19227,6,0,P|87:234|137:219,1,70,2|2,0:0|0:0,0:0:0:0:
199,196,19740,2,0,P|235:189|284:201,1,70,4|0,0:3|0:3,0:0:0:0:
302,271,20253,2,0,P|346:229|337:148,1,140,2|6,0:0|0:3,0:0:0:0:
299,80,21022,1,2,0:0:0:0:
299,80,21278,6,0,P|338:70|388:85,1,70,2|0,0:0|0:0,0:0:0:0:
447,49,21791,2,0,P|453:89|440:140,1,70,4|2,0:3|0:0,0:0:0:0:
438,201,22304,2,0,P|430:235|432:281,2,70,2|0|4,0:0|0:0|0:3,0:0:0:0:
356,181,23073,1,0,0:0:0:0:
356,181,23330,6,0,P|317:175|285:184,1,70,2|0,0:0|0:0,0:0:0:0:
269,264,23842,2,0,P|234:271|188:256,1,70,4|0,0:3|0:0,0:0:0:0:
118,278,24355,2,0,L|116:131,1,140,2|4,0:0|0:3,0:0:0:0:
118,53,25124,1,2,0:0:0:0:
118,53,25381,6,0,P|170:34|257:52,1,140,2|4,0:0|0:3,0:0:0:0:
331,21,26150,1,0,0:0:0:0:
331,21,26407,2,0,P|337:64|315:116,1,70,2|0,0:0|0:0,0:0:0:0:
286,160,26919,2,0,P|322:172|372:158,1,70,4|0,0:3|0:0,0:0:0:0:
437,171,27432,6,0,P|458:238|409:296,1,140,2|4,0:0|0:3,0:0:0:0:
336,301,28201,1,0,0:0:0:0:
336,301,28458,2,0,L|253:302,1,70,2|0,0:0|0:0,0:0:0:0:
233,224,28971,2,0,P|222:187|231:134,1,70,4|0,0:3|0:0,0:0:0:0:
283,98,29483,6,0,P|226:73|148:118,1,140,6|4,0:0|0:3,0:0:0:0:
138,184,30253,1,0,0:0:0:0:
138,184,30509,2,0,L|137:276,1,70,2|0,0:0|0:0,0:0:0:0:
155,336,31022,2,0,P|193:329|243:342,1,70,4|0,0:3|0:0,0:0:0:0:
309,332,31535,2,0,P|368:306|373:222,2,140,2|2|2,0:0|0:0|0:0,0:0:0:0:
235,180,33073,1,6,0:0:0:0:
264,17,33586,6,0,B|201:53|176:-5|104:43,1,140,6|4,0:0|0:3,0:0:0:0:
150,111,34355,1,0,0:0:0:0:
227,144,34612,2,0,B|278:119|309:174|378:137,1,140,2|12,0:0|0:0,0:0:0:0:
395,224,35381,1,0,0:0:0:0:
395,224,35637,6,0,L|403:319,2,70,2|0|4,0:0|0:0|0:3,0:0:0:0:
466,179,36407,1,0,0:0:0:0:
466,179,36663,2,0,L|457:102,1,70,2|0,0:0|0:0,0:0:0:0:
382,71,37176,1,8,0:0:0:0:
318,126,37432,1,0,0:0:0:0:
251,71,37689,6,2,P|213:70|167:95,1,70,6|0,0:0|0:0,0:0:0:0:
137,151,38201,2,2,P|111:176|101:221,1,70,2|0,0:0|0:0,0:0:0:0:
159,268,38714,2,2,P|154:309|174:353,2,70,2|0|8,0:0|0:0|0:0,0:0:0:0:
311,196,39740,6,2,P|316:162|299:101,1,70,6|0,0:0|0:0,0:0:0:0:
234,91,40253,2,2,P|218:56|185:34,1,70,2|0,0:0|0:0,0:0:0:0:
122,82,40766,2,2,P|94:50|44:43,2,70,2|0|8,0:0|0:0|0:0,0:0:0:0:
49,124,41535,1,2,0:0:0:0:
49,124,41791,6,0,L|33:282,1,140,6|4,0:0|0:3,0:0:0:0:
61,343,42560,1,0,0:0:0:0:
61,343,42817,2,0,P|98:350|151:342,1,70,2|0,0:0|0:0,0:0:0:0:
185,288,43330,2,0,P|222:282|273:289,1,70,8|0,0:0|0:0,0:0:0:0:
332,315,43842,6,0,P|397:321|425:245,1,140,6|4,0:0|0:3,0:0:0:0:
420,178,44612,1,0,0:0:0:0:
347,136,44868,2,0,P|308:141|266:134,2,70,2|0|8,0:0|0:0|0:0,0:0:0:0:
312,58,45637,1,0,0:0:0:0:
228,52,45894,6,0,P|176:93|197:185,1,140,6|8,0:0|0:0,0:0:0:0:
252,200,46663,1,2,0:0:0:0:
310,141,46919,1,6,0:0:0:0:
378,190,47176,2,0,P|413:187|469:213,2,70,0|8|0,0:0|0:0|0:0,0:0:0:0:
327,257,47945,6,0,L|285:352,1,70,6|0,0:0|0:0,0:0:0:0:
216,323,48458,2,0,L|180:250,1,70,6|0,0:0|0:0,0:0:0:0:
222,184,48971,2,0,P|260:193|306:173,1,70,6|0,0:0|0:0,0:0:0:0:
261,106,49483,1,6,0:0:0:0:
261,106,49740,1,2,0:0:0:0:
253,22,49996,6,0,P|188:4|111:34,1,140,6|8,0:0|0:0,0:0:0:0:
60,81,50766,1,0,0:0:0:0:
60,81,51022,2,0,L|63:167,1,70,2|0,0:0|0:0,0:0:0:0:
36,230,51535,2,0,P|77:234|124:207,1,70,8|0,0:0|0:0,0:0:0:0:
162,165,52048,6,0,L|251:301,1,140,2|8,0:0|0:0,0:0:0:0:
292,344,52817,1,0,0:0:0:0:
374,331,53073,2,0,P|391:302|383:235,2,70,2|0|8,0:0|0:0|0:0,0:0:0:0:
316,269,53842,1,0,0:0:0:0:
316,269,54099,6,0,P|251:253|183:275,1,140,6|8,0:0|0:0,0:0:0:0:
151,352,54868,1,0,0:0:0:0:
151,352,55124,2,0,P|117:331|100:295,1,70,2|0,0:0|0:0,0:0:0:0:
58,233,55637,2,0,P|62:195|47:141,1,70,8|0,0:0|0:0,0:0:0:0:
135,135,56150,6,0,B|183:134|183:134|226:109|226:109|289:110,1,140,2|8,0:0|0:0,0:0:0:0:
348,105,56919,1,0,0:0:0:0:
424,69,57176,2,0,P|428:106|411:157,1,70,2|0,0:0|0:0,0:0:0:0:
478,199,57689,2,0,P|471:236|482:286,1,70,8|0,0:0|0:0,0:0:0:0:
419,330,58201,6,0,B|359:308|343:356|281:324,1,140,4|8,0:0|0:0,0:0:0:0:
198,336,58971,1,0,0:0:0:0:
198,336,59227,2,0,P|199:300|228:257,1,70,2|0,0:0|0:0,0:0:0:0:
168,199,59740,1,8,0:0:0:0:
247,172,59996,1,0,0:0:0:0:
218,91,60253,6,0,P|286:69|360:112,1,140,6|8,0:0|0:0,0:0:0:0:
415,140,61022,1,0,0:0:0:0:
415,140,61278,2,0,P|393:167|337:178,1,70,2|0,0:0|0:0,0:0:0:0:
276,172,61791,2,0,P|262:208|270:251,1,70,8|0,0:0|0:0,0:0:0:0:
306,311,62304,6,0,B|358:313|358:313|399:335|399:335|455:336,1,140,6|8,0:0|0:0,0:0:0:0:
449,253,63073,1,0,0:0:0:0:
449,253,63330,2,0,B|467:185|414:175|456:94,1,140,2|8,0:0|0:0,0:0:0:0:
395,48,64099,1,0,0:0:0:0:
395,48,64355,6,2,P|358:46|315:65,1,70,2|0,0:0|0:0,0:0:0:0:
283,128,64868,2,2,P|248:139|210:128,1,70,10|0,0:0|0:0,0:0:0:0:
140,99,65381,1,14,0:0:0:0:
71,146,65637,2,0,P|55:179|63:237,2,70,0|14|0,0:0|0:0|0:0,0:0:0:0:
135,202,66407,6,0,P|181:227|269:199,1,140,6|8,0:0|0:0,0:0:0:0:
304,278,67176,1,0,0:0:0:0:
304,278,67432,2,0,L|367:350,1,70,2|0,0:0|0:0,0:0:0:0:
420,284,67945,2,0,L|468:223,1,70,8|0,0:0|0:0,0:0:0:0:
451,145,68458,6,0,P|385:149|347:92,1,140,2|8,0:0|0:0,0:0:0:0:
280,45,69227,1,0,0:0:0:0:
198,26,69483,2,0,P|159:24|111:58,2,70,2|0|8,0:0|0:0|0:0,0:0:0:0:
182,109,70253,1,0,0:0:0:0:
182,109,70509,6,0,L|217:250,1,140,6|8,0:0|0:0,0:0:0:0:
295,216,71278,1,0,0:0:0:0:
295,216,71535,2,0,P|317:184|351:171,1,70,2|0,0:0|0:0,0:0:0:0:
379,248,72048,2,0,P|410:230|434:192,1,70,8|0,0:0|0:0,0:0:0:0:
457,123,72560,6,0,P|422:63|339:61,1,140,2|8,0:0|0:0,0:0:0:0:
288,102,73330,1,0,0:0:0:0:
210,71,73586,2,0,P|171:80|140:128,1,70,2|0,0:0|0:0,0:0:0:0:
66,103,74099,2,0,P|51:136|60:195,1,70,8|0,0:0|0:0,0:0:0:0:
96,239,74612,5,4,0:0:0:0:
164,191,74868,1,0,0:0:0:0:
218,258,75124,2,0,P|248:270|308:255,1,70,14|0,0:0|0:0,0:0:0:0:
359,228,75637,2,0,P|395:224|444:242,2,70,6|0|8,0:0|0:0|0:0,0:0:0:0:
301,167,76407,1,0,0:0:0:0:
301,167,76663,6,0,L|311:25,1,140,2|8,0:0|0:0,0:0:0:0:
227,18,77432,1,0,0:0:0:0:
165,75,77689,1,2,0:0:0:0:
86,45,77945,2,0,P|47:31|11:37,2,70,6|8|2,0:0|0:0|0:0,0:0:0:0:
37,114,78714,6,0,P|29:181|47:261,1,140,6|8,0:0|0:0,0:0:0:0:
114,205,79483,1,2,0:0:0:0:
114,205,79740,2,0,P|162:241|180:173,1,140,6|8,0:0|0:0,0:0:0:0:
230,111,80509,1,2,0:0:0:0:
230,111,80766,6,2,P|263:156|263:247,1,140,14|8,0:0|0:0,0:0:0:0:
207,295,81535,1,0,0:0:0:0:
207,295,81791,2,0,P|172:310|116:304,1,70,10|0,0:0|0:0,0:0:0:0:
58,292,82304,2,0,P|41:263|37:199,1,70,8|0,0:0|0:0,0:0:0:0:
34,143,82817,6,0,P|77:89|164:96,1,140,6|8,0:0|0:0,0:0:0:0:
223,112,83586,1,0,0:0:0:0:
293,66,83842,2,0,P|329:63|377:83,1,70,8|2,0:0|0:0,0:0:0:0:
419,132,84355,2,0,L|400:222,1,70,10|2,0:0|0:0,0:0:0:0:
380,281,84868,5,6,0:0:0:0:
242,184,85381,1,14,0:0:0:0:
284,346,85894,1,14,0:0:0:0:
