osu file format v14

[General]
AudioFilename: FLIP FLAP FLIP FLAP.mp3
AudioLeadIn: 0
PreviewTime: 49868
Countdown: 0
SampleSet: Soft
StackLeniency: 0.7
Mode: 0
LetterboxInBreaks: 0
WidescreenStoryboard: 0

[Editor]
Bookmarks: 17183,33593
DistanceSpacing: 0.8
BeatDivisor: 4
GridSize: 16
TimelineZoom: 1

[Metadata]
Title:FLIP FLAP FLIP FLAP (TV SIZE)
TitleUnicode:FLIP FLAP FLIP FLAP (TV SIZE)
Artist:TO-MAS feat. Chima
ArtistUnicode:TO-MAS feat. Chima
Creator:Hailie
Version:Hard
Source:フリップフラッパーズ
Tags:flip flappers 伊藤真澄 itou masumi anime ed ending DJ Lucky
BeatmapID:1396370
BeatmapSetID:542737

[Difficulty]
HPDrainRate:5
CircleSize:3.5
OverallDifficulty:5
ApproachRate:6
SliderMultiplier:1.6
SliderTickRate:1

[Events]
//Background and Video events
Video,-700,"video.flv"
0,0,"background.jpg",0,0
//Break Periods
//Storyboard Layer 0 (Background)
//Storyboard Layer 1 (Fail)
//Storyboard Layer 2 (Pass)
//Storyboard Layer 3 (Foreground)
//Storyboard Sound Samples

[TimingPoints]
766,512.820512820513,4,2,1,60,1,0
33586,-125,4,2,1,60,0,0
43842,-111.111111111111,4,2,1,60,0,0
45894,-99.9999999999999,4,2,1,60,0,0
47945,-100,4,2,1,70,0,0
48458,-100,4,2,1,75,0,0
48971,-100,4,2,1,80,0,0
49996,-100,4,2,1,80,0,1
65381,-100,4,2,1,80,0,0
66407,-100,4,2,1,80,0,1
84868,-100,4,2,1,80,0,0

[Colours]
Combo1 : 128,255,255
Combo2 : 255,255,0
Combo3 : 255,0,128
Combo4 : 255,128,64

[HitObjects]
21,57,766,6,0,P|76:97|161:74,1,160,6|4,0:0|0:3,0:0:0:0:
248,34,1535,1,0,0:0:0:0:
248,34,1791,2,0,P|285:41|358:21,1,80,2|0,0:0|0:0,0:0:0:0:
443,74,2304,2,0,P|449:114|439:166,1,80,4|0,0:3|0:0,0:0:0:0:
301,164,2817,6,0,P|259:170|203:161,1,80,2|0,0:0|0:0,0:0:0:0:
254,301,3330,2,0,P|294:295|334:299,1,80,4|0,0:3|0:0,0:0:0:0:
451,340,3842,2,0,P|461:298|443:235,1,80,2|0,0:0|0:0,0:0:0:0:
459,108,4355,2,0,L|459:62,2,40,6|0|2,0:3|0:0|0:0,0:0:0:0:
303,49,4868,6,0,P|233:80|148:25,1,160,2|4,0:0|0:3,0:0:0:0:
61,39,5637,1,0,0:0:0:0:
61,39,5894,2,0,L|44:142,1,80,2|0,0:0|0:0,0:0:0:0:
25,241,6407,1,4,0:3:0:0:
170,230,6663,1,0,0:0:0:0:
170,230,6919,6,0,P|212:225|269:236,2,80,2|0|4,0:0|0:0|0:3,0:0:0:0:
118,338,7689,1,0,0:0:0:0:
118,338,7945,2,0,P|73:341|27:330,1,80,2|0,0:0|0:0,0:0:0:0:
21,203,8458,2,0,P|19:166|27:117,1,80,4|0,0:3|0:0,0:0:0:0:
156,29,8971,6,0,P|221:27|252:113,1,160,2|4,0:0|0:3,0:0:0:0:
377,47,9740,1,0,0:0:0:0:
377,47,9996,2,0,P|420:42|476:51,1,80,2|0,0:0|0:0,0:0:0:0:
484,199,10509,2,0,L|484:242,2,40,6|0|2,0:3|0:0|0:0,0:0:0:0:
352,239,11022,6,0,B|263:232|288:295|178:269,1,160,2|4,0:0|0:3,0:0:0:0:
90,329,11791,1,0,0:0:0:0:
90,329,12048,2,0,P|83:280|103:225,1,80,2|0,0:0|0:0,0:0:0:0:
184,133,12560,2,0,P|216:128|256:132,2,40,6|0|2,0:3|0:0|0:0,0:0:0:0:
37,40,13073,6,0,P|112:51|204:31,1,160,2|4,0:0|0:3,0:0:0:0:
319,25,13842,1,0,0:0:0:0:
319,25,14099,2,0,P|359:20|419:28,1,80,2|0,0:0|0:0,0:0:0:0:
306,129,14612,2,0,P|266:137|209:125,1,80,4|0,0:3|0:0,0:0:0:0:
117,250,15124,5,2,0:0:0:0:
117,250,15637,1,2,0:0:0:0:
117,250,16150,1,2,0:0:0:0:
286,144,16663,1,4,0:0:0:0:
456,23,17176,6,0,P|495:69|443:151,1,160,2|4,0:0|0:3,0:0:0:0:
353,206,17945,1,0,0:0:0:0:
353,206,18201,2,0,P|310:201|260:207,2,80,2|0|4,0:0|0:0|0:3,0:0:0:0:
481,213,18971,1,0,0:0:0:0:
444,341,19227,6,0,B|367:330|367:367|281:355,1,160,2|4,0:0|0:3,0:0:0:0:
158,349,19996,1,0,0:3:0:0:
158,349,20253,2,0,P|115:357|64:345,1,80,2|0,0:0|0:3,0:0:0:0:
26,191,20766,2,0,L|26:148,2,40,6|0|2,0:3|0:0|0:0,0:0:0:0:
94,65,21278,6,0,P|132:56|190:66,1,80,2|0,0:0|0:0,0:0:0:0:
308,55,21791,2,0,P|348:62|403:45,1,80,4|2,0:3|0:0,0:0:0:0:
480,142,22304,2,0,L|484:249,1,80,2|0,0:0|0:0,0:0:0:0:
370,301,22817,2,0,P|329:295|271:308,1,80,4|0,0:3|0:0,0:0:0:0:
143,204,23330,6,0,P|184:210|239:194,2,80,2|0|4,0:0|0:0|0:3,0:0:0:0:
107,48,24099,1,0,0:0:0:0:
107,48,24355,2,0,P|66:42|10:59,1,80,2|0,0:0|0:0,0:0:0:0:
182,84,24868,1,4,0:3:0:0:
42,146,25124,1,2,0:0:0:0:
42,146,25381,6,0,L|57:318,1,160,2|4,0:0|0:3,0:0:0:0:
181,346,26150,1,0,0:0:0:0:
181,346,26407,2,0,P|221:340|277:351,1,80,2|0,0:0|0:0,0:0:0:0:
351,250,26919,2,0,P|311:255|272:249,1,80,4|0,0:3|0:0,0:0:0:0:
117,241,27432,6,0,P|80:182|118:101,1,160,2|4,0:0|0:3,0:0:0:0:
167,177,28201,1,0,0:0:0:0:
167,177,28458,2,0,L|257:177,1,80,2|0,0:0|0:0,0:0:0:0:
338,70,28971,1,4,0:3:0:0:
456,163,29227,1,0,0:0:0:0:
456,163,29483,6,0,P|461:249|375:268,1,160,6|4,0:0|0:3,0:0:0:0:
280,269,30253,1,0,0:0:0:0:
280,269,30509,2,0,P|236:263|183:273,2,80,2|0|4,0:0|0:0|0:3,0:0:0:0:
409,321,31278,1,0,0:0:0:0:
435,166,31535,5,2,0:0:0:0:
435,166,32048,1,2,0:0:0:0:
435,166,32560,1,2,0:0:0:0:
343,308,33073,6,0,P|315:316|296:317,3,40,6|0|2|0,0:0|0:0|0:0|0:0,0:0:0:0:
278,319,33586,6,0,P|215:314|126:327,1,128,6|4,0:0|0:3,0:0:0:0:
48,185,34355,1,0,0:0:0:0:
48,185,34612,2,0,P|112:191|192:181,1,128,2|12,0:0|0:0,0:0:0:0:
293,101,35381,1,0,0:0:0:0:
293,101,35637,6,0,L|295:191,1,64,2|0,0:0|0:0,0:0:0:0:
418,174,36150,2,0,L|409:261,1,64,4|0,0:3|0:0,0:0:0:0:
312,339,36663,2,0,P|279:332|223:343,1,64,2|0,0:0|0:0,0:0:0:0:
83,356,37176,2,0,P|73:321|86:272,1,64,8|0,0:0|0:0,0:0:0:0:
53,126,37689,6,2,P|90:130|118:118,1,64,6|0,0:0|0:0,0:0:0:0:
192,62,38201,2,2,P|206:98|206:140,1,64,2|0,0:0|0:0,0:0:0:0:
317,129,38714,2,2,B|373:145|386:98|451:107,1,128,2|8,0:0|0:0,0:0:0:0:
205,123,39740,6,2,P|174:128|133:120,1,64,6|0,0:0|0:0,0:0:0:0:
38,216,40253,2,2,P|73:210|121:220,1,64,2|0,0:0|0:0,0:0:0:0:
257,223,40766,2,2,P|231:286|265:343,1,128,2|8,0:0|0:0,0:0:0:0:
435,338,41535,1,2,0:0:0:0:
435,338,41791,6,0,P|461:281|435:224,1,128,6|4,0:0|0:3,0:0:0:0:
412,77,42560,1,0,0:0:0:0:
412,77,42817,2,0,P|350:94|315:148,1,128,2|8,0:0|0:0,0:0:0:0:
166,159,43586,1,0,0:0:0:0:
166,159,43842,6,0,P|170:200|163:260,1,71.9999978027344,6|0,0:0|0:0,0:0:0:0:
104,342,44355,2,0,P|140:337|176:343,1,71.9999978027344,4|0,0:3|0:0,0:0:0:0:
314,347,44868,1,2,0:0:0:0:
314,347,45124,2,0,P|350:354|402:342,2,71.9999978027344,0|8|0,0:0|0:0|0:0,0:0:0:0:
363,193,45894,6,0,L|364:19,1,160,6|8,0:0|0:0,0:0:0:0:
208,42,46663,1,2,0:0:0:0:
208,42,46919,2,0,P|168:50|114:38,1,80,6|0,0:0|0:0,0:0:0:0:
54,181,47432,2,0,P|93:175|135:181,1,80,8|0,0:0|0:0,0:0:0:0:
321,199,47945,5,6,0:0:0:0:
132,180,48458,1,6,0:0:0:0:
297,60,48971,1,6,0:0:0:0:
87,44,49483,5,6,0:0:0:0:
87,44,49612,1,0,0:0:0:0:
87,44,49740,1,2,0:0:0:0:
87,44,49868,1,0,0:0:0:0:
87,44,49996,6,0,P|35:99|62:179,1,160,6|8,0:0|0:0,0:0:0:0:
170,225,50766,1,0,0:0:0:0:
170,225,51022,2,0,P|212:220|265:226,1,80,2|0,0:0|0:0,0:0:0:0:
333,89,51535,2,0,P|293:94|237:83,1,80,8|0,0:0|0:0,0:0:0:0:
426,83,52048,6,0,L|415:263,1,160,2|8,0:0|0:0,0:0:0:0:
348,349,52817,1,0,0:0:0:0:
227,329,53073,2,0,P|191:324|121:340,2,80,2|0|8,0:0|0:0|0:0,0:0:0:0:
287,222,53842,1,0,0:0:0:0:
287,222,54099,6,0,B|256:153|326:123|294:57,1,160,6|8,0:0|0:0,0:0:0:0:
143,26,54868,1,0,0:0:0:0:
143,26,55124,2,0,P|102:33|49:25,1,80,2|0,0:0|0:0,0:0:0:0:
221,65,55637,2,0,P|261:59|301:67,1,80,8|0,0:0|0:0,0:0:0:0:
328,212,56150,6,0,P|292:273|344:349,1,160,2|8,0:0|0:0,0:0:0:0:
387,278,56919,1,0,0:0:0:0:
387,278,57176,2,0,P|429:280|488:275,1,80,2|0,0:0|0:0,0:0:0:0:
328,212,57689,2,0,P|287:210|233:214,1,80,8|0,0:0|0:0,0:0:0:0:
408,160,58201,6,0,P|410:122|401:73,1,80,4|0,0:0|0:0,0:0:0:0:
328,212,58714,2,0,P|318:252|326:303,1,80,8|0,0:0|0:0,0:0:0:0:
226,147,59227,2,0,P|189:140|144:147,2,80,2|0|8,0:0|0:0|0:0,0:0:0:0:
77,213,59996,1,0,0:0:0:0:
77,213,60253,6,0,L|77:320,1,80,6|0,0:0|0:0,0:0:0:0:
224,339,60766,2,0,P|260:343|336:331,2,80,8|0|2,0:0|0:0|0:0,0:0:0:0:
345,246,61535,1,0,0:0:0:0:
345,246,61791,2,0,P|388:242|454:251,1,80,8|0,0:0|0:0,0:0:0:0:
503,99,62304,6,0,P|423:123|345:75,1,160,6|8,0:0|0:0,0:0:0:0:
176,31,63073,1,0,0:0:0:0:
176,31,63330,2,0,B|146:107|219:105|166:219,1,160,2|8,0:0|0:0,0:0:0:0:
133,346,64099,1,0,0:0:0:0:
133,346,64355,6,0,P|173:339|231:359,1,80,2|0,0:0|0:0,0:0:0:0:
371,357,64868,2,0,P|413:353|461:305,1,80,10|0,0:0|0:0,0:0:0:0:
472,177,65381,6,0,P|467:148|453:113,3,40,14|0|0|0,0:0|0:0|0:0|0:0,0:0:0:0:
447,109,65894,1,14,0:0:0:0:
419,92,66022,1,0,0:0:0:0:
386,94,66150,1,0,0:0:0:0:
358,107,66278,1,0,0:0:0:0:
330,123,66407,6,0,P|277:107|312:32,1,160,6|8,0:0|0:0,0:0:0:0:
487,39,67176,1,0,0:0:0:0:
487,39,67432,2,0,P|492:83|490:143,1,80,2|0,0:0|0:0,0:0:0:0:
421,270,67945,2,0,P|416:228|417:190,1,80,8|0,0:0|0:0,0:0:0:0:
318,287,68458,6,0,P|261:327|191:284,1,160,2|8,0:0|0:0,0:0:0:0:
332,187,69227,1,0,0:0:0:0:
332,187,69483,2,0,P|371:188|422:183,1,80,2|0,0:0|0:0,0:0:0:0:
281,83,69996,2,0,P|240:81|177:89,1,80,8|0,0:0|0:0,0:0:0:0:
39,35,70509,6,0,B|13:97|90:125|37:207,1,160,6|8,0:0|0:0,0:0:0:0:
165,306,71278,1,0,0:0:0:0:
165,306,71535,2,0,P|172:269|166:205,1,80,2|0,0:0|0:0,0:0:0:0:
292,115,72048,2,0,P|288:158|296:227,1,80,8|0,0:0|0:0,0:0:0:0:
315,343,72560,6,0,B|408:353|376:305|487:314,1,160,2|8,0:0|0:0,0:0:0:0:
479,180,73330,1,0,0:0:0:0:
479,180,73586,2,0,P|479:140|473:84,1,80,2|0,0:0|0:0,0:0:0:0:
329,5,74099,2,0,P|328:47|330:87,1,80,8|0,0:0|0:0,0:0:0:0:
155,176,74612,5,4,0:0:0:0:
243,47,74868,1,0,0:0:0:0:
358,178,75124,1,14,0:0:0:0:
358,178,75637,2,0,P|317:174|248:181,1,80,6|0,0:0|0:0,0:0:0:0:
124,271,76150,2,0,P|166:274|223:271,1,80,8|0,0:0|0:0,0:0:0:0:
349,341,76663,6,0,P|412:369|466:303,1,160,2|8,0:0|0:0,0:0:0:0:
478,154,77432,1,0,0:0:0:0:
478,154,77689,2,0,P|438:148|382:156,1,80,2|6,0:0|0:0,0:0:0:0:
260,63,78201,2,0,P|300:67|347:60,1,80,8|2,0:0|0:0,0:0:0:0:
138,64,78714,6,0,P|156:143|126:236,1,160,6|8,0:0|0:0,0:0:0:0:
303,281,79483,1,2,0:0:0:0:
303,281,79740,2,0,P|347:265|289:212,1,160,6|8,0:0|0:0,0:0:0:0:
407,61,80509,1,2,0:0:0:0:
407,61,80766,6,2,B|334:43|321:97|221:61,1,160,14|8,0:0|0:0,0:0:0:0:
92,76,81535,1,0,0:0:0:0:
92,76,81791,2,0,P|53:72|1:82,2,80,10|0|8,0:0|0:0|0:0,0:0:0:0:
285,160,82560,1,0,0:0:0:0:
285,160,82817,6,0,P|305:227|223:270,1,160,6|8,0:0|0:0,0:0:0:0:
89,269,83586,2,0,P|47:273|-1:264,2,80,0|8|2,0:0|0:0|0:0,0:0:0:0:
205,161,84355,2,0,P|246:156|297:162,1,80,10|2,0:0|0:0,0:0:0:0:
493,191,84868,5,6,0:0:0:0:
345,85,85381,1,14,0:0:0:0:
400,265,85894,1,14,0:0:0:0:
