osu file format v14

[General]
AudioFilename: FLIP FLAP FLIP FLAP.mp3
AudioLeadIn: 0
PreviewTime: 49868
Countdown: 0
SampleSet: Soft
StackLeniency: 0.7
Mode: 0
LetterboxInBreaks: 0
WidescreenStoryboard: 0

[Editor]
DistanceSpacing: 0.9
BeatDivisor: 4
GridSize: 16
TimelineZoom: 1

[Metadata]
Title:FLIP FLAP FLIP FLAP (TV SIZE)
TitleUnicode:FLIP FLAP FLIP FLAP (TV SIZE)
Artist:TO-MAS feat. Chima
ArtistUnicode:TO-MAS feat. Chima
Creator:Hailie
Version:Insane
Source:フリップフラッパーズ
Tags:flip flappers 伊藤真澄 itou masumi anime ed ending DJ Lucky
BeatmapID:1425585
BeatmapSetID:542737

[Difficulty]
HPDrainRate:6
CircleSize:4
OverallDifficulty:7
ApproachRate:7
SliderMultiplier:1.8
SliderTickRate:1

[Events]
//Background and Video events
Video,-700,"video.flv"
0,0,"background.jpg",0,0
//Break Periods
//Storyboard Layer 0 (Background)
//Storyboard Layer 1 (Fail)
//Storyboard Layer 2 (Pass)
//Storyboard Layer 3 (Foreground)
//Storyboard Sound Samples

[TimingPoints]
766,512.820512820513,4,2,1,60,1,0
33586,-111.111111111111,4,2,1,60,0,0
41791,-99.9999999999999,4,2,1,60,0,0
47945,-100,4,2,1,70,0,0
48458,-100,4,2,1,75,0,0
48971,-100,4,2,1,80,0,0
49996,-83.3333333333333,4,2,1,80,0,1
65381,-83.3333333333333,4,2,1,80,0,0
66407,-83.3333333333333,4,2,1,80,0,1
84868,-83.3333333333333,4,2,1,80,0,0

[Colours]
Combo1 : 128,255,255
Combo2 : 255,255,0
Combo3 : 255,0,128
Combo4 : 255,128,64

[HitObjects]
42,343,766,6,0,P|88:345|139:342,1,90,6|0,0:0|0:0,0:0:0:0:
264,356,1278,1,4,0:3:0:0:
168,305,1535,1,0,0:0:0:0:
290,264,1791,2,0,P|291:215|289:172,1,90,2|0,0:0|0:0,0:0:0:0:
172,150,2304,1,4,0:3:0:0:
280,119,2560,1,0,0:0:0:0:
160,27,2817,6,0,P|113:25|63:29,1,90,2|0,0:0|0:0,0:0:0:0:
30,153,3330,2,0,P|26:198|27:242,1,90,4|0,0:3|0:0,0:0:0:0:
139,324,3842,2,0,P|142:278|139:233,1,90,2|0,0:0|0:0,0:0:0:0:
72,85,4355,1,6,0:3:0:0:
72,85,4483,1,0,0:0:0:0:
72,85,4612,1,2,0:0:0:0:
222,38,4868,6,0,P|270:36|324:40,1,90,2|0,0:0|0:0,0:0:0:0:
455,43,5381,1,4,0:3:0:0:
349,77,5637,1,0,0:0:0:0:
445,160,5894,2,0,P|448:203|448:250,1,90,2|0,0:0|0:0,0:0:0:0:
317,242,6407,1,4,0:3:0:0:
415,290,6663,1,0,0:0:0:0:
251,351,6919,6,0,P|208:358|145:345,1,90,2|0,0:0|0:0,0:0:0:0:
39,301,7432,2,0,L|39:195,1,90,4|0,0:3|0:0,0:0:0:0:
115,79,7945,2,0,L|115:179,1,90,2|0,0:0|0:0,0:0:0:0:
116,286,8458,2,0,P|160:276|206:285,1,90,4|0,0:3|0:0,0:0:0:0:
323,350,8971,6,0,P|343:307|329:240,1,90,2|0,0:0|0:0,0:0:0:0:
362,124,9483,1,4,0:3:0:0:
261,189,9740,1,0,0:0:0:0:
416,184,9996,2,0,L|418:307,1,90,2|0,0:0|0:0,0:0:0:0:
264,322,10509,1,6,0:3:0:0:
264,322,10637,1,0,0:0:0:0:
264,322,10766,1,2,0:0:0:0:
116,244,11022,6,0,P|108:197|136:132,1,90,2|0,0:0|0:0,0:0:0:0:
221,58,11535,1,4,0:3:0:0:
101,48,11791,1,0,0:0:0:0:
231,139,12048,2,0,P|278:145|325:142,1,90,2|0,0:0|0:0,0:0:0:0:
480,132,12560,1,6,0:3:0:0:
480,132,12689,1,0,0:0:0:0:
480,132,12817,1,2,0:0:0:0:
434,285,13073,6,0,P|388:289|321:279,1,90,2|0,0:0|0:0,0:0:0:0:
222,258,13586,2,0,P|175:255|103:264,1,90,4|0,0:3|0:0,0:0:0:0:
227,351,14099,1,2,0:0:0:0:
227,351,14355,2,0,P|275:355|337:346,2,90,0|4|0,0:0|0:3|0:0,0:0:0:0:
282,204,15124,5,2,0:0:0:0:
282,187,15637,1,2,0:0:0:0:
282,171,16150,1,2,0:0:0:0:
47,279,16663,1,4,0:0:0:0:
51,101,17176,6,0,L|51:149,2,45,2|0|2,0:0|0:0|0:0,0:0:0:0:
163,33,17689,2,0,P|207:38|263:31,1,90,4|0,0:3|0:0,0:0:0:0:
276,185,18201,2,0,P|231:181|180:185,1,90,2|0,0:0|0:0,0:0:0:0:
52,203,18714,1,4,0:3:0:0:
164,332,18971,1,0,0:0:0:0:
164,332,19227,6,0,L|164:268,2,45,2|0|2,0:0|0:0|0:0,0:0:0:0:
304,336,19740,2,0,P|351:330|406:338,1,90,4|0,0:3|0:3,0:0:0:0:
443,184,20253,2,0,P|398:188|353:183,1,90,2|0,0:0|0:3,0:0:0:0:
189,167,20766,1,6,0:3:0:0:
189,167,20894,1,0,0:0:0:0:
189,167,21022,1,2,0:0:0:0:
65,284,21278,6,0,P|110:292|179:279,1,90,2|0,0:0|0:0,0:0:0:0:
289,286,21791,2,0,P|336:296|397:278,1,90,4|2,0:3|0:0,0:3:0:0:
405,260,22176,1,0,0:0:0:0:
382,226,22304,2,0,P|341:214|277:224,1,90,2|0,0:0|0:0,0:0:0:0:
165,172,22817,2,0,L|165:290,1,90,4|0,0:3|0:0,0:0:0:0:
285,352,23330,6,0,P|330:349|399:362,1,90,2|0,0:0|0:0,0:0:0:0:
471,220,23842,1,4,0:3:0:0:
467,362,24099,1,0,0:0:0:0:
356,226,24355,2,0,P|309:232|251:219,1,90,2|0,0:0|0:0,0:0:0:0:
392,102,24868,2,0,P|437:96|490:103,1,90,4|2,0:3|0:0,0:0:0:0:
477,245,25381,6,0,L|478:306,2,45,2|0|2,0:0|0:0|0:0,0:0:0:0:
480,102,25894,2,0,P|436:111|373:93,1,90,4|0,0:3|0:0,0:0:0:0:
245,194,26407,2,0,P|289:187|333:193,1,90,2|0,0:0|0:0,0:0:0:0:
357,31,26919,1,4,0:3:0:0:
480,102,27176,1,0,0:0:0:0:
408,237,27432,6,0,L|407:185,2,45,2|0|2,0:0|0:0|0:0,0:0:0:0:
271,242,27945,2,0,P|227:249|172:238,1,90,4|0,0:3|0:0,0:0:0:0:
286,351,28458,2,0,P|330:345|375:351,1,90,2|0,0:0|0:0,0:0:0:0:
472,224,28971,1,4,0:3:0:0:
371,129,29227,1,0,0:0:0:0:
177,92,29483,6,0,P|96:122|120:203,1,180,6|4,0:0|0:3,0:0:0:0:
55,330,30253,1,0,0:0:0:0:
85,324,30381,1,0,0:0:0:0:
116,323,30509,2,0,P|159:320|234:332,1,90,2|0,0:0|0:0,0:0:0:0:
303,332,31022,2,0,P|350:337|411:324,1,90,4|0,0:3|0:0,0:0:0:0:
403,170,31535,5,2,0:0:0:0:
404,155,32048,1,2,0:0:0:0:
404,138,32560,1,2,0:0:0:0:
224,259,33073,5,6,0:0:0:0:
196,273,33201,1,0,0:0:0:0:
164,271,33330,1,2,0:0:0:0:
137,254,33458,1,0,0:0:0:0:
129,226,33586,6,0,L|149:124,2,80.9999975280763,6|0|4,0:0|0:0|0:3,0:0:0:0:
84,100,34355,1,0,0:0:0:0:
230,160,34612,2,0,P|213:212|236:288,1,121.499996292114,2|0,0:0|0:0,0:0:0:0:
227,356,35124,2,0,P|267:346|300:303,1,80.9999975280763,12|0,0:0|0:0,0:0:0:0:
369,183,35637,5,2,0:0:0:0:
261,59,35894,1,0,0:0:0:0:
419,85,36150,1,4,0:3:0:0:
419,85,36278,1,0,0:0:0:0:
419,85,36407,1,0,0:0:0:0:
196,103,36663,2,0,P|182:66|195:14,1,80.9999975280763,2|0,0:0|0:0,0:0:0:0:
299,144,37176,2,0,P|306:186|294:230,1,80.9999975280763,8|0,0:0|0:0,0:0:0:0:
273,340,37689,6,2,P|209:336|138:342,1,121.499996292114,6|0,0:0|0:0,0:0:0:0:
176,224,38201,6,2,P|237:229|305:221,1,121.499996292114,2|0,0:0|0:0,0:0:0:0:
361,274,38714,6,2,P|370:189|309:143,1,161.999995056153,2|8,0:0|0:0,0:0:0:0:
74,84,39740,6,2,B|55:144|101:156|74:211,1,121.499996292114,6|0,0:0|0:0,0:0:0:0:
172,281,40253,6,2,B|153:231|196:222|178:162,1,121.499996292114,2|0,0:0|0:0,0:0:0:0:
277,65,40766,6,2,P|245:119|309:92,1,161.999995056153,2|8,0:0|0:0,0:0:0:0:
265,264,41535,1,2,0:0:0:0:
265,264,41791,6,0,P|218:262|145:267,1,90,6|0,0:0|0:0,0:0:0:0:
42,244,42304,1,4,0:3:0:0:
125,328,42560,1,0,0:0:0:0:
223,184,42817,2,0,P|222:134|225:86,1,90,2|0,0:0|0:0,0:0:0:0:
341,38,43330,1,8,0:0:0:0:
224,48,43586,1,0,0:0:0:0:
268,258,43842,6,0,P|220:263|161:254,1,90,6|0,0:0|0:0,0:0:0:0:
61,139,44355,2,0,P|109:135|150:138,1,90,4|0,0:3|0:0,0:0:0:0:
297,30,44868,2,0,P|300:76|299:124,1,90,2|0,0:0|0:0,0:0:0:0:
174,259,45381,2,0,P|173:214|176:169,1,90,8|0,0:0|0:0,0:0:0:0:
79,31,45894,5,6,0:0:0:0:
178,127,46150,1,0,0:0:0:0:
297,30,46407,2,0,P|340:40|395:27,1,90,8|2,0:0|0:0,0:0:0:0:
420,32,46791,1,0,0:0:0:0:
454,41,46919,2,0,P|471:87|464:134,1,90,6|0,0:0|0:0,0:0:0:0:
317,231,47432,2,0,P|272:227|221:234,1,90,8|0,0:0|0:0,0:0:0:0:
120,36,47945,5,6,0:0:0:0:
229,232,48458,1,6,0:0:0:0:
16,101,48971,1,6,0:0:0:0:
301,172,49483,5,6,0:0:0:0:
301,172,49612,1,0,0:0:0:0:
301,172,49740,1,2,0:0:0:0:
301,172,49868,1,0,0:0:0:0:
301,172,49996,6,0,P|308:224|293:307,1,107.999996704102,6|0,0:0|0:0,0:0:0:0:
182,135,50509,2,0,P|174:82|179:22,1,107.999996704102,8|0,0:0|0:0,0:0:0:0:
343,107,51022,2,0,P|399:103|487:110,1,107.999996704102,2|0,0:0|0:0,0:0:0:0:
291,226,51535,2,0,P|237:230|183:226,1,107.999996704102,8|0,0:0|0:0,0:0:0:0:
37,77,52048,5,0,0:0:0:0:
71,67,52176,1,0,0:0:0:0:
111,63,52304,2,0,P|161:58|221:62,1,107.999996704102,2|8,0:0|0:0,0:0:0:0:
373,41,52817,1,0,0:0:0:0:
206,141,53073,2,0,L|206:252,1,107.999996704102,2|0,0:0|0:0,0:0:0:0:
388,318,53586,2,0,L|388:199,1,107.999996704102,8|0,0:0|0:0,0:0:0:0:
373,41,54099,6,0,P|426:45|488:39,1,107.999996704102,6|0,0:0|0:0,0:0:0:0:
448,225,54612,2,0,P|394:221|340:226,1,107.999996704102,8|0,0:0|0:0,0:0:0:0:
297,232,54996,1,0,0:0:0:0:
254,241,55124,2,0,P|201:248|129:240,1,107.999996704102,2|0,0:0|0:0,0:0:0:0:
47,73,55637,2,0,P|100:65|154:68,1,107.999996704102,8|0,0:0|0:0,0:0:0:0:
350,70,56150,5,2,0:0:0:0:
188,138,56407,2,0,B|170:195|170:195|186:242,1,107.999996704102,0|8,0:0|0:0,0:0:0:0:
20,239,56919,1,0,0:0:0:0:
185,344,57176,2,0,B|200:289|200:289|184:238,1,107.999996704102,2|0,0:0|0:0,0:0:0:0:
364,211,57689,2,0,P|309:218|232:205,1,107.999996704102,8|0,0:0|0:0,0:0:0:0:
58,82,58201,5,4,0:0:0:0:
91,70,58330,1,0,0:0:0:0:
127,67,58458,2,0,P|182:63|242:70,1,107.999996704102,2|8,0:0|0:0,0:0:0:0:
386,71,58971,1,0,0:0:0:0:
466,197,59227,1,2,0:0:0:0:
313,194,59483,1,0,0:0:0:0:
490,201,59740,1,8,0:0:0:0:
355,301,59996,1,0,0:0:0:0:
159,221,60253,6,0,P|152:175|167:106,1,107.999996704102,6|0,0:0|0:0,0:0:0:0:
353,143,60766,2,0,P|300:151|241:143,1,107.999996704102,8|0,0:0|0:0,0:0:0:0:
256,332,61278,1,2,0:0:0:0:
230,162,61535,1,0,0:0:0:0:
43,178,61791,1,8,0:0:0:0:
214,182,62048,1,0,0:0:0:0:
390,63,62304,6,0,P|464:45|401:99,1,215.999993408203,6|8,0:0|0:0,0:0:0:0:
222,44,63073,1,0,0:0:0:0:
180,31,63201,1,0,0:0:0:0:
138,44,63330,2,0,P|84:49|20:40,1,107.999996704102,2|0,0:0|0:0,0:0:0:0:
22,228,63842,2,0,P|76:222|136:228,1,107.999996704102,8|0,0:0|0:0,0:0:0:0:
330,261,64355,6,2,P|381:242|316:231,1,161.999995056153,2|0,0:0|0:0,0:0:0:0:
409,333,64868,6,2,P|460:272|446:179,1,161.999995056153,10|0,0:0|0:0,0:0:0:0:
381,61,65381,5,14,0:0:0:0:
349,40,65509,1,0,0:0:0:0:
311,35,65637,1,0,0:0:0:0:
270,41,65766,1,0,0:0:0:0:
233,64,65894,5,14,0:0:0:0:
207,98,66022,1,0,0:0:0:0:
202,141,66150,1,0,0:0:0:0:
214,181,66278,1,0,0:0:0:0:
230,220,66407,6,0,P|233:271|227:353,1,107.999996704102,6|0,0:0|0:0,0:0:0:0:
118,173,66919,2,0,P|115:121|121:58,1,107.999996704102,8|0,0:0|0:0,0:0:0:0:
301,39,67432,2,0,P|352:43|431:37,1,107.999996704102,2|0,0:0|0:0,0:0:0:0:
437,221,67945,2,0,P|392:219|329:221,1,107.999996704102,8|0,0:0|0:0,0:0:0:0:
176,336,68458,5,0,0:0:0:0:
212,329,68586,1,0,0:0:0:0:
248,337,68714,2,0,P|300:343|373:334,1,107.999996704102,2|8,0:0|0:0,0:0:0:0:
464,209,69227,1,0,0:0:0:0:
304,98,69483,2,0,P|250:92|196:97,1,107.999996704102,2|0,0:0|0:0,0:0:0:0:
259,265,69996,1,8,0:0:0:0:
304,98,70253,1,0,0:0:0:0:
260,353,70509,6,0,P|317:355|391:349,1,107.999996704102,6|0,0:0|0:0,0:0:0:0:
445,169,71022,2,0,P|391:165|338:168,1,107.999996704102,8|0,0:0|0:0,0:0:0:0:
294,176,71407,1,0,0:0:0:0:
251,182,71535,2,0,P|198:185|128:180,1,107.999996704102,2|0,0:0|0:0,0:0:0:0:
59,345,72048,2,0,P|112:341|166:344,1,107.999996704102,8|0,0:0|0:0,0:0:0:0:
358,333,72560,5,2,0:0:0:0:
210,257,72817,1,0,0:0:0:0:
397,235,73073,2,0,B|381:184|381:184|417:123,1,107.999996704102,8|0,0:0|0:0,0:0:0:0:
201,117,73586,1,2,0:0:0:0:
346,27,73842,1,0,0:0:0:0:
168,110,74099,1,8,0:0:0:0:
243,267,74355,1,0,0:0:0:0:
455,141,74612,5,4,0:0:0:0:
221,38,74868,1,0,0:0:0:0:
221,38,74996,1,0,0:0:0:0:
221,38,75124,1,14,0:0:0:0:
221,38,75637,2,0,L|222:160,1,107.999996704102,6|0,0:0|0:0,0:0:0:0:
42,188,76150,2,0,L|42:66,1,107.999996704102,8|0,0:0|0:0,0:0:0:0:
45,287,76663,5,0,0:0:0:0:
86,275,76791,1,0,0:0:0:0:
127,286,76919,2,0,P|179:293|251:280,1,107.999996704102,2|8,0:0|0:0,0:0:0:0:
373,354,77432,1,0,0:0:0:0:
488,213,77689,1,2,0:0:0:0:
315,119,77945,2,0,P|265:112|203:121,1,107.999996704102,6|8,0:0|0:0,0:0:0:0:
72,340,78458,5,2,0:0:0:0:
80,348,78586,1,0,0:0:0:0:
80,348,78714,2,0,B|107:230|34:255|68:124,1,215.999993408203,6|8,0:0|0:0,0:0:0:0:
380,109,79483,5,2,0:0:0:0:
380,109,79612,1,0,0:0:0:0:
380,109,79740,2,0,P|447:76|366:77,1,215.999993408203,6|8,0:0|0:0,0:0:0:0:
261,336,80509,5,2,0:0:0:0:
261,336,80637,1,0,0:0:0:0:
261,336,80766,2,2,L|262:215,1,107.999996704102,14|0,0:0|0:0,0:0:0:0:
126,141,81278,1,8,0:0:0:0:
261,228,81535,1,0,0:0:0:0:
126,141,81791,2,0,P|68:150|19:126,1,107.999996704102,10|0,0:0|0:0,0:0:0:0:
215,116,82304,1,8,0:0:0:0:
126,251,82560,1,0,0:0:0:0:
299,333,82817,6,0,P|347:351|426:351,1,107.999996704102,6|8,0:0|0:0,0:0:0:0:
465,187,83330,2,0,P|414:166|349:161,1,107.999996704102,8|0,0:0|0:0,0:0:0:0:
179,184,83842,1,8,0:0:0:0:
396,89,84099,1,2,0:0:0:0:
396,89,84227,1,0,0:0:0:0:
396,89,84355,1,10,0:0:0:0:
144,72,84612,1,2,0:0:0:0:
343,264,84868,5,6,0:0:0:0:
255,31,85381,1,14,0:0:0:0:
217,355,85894,1,14,0:0:0:0:
