osu file format v14

[General]
AudioFilename: FLIP FLAP FLIP FLAP.mp3
AudioLeadIn: 0
PreviewTime: 49868
Countdown: 0
SampleSet: Soft
StackLeniency: 0.7
Mode: 0
LetterboxInBreaks: 0
WidescreenStoryboard: 0

[Editor]
DistanceSpacing: 1
BeatDivisor: 3
GridSize: 16
TimelineZoom: 1

[Metadata]
Title:FLIP FLAP FLIP FLAP (TV SIZE)
TitleUnicode:FLIP FLAP FLIP FLAP (TV SIZE)
Artist:TO-MAS feat. Chima
ArtistUnicode:TO-MAS feat. Chima
Creator:Hailie
Version:Easy
Source:フリップフラッパーズ
Tags:flip flappers 伊藤真澄 itou masumi anime ed ending DJ Lucky
BeatmapID:1398787
BeatmapSetID:542737

[Difficulty]
HPDrainRate:3
CircleSize:3
OverallDifficulty:2
ApproachRate:3
SliderMultiplier:1.1
SliderTickRate:1

[Events]
//Background and Video events
Video,-700,"video.flv"
0,0,"background.jpg",0,0
//Break Periods
//Storyboard Layer 0 (Background)
//Storyboard Layer 1 (Fail)
//Storyboard Layer 2 (Pass)
//Storyboard Layer 3 (Foreground)
//Storyboard Sound Samples

[TimingPoints]
766,512.820512820513,4,2,1,60,1,0
47945,-100,4,2,1,70,0,0
48458,-100,4,2,1,75,0,0
48971,-100,4,2,1,80,0,0
49996,-100,4,2,1,80,0,1
65381,-100,4,2,1,80,0,0
66407,-100,4,2,1,80,0,1
84868,-100,4,2,1,80,0,0

[Colours]
Combo1 : 128,255,255
Combo2 : 255,255,0
Combo3 : 255,0,128
Combo4 : 255,128,64

[HitObjects]
37,85,766,6,0,P|90:102|156:79,1,110,6|4,0:0|0:3,0:0:0:0:
242,46,1791,2,0,P|298:31|357:50,1,110,2|4,0:0|0:3,0:0:0:0:
452,74,2817,1,2,0:0:0:0:
372,149,3330,1,4,0:3:0:0:
415,249,3842,2,0,P|362:243|288:253,1,110,2|6,0:0|0:3,0:0:0:0:
191,248,4868,6,0,P|201:193|178:133,1,110,2|4,0:0|0:3,0:0:0:0:
94,86,5894,2,0,P|77:137|93:198,1,110,2|4,0:0|0:3,0:0:0:0:
191,248,6919,1,2,0:0:0:0:
268,332,7432,1,4,0:3:0:0:
335,244,7945,2,0,P|392:234|456:250,1,110,2|4,0:0|0:3,0:0:0:0:
398,143,8971,6,0,P|452:158|518:137,2,110,2|4|2,0:0|0:3|0:0,0:0:0:0:
295,102,10509,1,6,0:3:0:0:
199,157,11022,2,0,P|147:173|93:162,2,110,2|4|2,0:0|0:3|0:0,0:0:0:0:
294,211,12560,1,6,0:3:0:0:
244,306,13073,6,0,P|190:295|121:313,1,110,2|4,0:0|0:3,0:0:0:0:
108,198,14099,1,2,0:0:0:0:
217,201,14612,2,0,P|276:213|345:192,2,110,4|2|2,0:3|0:0|0:0,0:0:0:0:
276,108,16150,1,2,0:0:0:0:
173,78,16663,1,4,0:0:0:0:
106,166,17176,6,0,L|98:283,1,110,2|4,0:0|0:3,0:0:0:0:
209,266,18201,2,0,P|262:254|332:275,1,110,2|4,0:0|0:3,0:0:0:0:
423,285,19227,2,0,L|420:158,1,110,2|4,0:0|0:3,0:0:0:0:
319,131,20253,2,0,P|261:143|195:123,1,110,2|6,0:0|0:3,0:0:0:0:
136,51,21278,6,0,P|103:89|103:164,1,110,2|4,0:0|0:3,0:0:0:0:
176,224,22304,2,0,P|228:240|286:227,1,110,2|4,0:0|0:3,0:0:0:0:
391,220,23330,2,0,P|403:277|386:333,2,110,2|4|2,0:0|0:3|0:0,0:0:0:0:
354,116,24868,1,4,0:3:0:0:
259,59,25381,6,0,P|240:117|268:181,1,110,2|4,0:0|0:3,0:0:0:0:
293,266,26407,2,0,P|239:263|179:299,1,110,2|4,0:0|0:3,0:0:0:0:
80,293,27432,2,0,P|92:234|74:174,1,110,2|4,0:0|0:3,0:0:0:0:
149,100,28458,2,0,P|210:103|267:65,1,110,2|4,0:0|0:3,0:0:0:0:
353,39,29483,6,0,P|407:40|450:80,1,110,6|4,0:0|0:3,0:0:0:0:
469,183,30509,2,0,P|415:181|374:138,1,110,2|4,0:0|0:3,0:0:0:0:
275,99,31535,2,0,P|220:89|163:108,2,110,2|2|2,0:0|0:0|0:0,0:0:0:0:
296,202,33073,1,6,0:0:0:0:
189,228,33586,6,0,L|192:359,1,110,6|4,0:0|0:3,0:0:0:0:
301,345,34612,2,0,P|352:345|394:301,1,110,2|12,0:0|0:0,0:0:0:0:
396,197,35637,2,0,P|454:207|518:191,2,110,2|4|2,0:0|0:3|0:0,0:0:0:0:
292,160,37176,1,8,0:0:0:0:
210,233,37689,6,2,B|169:233|169:233|135:245|135:245|87:245,1,110,6|2,0:0|0:0,0:0:0:0:
98,135,38714,2,2,B|130:135|130:135|164:123|164:123|205:123,1,110,2|8,0:0|0:0,0:0:0:0:
316,126,39740,2,2,P|363:133|446:124,1,110
430,238,40766,2,2,P|375:242|320:235,1,110,2|8,0:0|0:0,0:0:0:0:
223,182,41791,6,0,P|209:240|230:293,2,110,6|4|2,0:0|0:3|0:0,0:0:0:0:
194,75,43330,1,8,0:0:0:0:
299,46,43842,2,0,P|356:60|413:43,1,110,6|4,0:0|0:3,0:0:0:0:
493,113,44868,2,0,P|470:167|486:228,1,110,2|8,0:0|0:0,0:0:0:0:
441,319,45894,6,0,P|389:307|318:322,1,110,6|8,0:0|0:0,0:0:0:0:
224,324,46919,2,0,P|170:335|105:312,1,110,6|8,0:0|0:0,0:0:0:0:
29,262,47945,1,6,0:0:0:0:
105,182,48458,1,6,0:0:0:0:
15,126,48971,1,6,0:0:0:0:
84,40,49483,1,6,0:0:0:0:
193,50,49996,6,0,P|252:64|315:47,1,110,6|8,0:0|0:0,0:0:0:0:
333,159,51022,2,0,P|274:147|221:158,1,110,2|8,0:0|0:0,0:0:0:0:
126,204,52048,2,0,P|99:250|103:309,2,110,2|8|2,0:0|0:0|0:0,0:0:0:0:
225,156,53586,1,8,0:0:0:0:
238,46,54099,6,0,P|297:56|356:44,1,110,6|8,0:0|0:0,0:0:0:0:
441,102,55124,2,0,P|414:156|422:223,1,110,2|8,0:0|0:0,0:0:0:0:
389,310,56150,2,0,P|440:299|500:316,2,110,2|8|2,0:0|0:0|0:0,0:0:0:0:
280,329,57689,1,8,0:0:0:0:
188,268,58201,6,0,P|135:280|68:255,2,110,6|8|2,0:0|0:0|0:0,0:0:0:0:
272,196,59740,1,8,0:0:0:0:
342,114,60253,2,0,P|396:98|457:117,1,110,6|8,0:0|0:0,0:0:0:0:
495,209,61278,2,0,P|443:223|389:210,1,110,2|8,0:0|0:0,0:0:0:0:
279,216,62304,6,0,P|288:268|265:323,1,110,6|8,0:0|0:0,0:0:0:0:
160,343,63330,2,0,P|105:331|45:343,1,110,2|8,0:0|0:0,0:0:0:0:
27,232,64355,2,2,P|19:176|46:121,2,110,2|10|14,0:0|0:0|0:0,0:0:0:0:
128,189,65894,1,14,0:0:0:0:
230,233,66407,6,0,P|286:227|351:239,1,110,6|8,0:0|0:0,0:0:0:0:
379,132,67432,2,0,P|323:138|258:126,1,110,2|8,0:0|0:0,0:0:0:0:
160,124,68458,2,0,P|156:72|110:18,2,110,2|8|2,0:0|0:0|0:0,0:0:0:0:
178,232,69996,1,8,0:0:0:0:
286,213,70509,6,0,P|340:222|403:216,1,110,6|8,0:0|0:0,0:0:0:0:
380,326,71535,2,0,P|328:315|267:319,1,110,2|8,0:0|0:0,0:0:0:0:
172,270,72560,2,0,P|159:327|177:380,2,110,2|8|2,0:0|0:0|0:0,0:0:0:0:
243,183,74099,1,8,0:0:0:0:
350,158,74612,6,0,P|407:150|467:165,1,110,4|14,0:0|0:0,0:0:0:0:
391,249,75637,2,0,P|338:259|283:246,1,110,6|8,0:0|0:0,0:0:0:0:
192,190,76663,2,0,P|139:177|74:199,2,110,2|8|2,0:0|0:0|0:0,0:0:0:0:
137,285,78201,1,8,0:0:0:0:
240,322,78714,6,0,P|295:315|353:327,1,110,6|8,0:0|0:0,0:0:0:0:
404,230,79740,2,0,B|415:177|382:166|398:110,1,110,6|8,0:0|0:0,0:0:0:0:
306,56,80766,2,2,P|252:68|181:44,2,110,14|8|10,0:0|0:0|0:0,0:0:0:0:
414,30,82304,1,8,0:0:0:0:
485,113,82817,6,0,P|469:164|490:236,1,110,6|8,0:0|0:0,0:0:0:0:
451,323,83842,2,0,P|397:310|328:330,1,110,8|10,0:0|0:0,0:0:0:0:
330,210,84868,1,6,0:0:0:0:
219,210,85381,1,14,0:0:0:0:
217,320,85894,5,14,0:0:0:0:
