osu file format v14

[General]
AudioFilename: audio.mp3
AudioLeadIn: -1710
PreviewTime: 49402
Countdown: 0
SampleSet: Soft
StackLeniency: 0.5
Mode: 2
LetterboxInBreaks: 0
WidescreenStoryboard: 1

[Editor]
Bookmarks: 16710,33120,49530,65941
DistanceSpacing: 1.5
BeatDivisor: 4
GridSize: 4
TimelineZoom: 1

[Metadata]
Title:FLIP FLAP FLIP FLAP
TitleUnicode:FLIP FLAP FLIP FLAP
Artist:TO-MAS feat. Chima
ArtistUnicode:TO-MAS feat. Chima
Creator:Riari
Version:Pure Illusion
Source:フリップフラッパーズ
Tags:Flip Flappers 伊藤真澄 Itou Masumi Anime ED ending tv size JBHyperion Sorcerer Olib
BeatmapID:1130397
BeatmapSetID:533564

[Difficulty]
HPDrainRate:7
CircleSize:2
OverallDifficulty:8.1
ApproachRate:8.1
SliderMultiplier:1.6
SliderTickRate:1

[Events]
//Background and Video events
Video,-1069,"video.flv"
0,0,"thumb-1920-753003.png",0,0
//Break Periods
//Storyboard Layer 0 (Background)
//Storyboard Layer 1 (Fail)
//Storyboard Layer 2 (Pass)
//Storyboard Layer 3 (Foreground)
//Storyboard Sound Samples

[TimingPoints]
300,512.820512820513,4,2,3,60,1,0
556,-100,4,2,1,60,0,0
16197,-100,4,2,3,40,0,0
16710,-100,4,2,1,60,0,0
33120,-100,4,2,3,40,0,0
33633,-100,4,2,1,60,0,0
43376,-100,4,2,1,70,0,0
45428,-100,4,2,3,50,0,0
45941,-100,4,2,3,70,0,0
47479,-100,4,2,1,75,0,0
48505,-100,4,2,3,80,0,0
49530,-100,4,2,3,70,0,1
57735,-100,4,2,3,60,0,1
61838,-100,4,2,1,60,0,1
62351,-100,4,2,3,60,0,1
62864,-100,4,2,1,60,0,1
63376,-100,4,2,3,60,0,1
63889,-100,4,2,3,70,0,1
64915,-100,4,2,3,80,0,1
65812,-100,4,2,3,80,0,0
65941,-100,4,2,3,70,0,1
76197,-100,4,2,3,60,0,0
78248,-100,4,2,1,80,0,1
78761,-100,4,2,3,60,0,1
79274,-100,4,2,1,80,0,1
79787,-100,4,2,3,60,0,1
84402,-100,4,2,1,90,0,1
84915,-100,4,2,1,50,0,1
85428,-100,4,2,3,70,0,0

[Colours]
Combo1 : 95,95,255
Combo2 : 255,127,175
Combo3 : 127,175,255
Combo4 : 255,95,95

[HitObjects]
464,128,300,6,0,P|380:160|320:128,1,160,6|2,0:0|0:0,0:0:0:0:
392,72,1069,1,0,0:0:0:0:
268,200,1325,2,0,P|236:112|276:56,1,160,2|2,0:0|0:0,0:0:0:0:
392,72,2094,1,0,0:0:0:0:
268,200,2351,6,0,L|168:200,1,80,2|0,0:0|0:0,0:0:0:0:
48,284,2864,2,0,L|140:284,1,80,2|0,0:0|0:0,0:0:0:0:
276,264,3376,2,0,L|218:190,1,80,2|0,0:0|0:0,0:0:0:0:
180,128,3889,2,0,L|232:104,1,40,6|0,0:0|0:0,0:0:0:0:
312,68,4146,2,0,L|260:36,1,40,0|0,0:0|0:0,0:0:0:0:
180,128,4402,6,0,P|136:192|176:268,1,160,2|2,0:0|0:0,0:0:0:0:
312,68,5171,1,0,0:0:0:0:
452,252,5428,2,0,P|376:236|296:253,1,160,2|2,0:0|0:0,0:0:0:0:
372,328,6197,1,0,0:0:0:0:
216,140,6453,6,0,L|304:140,1,80,2|0,0:0|0:0,0:0:0:0:
400,48,6966,2,0,L|284:48,1,80,2|0,0:0|0:0,0:0:0:0:
216,140,7479,2,0,P|172:196|204:292,1,160,2|2,0:0|0:0,0:0:0:0:
136,60,8248,1,0,0:0:0:0:
276,192,8505,6,0,P|296:100|248:44,1,160,2|2,0:0|0:0,0:0:0:0:
400,196,9274,1,0,0:0:0:0:
260,124,9530,6,0,P|232:180|240:220,1,80,2|0,0:0|0:0,0:0:0:0:
112,176,10043,2,0,L|164:152,1,40,6|0,0:0|0:0,0:0:0:0:
256,120,10300,2,0,L|204:100,1,40
110,109,10556,6,0,P|70:173|110:245,1,160,2|2,0:0|0:0,0:0:0:0:
256,120,11325,1,0,0:0:0:0:
104,184,11582,2,0,P|96:140|120:100,1,80,2|0,0:0|0:0,0:0:0:0:
260,124,12094,6,0,L|216:88,1,40,6|0,0:0|0:0,0:0:0:0:
110,109,12351,2,0,L|160:92,1,40
260,124,12607,6,0,P|300:192|256:280,1,160,2|2,0:0|0:0,0:0:0:0:
184,268,13633,1,2,0:0:0:0:
84,268,14146,1,2,0:0:0:0:
260,120,14658,6,0,P|368:120|368:80,1,160,2|2,0:0|0:0,0:0:0:0:
371,320,15684,1,2,0:0:0:0:
141,320,16197,5,4,0:0:0:0:
376,264,16710,6,0,L|284:232,1,80,6|0,0:0|0:0,0:0:0:0:
164,136,17223,2,0,L|256:104,1,80,2|0,0:0|0:0,0:0:0:0:
400,72,17735,2,0,L|384:172,1,80,2|0,0:0|0:0,0:0:0:0:
288,72,18248,1,2,0:0:0:0:
400,72,18505,1,0,0:0:0:0:
208,328,18761,6,0,L|308:328,1,80,2|8,0:0|0:3,0:0:0:0:
400,72,19274,2,0,L|304:72,1,80,2|0,0:0|0:0,0:0:0:0:
188,68,19787,2,0,L|216:156,1,80,2|0,0:0|0:0,0:0:0:0:
344,256,20300,2,0,L|300:228,1,40,6|0,0:0|0:0,0:0:0:0:
212,144,20556,2,0,L|252:116,1,40,0|0,0:0|0:0,0:0:0:0:
380,168,20812,6,0,P|432:224|408:328,1,160,8|2,0:3|0:0,0:0:0:0:
288,68,21582,1,0,0:0:0:0:
136,184,21838,2,0,L|216:248,1,80,8|8,0:3|0:3,0:0:0:0:
356,76,22351,2,0,L|296:164,1,80,2|0,0:0|0:0,0:0:0:0:
88,244,22864,5,8,0:3:0:0:
216,324,23120,1,0,0:0:0:0:
344,244,23376,1,2,0:0:0:0:
216,324,23633,1,0,0:0:0:0:
4,100,23889,6,0,L|112:100,1,80,8|0,0:3|0:0,0:0:0:0:
200,176,24402,1,2,0:0:0:0:
312,244,24658,1,0,0:0:0:0:
68,88,24915,6,0,P|33:157|65:227,1,160,6|2,0:0|0:0,0:0:0:0:
200,176,25684,1,0,0:0:0:0:
424,192,25941,2,0,L|344:192,1,80,2|0,0:0|0:0,0:0:0:0:
212,104,26453,1,2,0:0:0:0:
312,104,26710,1,0,0:0:0:0:
80,308,26966,6,0,L|168:308,1,80,6|0,0:0|0:0,0:0:0:0:
312,104,27479,2,0,L|220:104,1,80,2|0,0:0|0:0,0:0:0:0:
136,100,27992,1,2,0:0:0:0:
40,200,28248,1,0,0:0:0:0:
188,204,28505,5,2,0:0:0:0:
40,200,28761,1,0,0:0:0:0:
280,204,29017,2,0,P|332:124|268:80,1,160,8|2,0:3|0:0,0:0:0:0:
184,88,29787,1,0,0:0:0:0:
416,292,30043,6,0,P|392:220|317:210,1,160,8|2,0:3|0:0,0:0:0:0:
176,204,30812,1,0,0:0:0:0:
416,292,31069,6,0,P|392:220|317:210,1,160,6|2,0:0|0:0,0:0:0:0:
296,80,32094,1,2,0:0:0:0:
144,140,32607,6,0,L|196:140,1,40,0|0,0:0|0:0,0:0:0:0:
296,80,32864,2,0,L|244:80,1,40,0|0,0:0|0:0,0:0:0:0:
56,232,33120,6,0,L|140:232,1,80,6|0,0:0|0:0,0:0:0:0:
248,232,33633,1,2,0:0:0:0:
120,232,33889,1,0,0:0:0:0:
320,144,34146,2,0,L|412:144,1,80,2|0,0:0|0:0,0:0:0:0:
72,136,34658,1,10,0:0:0:0:
184,52,34915,1,0,0:0:0:0:
356,232,35171,6,0,L|448:232,1,80,2|0,0:0|0:0,0:0:0:0:
296,136,35684,2,0,L|192:136,1,80,2|0,0:0|0:0,0:0:0:0:
32,64,36197,2,0,L|48:152,1,80,2|0,0:0|0:0,0:0:0:0:
420,232,36710,1,10,0:0:0:0:
328,108,36966,1,0,0:0:0:0:
92,64,37223,6,0,L|200:64,1,80,2|0,0:0|0:0,0:0:0:0:
300,192,37735,2,0,L|200:192,1,80,2|0,0:0|0:0,0:0:0:0:
452,56,38248,2,0,P|488:96|452:188,1,160,2|10,0:0|0:0,0:0:0:0:
200,72,39274,6,0,L|288:72,1,80,8|0,0:3|0:0,0:0:0:0:
480,284,39787,2,0,L|372:284,1,80,2|0,0:0|0:0,0:0:0:0:
144,192,40300,2,0,P|100:272|172:328,1,160,2|10,0:0|0:0,0:0:0:0:
232,260,41069,2,0,L|176:260,1,40
392,192,41325,6,0,L|488:192,1,80,6|0,0:0|0:0,0:0:0:0:
332,88,41838,2,0,L|244:88,1,80,2|0,0:0|0:0,0:0:0:0:
108,96,42351,2,0,L|124:188,1,80,2|0,0:0|0:0,0:0:0:0:
320,88,42864,2,0,L|400:88,1,80,10|0,0:0|0:0,0:0:0:0:
28,96,43376,6,0,L|108:96,1,80,2|0,0:0|0:0,0:0:0:0:
176,184,43889,1,2,0:0:0:0:
24,184,44146,1,0,0:0:0:0:
256,280,44402,1,2,0:0:0:0:
56,280,44658,1,0,0:0:0:0:
332,192,44915,2,0,L|428:192,1,80,10|0,0:0|0:0,0:0:0:0:
56,44,45428,6,0,L|82:120,1,80,6|0,0:0|0:0,0:0:0:0:
412,292,45941,1,8,0:0:0:0:
352,188,46453,6,0,L|384:92,1,80,2|2,0:0|0:0,0:0:0:0:
48,288,46966,1,10,0:0:0:0:
168,144,47479,6,0,L|212:60,1,80,8|0,0:3|0:0,0:0:0:0:
414,182,47992,2,0,L|370:98,1,80,8|0,0:3|0:0,0:0:0:0:
48,288,48505,2,0,L|16:192,1,80,8|0,0:0|0:0,0:0:0:0:
464,264,49017,2,0,L|496:168,1,80,8|0,0:0|0:0,0:0:0:0:
48,264,49530,6,0,L|148:264,1,80,6|0,0:0|0:0,0:0:0:0:
464,264,50043,2,0,L|496:168,1,80,8|0,0:0|0:0,0:0:0:0:
276,152,50556,2,0,L|256:68,1,80,2|0,0:0|0:0,0:0:0:0:
438,188,51069,2,0,L|470:92,1,80,8|0,0:0|0:0,0:0:0:0:
324,108,51582,5,2,0:0:0:0:
438,188,51838,1,0,0:0:0:0:
96,108,52094,2,0,L|192:108,1,80,8|0,0:0|0:0,0:0:0:0:
324,108,52607,1,2,0:0:0:0:
176,108,52864,1,0,0:0:0:0:
438,188,53120,2,0,L|490:268,1,80,8|0,0:0|0:0,0:0:0:0:
56,192,53633,6,0,L|120:128,1,80,2|0,0:0|0:0,0:0:0:0:
448,88,54146,2,0,L|364:24,1,80,8|0,0:0|0:0,0:0:0:0:
164,192,54658,2,0,L|240:136,1,80,2|0,0:0|0:0,0:0:0:0:
399,295,55171,2,0,L|319:295,1,80,8|0,0:0|0:0,0:0:0:0:
504,192,55684,5,2,0:0:0:0:
396,296,55941,1,0,0:0:0:0:
164,192,56197,2,0,L|140:116,1,80,8|0,0:0|0:0,0:0:0:0:
264,40,56710,2,0,L|168:40,1,80,2|0,0:0|0:0,0:0:0:0:
400,108,57223,2,0,P|420:68|368:36,1,80,8|0,0:0|0:0,0:0:0:0:
64,192,57735,6,0,L|156:192,1,80,2|0,0:0|0:0,0:0:0:0:
348,264,58248,2,0,L|252:264,1,80,8|0,0:0|0:0,0:0:0:0:
116,184,58761,1,2,0:0:0:0:
252,100,59017,1,0,0:0:0:0:
464,96,59274,2,0,L|388:184,1,80,8|0,0:0|0:0,0:0:0:0:
60,228,59787,6,0,L|80:316,1,80,2|0,0:0|0:0,0:0:0:0:
332,132,60300,2,0,L|240:132,1,80,8|0,0:0|0:0,0:0:0:0:
104,84,60812,1,2,0:0:0:0:
252,132,61069,1,0,0:0:0:0:
40,184,61325,2,0,L|152:184,1,80,8|0,0:0|0:0,0:0:0:0:
460,264,61838,6,0,P|496:192|456:104,1,160,10|8,0:0|0:0,0:0:0:0:
396,116,62607,1,0,0:0:0:0:
56,120,62864,2,0,P|20:192|60:280,1,160,10|8,0:0|0:0,0:0:0:0:
176,264,63633,1,0,0:0:0:0:
436,48,63889,6,0,L|460:136,1,80,2|0,0:0|0:0,0:0:0:0:
76,48,64402,2,0,L|128:132,1,80,8|0,0:0|0:0,0:0:0:0:
452,48,64915,2,0,L|500:128,1,80,12|0,0:0|0:0,0:0:0:0:
76,48,65428,2,0,L|28:128,1,80,8|0,0:0|0:0,0:0:0:0:
444,296,65941,6,0,L|476:200,1,80,6|0,0:0|0:0,0:0:0:0:
104,288,66453,2,0,L|12:288,1,80,8|0,0:0|0:0,0:0:0:0:
300,152,66966,2,0,L|332:56,1,80,2|0,0:0|0:0,0:0:0:0:
129,212,67478,2,0,L|37:212,1,80,8|0,0:0|0:0,0:0:0:0:
132,104,67992,5,2,0:0:0:0:
256,104,68248,2,0,L|368:104,1,80,0|8,0:0|0:0,0:0:0:0:
209,212,68761,1,0,0:0:0:0:
416,280,69017,2,0,L|336:280,1,80,2|0,0:0|0:0,0:0:0:0:
209,212,69530,1,8,0:0:0:0:
108,124,69787,1,0,0:0:0:0:
480,36,70043,6,0,L|460:132,1,80,10|0,0:0|0:0,0:0:0:0:
108,124,70556,2,0,L|24:72,1,80,8|0,0:0|0:0,0:0:0:0:
304,152,71069,2,0,L|340:64,1,80,2|0,0:0|0:0,0:0:0:0:
108,124,71582,2,0,L|132:216,1,80,8|0,0:0|0:0,0:0:0:0:
256,192,72094,6,0,L|204:112,1,80,2|0,0:0|0:0,0:0:0:0:
424,100,72607,2,0,L|324:100,1,80,8|0,0:0|0:0,0:0:0:0:
256,192,73120,1,2,0:0:0:0:
424,100,73376,1,0,0:0:0:0:
256,304,73633,1,8,0:0:0:0:
88,100,73889,1,0,0:0:0:0:
468,192,74146,6,0,L|384:192,1,80,2|2,0:0|0:0,0:0:0:0:
32,188,74658,2,0,L|48:296,1,80,8|0,0:0|0:0,0:0:0:0:
240,192,75171,6,0,L|256:148,1,40,2|0,0:0|0:0,0:0:0:0:
101,137,75428,2,0,L|85:93,1,40,2|0,0:0|0:0,0:0:0:0:
226,229,75684,2,0,L|242:185,1,40,8|0,0:0|0:0,0:0:0:0:
108,280,75941,2,0,L|92:236,1,40,0|0,0:0|0:0,0:0:0:0:
404,248,76197,5,2,0:0:0:0:
496,308,76453,1,0,0:0:0:0:
328,192,76710,1,8,0:0:0:0:
464,112,76966,1,0,0:0:0:0:
356,60,77223,1,2,0:0:0:0:
24,52,77479,1,2,0:0:0:0:
168,152,77735,1,8,0:0:0:0:
12,192,77992,1,0,0:0:0:0:
416,332,78248,6,0,P|460:260|424:192,1,160,8|8,0:3|0:0,0:0:0:0:
336,192,79017,1,0,0:0:0:0:
81,186,79274,2,0,P|160:104|232:104,1,160,8|8,0:3|0:0,0:0:0:0:
81,186,80043,1,0,0:0:0:0:
448,236,80300,6,0,P|484:204|436:116,1,160,2|8,0:0|0:0,0:0:0:0:
304,116,81069,1,2,0:0:0:0:
440,116,81325,1,2,0:0:0:0:
248,284,81582,2,0,L|328:284,1,80,2|8,0:0|0:0,0:0:0:0:
440,116,82094,1,2,0:0:0:0:
64,236,82351,6,0,P|28:204|76:116,1,160,6|8,0:0|0:0,0:0:0:0:
200,120,83120,1,2,0:0:0:0:
72,116,83376,1,2,0:0:0:0:
288,256,83633,2,0,L|180:256,1,80,2|8,0:0|0:0,0:0:0:0:
64,236,84146,1,2,0:0:0:0:
476,72,84402,6,0,L|456:156,1,80,8|0,0:3|0:0,0:0:0:0:
40,80,84915,2,0,L|80:164,1,80,4|0,0:0|0:0,0:0:0:0:
440,288,85428,1,12,0:0:0:0:
