osu file format v14

[General]
AudioFilename: audio.mp3
AudioLeadIn: -1710
PreviewTime: 49402
Countdown: 0
SampleSet: Soft
StackLeniency: 0.5
Mode: 0
LetterboxInBreaks: 0
WidescreenStoryboard: 0

[Editor]
Bookmarks: 16710,33120,49530,65941
DistanceSpacing: 1.5
BeatDivisor: 2
GridSize: 16
TimelineZoom: 1

[Metadata]
Title:FLIP FLAP FLIP FLAP
TitleUnicode:FLIP FLAP FLIP FLAP
Artist:TO-MAS feat. Chima
ArtistUnicode:TO-MAS feat. Chima
Creator:Pata-Mon
Version:Pure Illusion
Source:フリップフラッパーズ
Tags:Flip Flappers 伊藤真澄 Itou Masumi Anime ED ending tv size
BeatmapID:1119701
BeatmapSetID:527811

[Difficulty]
HPDrainRate:5
CircleSize:4
OverallDifficulty:6.5
ApproachRate:7.2
SliderMultiplier:1.4
SliderTickRate:1

[Events]
//Background and Video events
0,0,"BG.jpg",0,0
Video,-1200,"video.flv"
//Break Periods
//Storyboard Layer 0 (Background)
//Storyboard Layer 1 (Fail)
//Storyboard Layer 2 (Pass)
//Storyboard Layer 3 (Foreground)
//Storyboard Sound Samples

[TimingPoints]
300,512.820512820513,4,2,1,60,1,0
3889,-100,4,2,1,40,0,0
4402,-100,4,2,1,60,0,0
10043,-100,4,2,1,40,0,0
10556,-100,4,2,1,60,0,0
12094,-100,4,2,1,40,0,0
12607,-100,4,2,1,60,0,0
16197,-66.6666666666667,4,2,1,60,0,0
16582,-66.6666666666667,4,2,1,5,0,0
16710,-100,4,2,1,60,0,0
20300,-100,4,2,1,40,0,0
20812,-100,4,2,1,60,0,0
32607,-100,4,2,1,40,0,0
33120,-100,4,2,1,60,0,0
33376,-100,4,2,1,40,0,0
33633,-100,4,2,1,60,0,0
35428,-100,4,2,1,40,0,0
35684,-100,4,2,1,60,0,0
35941,-100,4,2,1,40,0,0
36197,-100,4,2,1,60,0,0
37607,-100,4,2,1,40,0,0
37735,-100,4,2,1,60,0,0
39017,-100,4,2,1,40,0,0
39274,-100,4,2,1,60,0,0
39658,-100,4,2,1,40,0,0
39787,-100,4,2,1,60,0,0
41069,-100,4,2,1,40,0,0
41325,-100,4,2,1,60,0,0
41582,-100,4,2,1,40,0,0
41838,-100,4,2,1,60,0,0
43633,-100,4,2,1,40,0,0
43889,-100,4,2,1,60,0,0
45684,-100,4,2,1,40,0,0
45941,-100,4,2,1,60,0,0
46838,-100,4,2,1,5,0,0
46966,-100,4,2,1,60,0,0
47351,-100,4,2,1,5,0,0
47479,-83.3333333333333,4,2,1,50,0,0
47864,-83.3333333333333,4,2,1,5,0,0
47992,-71.4285714285714,4,2,1,60,0,0
48376,-71.4285714285714,4,2,1,5,0,0
48505,-62.5,4,2,1,70,0,0
48889,-62.5,4,2,1,5,0,0
49017,-55.5555555555556,4,2,1,80,0,0
49402,-55.5555555555556,4,2,1,5,0,0
49530,-66.6666666666667,4,2,1,80,0,1
53376,-66.6666666666667,4,2,1,50,0,1
53633,-66.6666666666667,4,2,1,80,0,1
57479,-66.6666666666667,4,2,1,50,0,1
57735,-66.6666666666667,4,2,1,80,0,1
59017,-66.6666666666667,4,2,1,50,0,1
59274,-66.6666666666667,4,2,1,80,0,1
59530,-66.6666666666667,4,2,1,50,0,1
59787,-66.6666666666667,4,2,1,80,0,1
61069,-66.6666666666667,4,2,1,50,0,1
61325,-66.6666666666667,4,2,1,80,0,1
61582,-66.6666666666667,4,2,1,50,0,1
61838,-66.6666666666667,4,2,1,80,0,1
62223,-66.6666666666667,4,2,1,5,0,1
62351,-66.6666666666667,4,2,1,80,0,1
63248,-66.6666666666667,4,2,1,5,0,1
63376,-66.6666666666667,4,2,1,80,0,1
63889,-83.3333333333333,4,2,1,80,0,0
64274,-83.3333333333333,4,2,1,5,0,0
64402,-71.4285714285714,4,2,1,80,0,0
64787,-71.4285714285714,4,2,1,5,0,0
64915,-62.5,4,2,1,80,0,0
65300,-62.5,4,2,1,5,0,0
65428,-55.5555555555556,4,2,1,80,0,0
65812,-55.5555555555556,4,2,1,5,0,0
65941,-66.6666666666667,4,2,1,80,0,1
69787,-66.6666666666667,4,2,1,50,0,1
70043,-66.6666666666667,4,2,1,80,0,1
73376,-66.6666666666667,4,2,1,50,0,1
73633,-66.6666666666667,4,2,1,80,0,1
77479,-55.5555555555556,4,2,1,80,0,1
77992,-66.6666666666667,4,2,1,50,0,1
78248,-66.6666666666667,4,2,1,80,0,1
78505,-66.6666666666667,4,2,1,50,0,1
78761,-66.6666666666667,4,2,1,80,0,1
79017,-66.6666666666667,4,2,1,50,0,1
79274,-66.6666666666667,4,2,1,80,0,1
79530,-66.6666666666667,4,2,1,50,0,1
79787,-66.6666666666667,4,2,1,80,0,1
80043,-66.6666666666667,4,2,1,50,0,1
80300,-66.6666666666667,4,2,1,80,0,1
84915,-55.5555555555556,4,2,1,80,0,1
85300,-55.5555555555556,4,2,1,5,0,1
85428,-100,4,2,1,80,0,0

[Colours]
Combo1 : 95,95,255
Combo2 : 255,127,175
Combo3 : 127,175,255
Combo4 : 255,95,95

[HitObjects]
118,165,300,6,0,P|186:177|256:178,1,140,6|0,0:0|0:0,0:0:0:0:
354,164,1069,1,2,0:0:0:0:
196,276,1325,2,0,P|264:288|334:289,1,140,2|0,0:0|0:0,0:0:0:0:
432,275,2094,1,2,0:0:0:0:
257,178,2351,6,0,P|291:170|325:166,1,70,2|0,0:0|0:0,0:0:0:0:
468,184,2864,1,0,0:0:0:0:
432,275,3120,1,2,0:0:0:0:
228,279,3376,2,0,P|262:286|296:291,1,70,2|0,0:0|0:0,0:0:0:0:
158,144,3889,2,0,L|123:148,1,35,2|2,0:0|0:0,0:0:0:0:
131,234,4146,2,0,L|96:229,1,35,2|2,0:0|0:0,0:0:0:0:
262,138,4402,6,0,P|193:139|123:148,1,140,2|0,0:0|0:0,0:0:0:0:
358,152,5171,1,2,0:0:0:0:
214,248,5428,2,0,P|145:247|75:238,1,140,2|0,0:0|0:0,0:0:0:0:
310,234,6197,1,2,0:0:0:0:
178,128,6453,6,0,P|143:129|108:135,1,70,2|0,0:0|0:0,0:0:0:0:
310,234,6966,1,0,0:0:0:0:
213,220,7222,1,2,0:0:0:0:
407,248,7479,1,2,0:0:0:0:
407,248,7992,2,0,P|399:213|397:179,1,70,2|0,0:0|0:0,0:0:0:0:
313,18,8505,6,0,P|313:88|301:157,1,140,2|0,0:0|0:0,0:0:0:0:
233,228,9274,1,2,0:0:0:0:
397,179,9530,1,2,0:0:0:0:
397,179,10043,2,0,L|400:213,1,35,2|2,0:0|0:0,0:0:0:0:
487,214,10300,2,0,L|484:248,1,35,2|2,0:0|0:0,0:0:0:0:
391,109,10556,6,0,L|397:178,1,70,2|0,0:0|0:0,0:0:0:0:
238,150,11069,1,0,0:0:0:0:
258,245,11325,1,2,0:0:0:0:
101,143,11582,2,0,P|120:171|149:191,1,70,2|0,0:0|0:0,0:0:0:0:
258,245,12094,2,0,L|283:220,1,35,2|2,0:0|0:0,0:0:0:0:
238,150,12351,2,0,L|253:118,1,35,2|2,0:0|0:0,0:0:0:0:
101,143,12607,6,0,P|168:159|237:150,1,140,2|0,0:0|0:0,0:0:0:0:
328,112,13376,1,2,0:0:0:0:
174,70,13633,1,2,0:0:0:0:
266,36,13889,1,0,0:0:0:0:
179,168,14146,1,2,0:0:0:0:
274,194,14402,1,0,0:0:0:0:
84,142,14658,6,0,P|153:141|223:133,2,140,2|0|0,0:0|0:0|0:0,0:0:0:0:
84,142,16197,6,0,P|94:207|148:169,1,157.500006008148,4|0,0:0|0:0,0:0:0:0:
89,55,16710,6,0,P|55:55|20:60,1,70,2|2,0:0|0:0,0:0:0:0:
253,34,17223,2,0,P|219:34|184:29,1,70,0|2,0:0|0:0,0:0:0:0:
84,142,17735,2,0,P|49:146|15:155,2,70,2|2|0,0:0|0:0|0:0,0:0:0:0:
182,139,18504,1,2,0:0:0:0:
392,87,18761,5,2,0:0:0:0:
303,47,19017,2,0,P|268:48|234:56,1,70,2|0,0:0|0:0,0:0:0:0:
182,139,19530,1,2,0:0:0:0:
346,177,19787,2,0,P|311:176|277:168,1,70,2|2,0:0|0:0,0:0:0:0:
182,139,20300,2,0,L|184:173,1,35,2|2,0:0|0:0,0:0:0:0:
241,238,20556,2,0,L|239:272,1,35,2|2,0:0|0:0,0:0:0:0:
87,261,20812,6,0,P|121:254|156:254,1,70,2|2,0:0|0:0,0:0:0:0:
277,168,21325,2,0,P|311:161|346:161,1,70,0|2,0:0|0:0,0:0:0:0:
393,296,21838,2,0,P|358:296|323:289,2,70,2|2|0,0:0|0:0|0:0,0:0:0:0:
489,278,22606,1,2,0:0:0:0:
367,162,22864,5,2,0:0:0:0:
462,184,23120,1,2,0:0:0:0:
359,65,23376,1,0,0:0:0:0:
449,27,23633,1,2,0:0:0:0:
264,43,23889,2,0,P|228:35|192:35,1,70,2|2,0:0|0:0,0:0:0:0:
70,131,24402,2,0,P|104:128|136:114,1,70,0|2,0:0|0:0,0:0:0:0:
12,59,24915,6,0,P|20:128|20:198,1,140,2|0,0:0|0:0,0:0:0:0:
6,296,25684,1,2,0:0:0:0:
113,188,25941,2,0,P|109:222|96:255,1,70,2|0,0:0|0:0,0:0:0:0:
49,384,26453,1,0,0:0:0:0:
6,296,26710,1,2,0:0:0:0:
196,231,26966,5,2,0:0:0:0:
196,231,27223,1,0,0:0:0:0:
116,287,27479,2,0,P|82:296|47:298,1,70,0|2,0:0|0:0,0:0:0:0:
205,328,27992,1,2,0:0:0:0:
205,328,28505,2,0,P|239:330|273:339,1,70,0|2,0:0|0:0,0:0:0:0:
401,319,29017,6,0,P|322:253|355:144,1,140,2|0,0:0|0:0,0:0:0:0:
415,222,29787,1,2,0:0:0:0:
231,270,30043,2,0,P|234:169|302:124,1,140,2|0,0:0|0:0,0:0:0:0:
317,222,30812,1,2,0:0:0:0:
167,104,31069,6,0,P|234:48|334:84,2,140,2|0|0,0:0|0:0|0:0,0:0:0:0:
167,104,32607,2,0,L|169:138,1,35,6|2,0:0|0:0,0:0:0:0:
256,144,32864,2,0,L|254:178,1,35,2|2,0:0|0:0,0:0:0:0:
176,230,33120,5,2,0:0:0:0:
347,183,33376,1,2,0:0:0:0:
347,183,33505,1,2,0:0:0:0:
347,183,33633,2,0,P|382:178|417:178,1,70,2|0,0:0|0:0,0:0:0:0:
285,259,34146,2,0,P|250:258|215:253,1,70,2|0,0:0|0:0,0:0:0:0:
46,210,34658,1,8,0:0:0:0:
142,188,34915,1,0,0:0:0:0:
71,67,35171,6,0,P|75:101|86:134,1,70,2|2,0:0|0:0,0:0:0:0:
146,192,35556,1,2,0:0:0:0:
146,192,35684,1,2,0:0:0:0:
202,328,35941,1,2,0:0:0:0:
202,328,36069,1,2,0:0:0:0:
202,328,36197,2,0,P|213:294|217:260,1,70,2|0,0:0|0:0,0:0:0:0:
189,104,36710,1,8,0:0:0:0:
146,192,36966,1,0,0:0:0:0:
303,213,37223,6,0,P|319:262|316:314,1,105,2|2,0:0|0:0,0:0:0:0:
314,384,37735,2,0,P|310:349|316:314,1,70,2|0,0:0|0:0,0:0:0:0:
408,234,38248,2,0,P|443:234|478:226,2,70,2|0|8,0:0|0:0|0:0,0:0:0:0:
303,213,39017,2,0,L|269:221,1,35,2|2,0:0|0:0,0:0:0:0:
369,155,39274,6,0,P|381:106|359:59,1,105,2|2,0:0|0:0,0:0:0:0:
289,66,39787,2,0,P|324:66|359:58,1,70,2|0,0:0|0:0,0:0:0:0:
203,17,40300,2,0,P|168:17|133:25,2,70,2|0|8,0:0|0:0|0:0,0:0:0:0:
289,66,41069,2,0,L|283:100,1,35,2|2,0:0|0:0,0:0:0:0:
360,26,41325,6,0,P|394:18|429:18,1,70,2|2,0:0|0:0,0:0:0:0:
507,42,41710,1,2,0:0:0:0:
507,42,41838,1,2,0:0:0:0:
432,115,42094,1,0,0:0:0:0:
302,105,42351,2,0,P|269:62|264:4,1,70,2|0,0:0|0:0,0:0:0:0:
432,115,42864,1,8,0:0:0:0:
360,26,43120,1,0,0:0:0:0:
235,164,43376,6,0,P|245:198|264:228,1,70,2|2,0:0|0:0,0:0:0:0:
339,259,43761,1,2,0:0:0:0:
339,259,43889,1,2,0:0:0:0:
437,258,44146,1,0,0:0:0:0:
306,109,44402,2,0,P|316:143|335:173,1,70,2|0,0:0|0:0,0:0:0:0:
409,321,44915,2,0,P|427:291|437:257,1,70,8|0,0:0|0:0,0:0:0:0:
251,228,45428,6,0,P|218:216|188:197,1,70,2|2,0:0|0:0,0:0:0:0:
141,140,45812,1,2,0:0:0:0:
141,140,45941,2,0,L|149:70,1,70,2|0,0:0|0:0,0:0:0:0:
345,39,46453,2,0,P|353:90|354:143,1,105,4|0,0:0|0:0,0:0:0:0:
291,191,46966,2,0,P|328:217|386:215,1,105,8|0,0:0|0:0,0:0:0:0:
270,115,47479,6,0,P|222:154|217:214,1,125.999996154785,4|0,0:0|0:0,0:0:0:0:
386,215,47992,6,0,P|370:143|339:76,1,146.999995513916,4|0,0:0|0:0,0:0:0:0:
151,65,48505,6,0,P|193:132|270:115,1,168,4|0,0:0|0:0,0:0:0:0:
83,8,49017,6,0,P|77:101|123:182,1,188.999994232178,4|0,0:0|0:0,0:0:0:0:
270,115,49530,6,0,P|321:107|374:106,1,105.000004005432,6|0,0:0|0:0,0:0:0:0:
217,251,50043,2,0,P|166:259|113:260,1,105.000004005432,8|0,0:0|0:0,0:0:0:0:
337,226,50556,2,0,P|388:218|441:217,1,105.000004005432,2|0,0:0|0:0,0:0:0:0:
284,362,51069,2,0,P|233:370|180:371,1,105.000004005432,8|0,0:0|0:0,0:0:0:0:
337,226,51582,5,2,0:0:0:0:
229,160,51838,2,0,P|176:160|124:168,1,105.000004005432,0|8,0:0|0:0,0:0:0:0:
17,235,52351,1,0,0:0:0:0:
188,306,52607,2,0,P|241:306|293:298,1,105.000004005432,2|0,0:0|0:0,0:0:0:0:
415,202,53120,1,8,0:0:0:0:
415,202,53376,2,0,L|411:149,1,52.5000020027161,2|2,0:0|0:0,0:0:0:0:
304,49,53633,6,0,P|305:101|315:152,1,105.000004005432,2|0,0:0|0:0,0:0:0:0:
426,306,54146,2,0,P|425:254|415:203,1,105.000004005432,8|0,0:0|0:0,0:0:0:0:
194,116,54658,2,0,P|195:168|205:219,1,105.000004005432,2|0,0:0|0:0,0:0:0:0:
316,373,55171,2,0,P|315:321|305:270,1,105.000004005432,8|0,0:0|0:0,0:0:0:0:
84,195,55684,5,2,0:0:0:0:
201,256,55941,2,0,P|252:266|305:269,1,105.000004005432,0|8,0:0|0:0,0:0:0:0:
426,235,56453,1,0,0:0:0:0:
271,111,56710,2,0,P|218:113|167:124,1,105.000004005432,2|0,0:0|0:0,0:0:0:0:
10,199,57223,1,8,0:0:0:0:
10,199,57479,2,0,L|14:146,1,52.5000020027161,2|2,0:0|0:0,0:0:0:0:
58,279,57735,5,2,0:0:0:0:
150,177,57992,1,0,0:0:0:0:
140,73,58248,2,0,P|142:125|150:177,1,105.000004005432,8|0,0:0|0:0,0:0:0:0:
214,319,58761,1,2,0:0:0:0:
214,319,59017,2,0,L|212:371,1,52.5000020027161,2|2,0:0|0:0,0:0:0:0:
300,267,59274,1,8,0:0:0:0:
300,267,59530,2,0,L|301:319,1,52.5000020027161,2|2,0:0|0:0,0:0:0:0:
379,379,59787,5,2,0:0:0:0:
471,277,60043,1,0,0:0:0:0:
481,173,60300,2,0,P|479:225|471:277,1,105.000004005432,8|0,0:0|0:0,0:0:0:0:
300,267,60812,1,2,0:0:0:0:
300,267,61069,2,0,L|301:319,1,52.5000020027161,2|2,0:0|0:0,0:0:0:0:
214,215,61325,1,8,0:0:0:0:
214,215,61582,2,0,L|213:267,1,52.5000020027161,2|2,0:0|0:0,0:0:0:0:
128,163,61838,6,0,P|155:249|218:267,1,157.500006008148,2|0,0:0|0:0,0:0:0:0:
128,163,62351,2,0,P|76:154|23:153,1,105.000004005432,8|0,0:0|0:0,0:0:0:0:
213,268,62864,2,0,P|282:238|298:164,1,157.500006008148,2|0,0:0|0:0,0:0:0:0:
213,268,63376,2,0,P|214:320|223:372,1,105.000004005432,8|0,0:0|0:0,0:0:0:0:
218,184,63889,6,0,P|136:233|133:295,1,125.999996154785,2|0,0:0|0:0,0:0:0:0:
218,184,64402,6,0,P|210:118|144:124,1,146.999995513916,8|0,0:0|0:0,0:0:0:0:
294,212,64915,6,0,P|303:129|264:56,1,168,4|0,0:0|0:0,0:0:0:0:
144,124,65428,6,0,P|218:184|210:118,1,188.999994232178,4|0,0:0|0:0,0:0:0:0:
198,33,65941,6,0,P|146:22|94:22,1,105.000004005432,6|0,0:0|0:0,0:0:0:0:
317,149,66453,1,8,0:0:0:0:
317,149,66710,1,0,0:0:0:0:
144,124,66966,2,0,P|92:113|40:113,1,105.000004005432,2|0,0:0|0:0,0:0:0:0:
263,240,67478,1,8,0:0:0:0:
263,240,67735,1,0,0:0:0:0:
90,215,67992,5,2,0:0:0:0:
90,215,68248,1,0,0:0:0:0:
317,149,68505,2,0,P|265:138|213:138,1,105.000004005432,8|0,0:0|0:0,0:0:0:0:
399,262,69017,1,2,0:0:0:0:
263,240,69274,1,0,0:0:0:0:
459,136,69530,1,8,0:0:0:0:
459,136,69787,2,0,P|484:141|510:142,1,52.5000020027161,2|2,0:0|0:0,0:0:0:0:
387,72,70043,6,0,P|334:72|283:82,1,105.000004005432,2|0,0:0|0:0,0:0:0:0:
145,243,70556,1,8,0:0:0:0:
145,243,70812,1,0,0:0:0:0:
367,197,71069,2,0,P|314:197|263:207,1,105.000004005432,2|0,0:0|0:0,0:0:0:0:
125,368,71582,1,8,0:0:0:0:
125,368,71838,1,0,0:0:0:0:
347,322,72094,5,2,0:0:0:0:
219,272,72351,1,0,0:0:0:0:
397,194,72607,2,0,P|433:157|455:109,1,105.000004005432,8|0,0:0|0:0,0:0:0:0:
294,63,73120,1,2,0:0:0:0:
294,63,73376,2,0,L|297:115,1,52.5000020027161,2|2,0:0|0:0,0:0:0:0:
397,194,73633,1,8,0:0:0:0:
455,109,73889,1,0,0:0:0:0:
200,68,74146,5,2,0:0:0:0:
265,187,74402,2,0,L|366:194,1,52.5000020027161
397,194,74658,1,8,0:0:0:0:
86,208,75171,2,0,P|136:223|188:226,1,105.000004005432,2|0,0:0|0:0,0:0:0:0:
397,194,75684,1,8,0:0:0:0:
306,296,75941,1,0,0:0:0:0:
491,240,76197,6,0,P|499:193|476:122,1,105.000004005432,2|0,0:0|0:0,0:0:0:0:
297,88,76710,1,8,0:0:0:0:
416,19,76966,1,0,0:0:0:0:
366,207,77223,1,2,0:0:0:0:
256,207,77479,6,0,P|303:233|366:207,1,125.999996154785,4|2,0:0|0:0,0:0:0:0:
366,207,77992,6,0,L|365:259,1,52.5000020027161,2|2,0:0|0:0,0:0:0:0:
281,319,78248,6,0,P|231:301|191:267,1,105.000004005432,2|2,0:0|0:0,0:0:0:0:
156,197,78633,1,2,0:0:0:0:
156,197,78761,1,8,0:0:0:0:
316,82,79017,2,0,L|315:134,1,52.5000020027161,2|2,0:0|0:0,0:0:0:0:
259,215,79274,2,0,P|206:211|156:197,1,105.000004005432,2|2,0:0|0:0,0:0:0:0:
93,148,79658,1,2,0:0:0:0:
93,148,79787,1,8,0:0:0:0:
244,25,80043,2,0,L|243:77,1,52.5000020027161,2|2,0:0|0:0,0:0:0:0:
315,134,80300,6,0,P|311:186|295:236,1,105.000004005432,2|8,0:0|0:0,0:0:0:0:
149,155,80812,1,8,0:0:0:0:
343,35,81069,1,8,0:0:0:0:
295,236,81325,1,2,0:0:0:0:
343,35,81582,1,8,0:0:0:0:
422,225,81838,1,8,0:0:0:0:
422,225,82094,1,8,0:0:0:0:
245,117,82351,6,0,P|192:110|140:110,1,105.000004005432,2|8,0:0|0:0,0:0:0:0:
295,236,82864,1,8,0:0:0:0:
343,35,83121,1,8,0:0:0:0:
422,225,83376,1,2,0:0:0:0:
245,117,83633,1,8,0:0:0:0:
451,101,83889,1,8,0:0:0:0:
295,236,84146,1,8,0:0:0:0:
343,35,84402,5,2,0:0:0:0:
343,35,84915,6,0,P|340:164|413:221,1,188.999994232178,2|0,0:0|0:0,0:0:0:0:
451,101,85428,1,4,0:0:0:0:
