osu file format v14

[General]
AudioFilename: audio.mp3
AudioLeadIn: -1710
PreviewTime: 49402
Countdown: 0
SampleSet: Soft
StackLeniency: 0.7
Mode: 0
LetterboxInBreaks: 0
WidescreenStoryboard: 0

[Editor]
Bookmarks: 16710,33120,49530,65941
DistanceSpacing: 1.5
BeatDivisor: 2
GridSize: 16
TimelineZoom: 1

[Metadata]
Title:FLIP FLAP FLIP FLAP
TitleUnicode:FLIP FLAP FLIP FLAP
Artist:TO-MAS feat. Chima
ArtistUnicode:TO-MAS feat. Chima
Creator:Pata-Mon
Version:Normal
Source:フリップフラッパーズ
Tags:Flip Flappers 伊藤真澄 Itou Masumi Anime ED ending tv size
BeatmapID:1120162
BeatmapSetID:527811

[Difficulty]
HPDrainRate:3
CircleSize:3
OverallDifficulty:3
ApproachRate:4
SliderMultiplier:1.1
SliderTickRate:1

[Events]
//Background and Video events
0,0,"BG.jpg",0,0
Video,-1200,"video.flv"
//Break Periods
//Storyboard Layer 0 (Background)
//Storyboard Layer 1 (Fail)
//Storyboard Layer 2 (Pass)
//Storyboard Layer 3 (Foreground)
//Storyboard Sound Samples

[TimingPoints]
300,512.820512820513,4,2,1,60,1,0
16197,-100,4,2,1,40,0,0
16710,-100,4,2,1,60,0,0
32607,-100,4,2,1,40,0,0
33120,-100,4,2,1,60,0,0
47479,-100,4,2,1,50,0,0
47992,-100,4,2,1,60,0,0
48505,-100,4,2,1,70,0,0
49017,-100,4,2,1,80,0,0
49530,-100,4,2,1,80,0,1
63889,-100,4,2,1,80,0,0
65941,-100,4,2,1,80,0,1
85428,-100,4,2,1,80,0,0

[Colours]
Combo1 : 95,95,255
Combo2 : 255,127,175
Combo3 : 127,175,255
Combo4 : 255,95,95

[HitObjects]
114,122,300,6,0,P|168:124|222:115,1,110,6|0,0:0|0:0,0:0:0:0:
300,85,1069,1,2,0:0:0:0:
372,125,1325,2,0,P|389:176|390:231,1,110,2|0,0:0|0:0,0:0:0:0:
361,309,2094,1,2,0:0:0:0:
284,278,2351,2,0,P|230:276|176:285,2,110,2|2|2,0:0|0:0|0:0,0:0:0:0:
444,314,3889,1,2,0:0:0:0:
395,156,4402,5,2,0:0:0:0:
284,278,4915,2,0,L|284:333,2,55,0|2|2,0:0|0:0|0:0,0:0:0:0:
395,156,5941,2,0,L|395:101,1,55,0|2,0:0|0:0,0:0:0:0:
323,60,6453,2,0,P|270:74|215:76,1,110,2|0,0:0|0:0,0:0:0:0:
144,31,7223,2,0,L|89:33,1,55,2|2,0:0|0:0,0:0:0:0:
115,196,7992,2,0,L|170:198,1,55,2|0,0:0|0:0,0:0:0:0:
243,159,8505,6,0,P|229:256|162:280,1,110,2|0,0:0|0:0,0:0:0:0:
336,381,9530,2,0,P|391:381|445:369,1,110,2|2,0:0|0:0,0:0:0:0:
415,206,10556,2,0,P|360:206|306:218,1,110,2|0,0:0|0:0,0:0:0:0:
237,263,11325,1,2,0:0:0:0:
193,333,11582,2,0,P|138:333|84:321,1,110,2|0,0:0|0:0,0:0:0:0:
15,276,12351,1,2,0:0:0:0:
0,195,12607,6,0,P|99:170|181:204,1,110,2|0,0:0|0:0,0:0:0:0:
262,221,13633,2,0,P|267:137|218:50,2,110,2|0|2,0:0|0:0|0:0,0:0:0:0:
140,332,15171,1,0,0:0:0:0:
105,171,15684,1,0,0:0:0:0:
260,113,16197,1,4,0:0:0:0:
340,257,16710,6,0,P|394:255|449:246,2,110,2|0|2,0:0|0:0|0:0,0:0:0:0:
260,113,18248,2,0,L|267:58,1,55,0|2,0:0|0:0,0:0:0:0:
340,20,18761,2,0,P|394:21|449:30,1,110,2|0,0:0|0:0,0:0:0:0:
512,84,19530,1,2,0:0:0:0:
501,166,19787,2,0,P|464:205|412:220,1,110,2|2,0:0|0:0,0:0:0:0:
266,141,20812,6,0,P|214:126|160:136,2,110,2|0|2,0:0|0:0|0:0,0:0:0:0:
411,220,22351,2,0,L|413:165,1,55,0|2,0:0|0:0,0:0:0:0:
343,120,22864,2,0,L|341:65,1,55,2|2,0:0|0:0,0:0:0:0:
399,6,23376,2,0,L|454:8,2,55,0|2|2,0:0|0:0|0:0,0:0:0:0:
255,88,24402,2,0,L|200:86,1,55,0|2,0:0|0:0,0:0:0:0:
125,51,24915,6,0,P|71:61|29:96,1,110,2|0,0:0|0:0,0:0:0:0:
1,173,25684,2,0,L|6:227,1,55,2|2,0:0|0:0,0:0:0:0:
112,354,26453,2,0,L|117:300,1,55,0|2,0:0|0:0,0:0:0:0:
171,236,26966,2,0,P|225:231|277:249,1,110,2|0,0:0|0:0,0:0:0:0:
333,308,27735,2,0,L|387:304,1,55,2|2,0:0|0:0,0:0:0:0:
406,139,28505,2,0,L|352:135,1,55,0|2,0:0|0:0,0:0:0:0:
315,209,29017,6,0,P|270:240|217:252,1,110,2|0,0:0|0:0,0:0:0:0:
134,239,29787,1,2,0:0:0:0:
100,164,30043,2,0,P|97:109|116:57,1,110,2|0,0:0|0:0,0:0:0:0:
182,9,30812,1,2,0:0:0:0:
251,55,31069,2,0,P|306:63|360:54,2,110,2|0|0,0:0|0:0|0:0,0:0:0:0:
181,204,32607,2,0,P|179:259|190:313,1,110,4|2,0:0|0:0,0:0:0:0:
242,376,33376,5,0,0:0:0:0:
318,343,33633,2,0,L|372:336,1,55,2|0,0:0|0:0,0:0:0:0:
454,351,34146,2,0,P|464:297|462:242,1,110,2|8,0:0|0:0,0:0:0:0:
444,161,34915,1,0,0:0:0:0:
365,138,35171,2,0,P|312:153|257:155,1,110,2|2,0:0|0:0,0:0:0:0:
184,115,35941,2,0,L|129:121,1,55,0|2,0:0|0:0,0:0:0:0:
91,281,36710,2,0,L|146:287,1,55,8|0,0:0|0:0,0:0:0:0:
193,354,37223,6,0,P|244:374|297:363,2,110,2|2|2,0:0|0:0|0:0,0:0:0:0:
165,191,38761,2,0,L|110:185,1,55,8|2,0:0|0:0,0:0:0:0:
59,250,39274,2,0,P|27:319|30:402,2,110,2|2|2,0:0|0:0|0:0,0:0:0:0:
121,97,40812,2,0,L|66:91,2,55,8|2|2,0:0|0:0|0:0,0:0:0:0:
198,126,41582,5,0,0:0:0:0:
267,82,41838,2,0,P|322:80|375:94,1,110,2|2,0:0|0:0,0:0:0:0:
470,228,42864,2,0,L|415:223,1,55,8|0,0:0|0:0,0:0:0:0:
338,192,43376,2,0,P|283:190|230:204,1,110,2|2,0:0|0:0,0:0:0:0:
156,242,44146,1,0,0:0:0:0:
96,298,44402,2,0,P|151:296|204:310,1,110,2|8,0:0|0:0,0:0:0:0:
278,348,45172,1,0,0:0:0:0:
351,310,45428,6,0,P|404:296|458:298,2,110,2|2|4,0:0|0:0|0:0,0:0:0:0:
197,371,46966,1,8,0:0:0:0:
44,310,47479,2,0,P|49:255|68:204,1,110,4|4,0:0|0:0,0:0:0:0:
184,86,48505,2,0,P|231:58|284:44,1,110,4|4,0:0|0:0,0:0:0:0:
436,104,49530,6,0,P|417:249|449:304,1,110,6|8,0:0|0:0,0:0:0:0:
249,252,50556,2,0,P|268:397|236:452,1,110,2|8,0:0|0:0,0:0:0:0:
112,344,51582,1,2,0:0:0:0:
86,265,51838,2,0,L|31:259,2,55,0|8|0,0:0|0:0|0:0,0:0:0:0:
159,228,52607,2,0,P|214:228|267:242,1,110,2|8,0:0|0:0,0:0:0:0:
404,150,53633,6,0,P|459:150|512:164,1,110,2|8,0:0|0:0,0:0:0:0:
512,329,54658,2,0,P|458:342|404:342,1,110,2|8,0:0|0:0,0:0:0:0:
268,247,55684,1,2,0:0:0:0:
213,309,55941,2,0,L|207:363,2,55,0|8|0,0:0|0:0|0:0,0:0:0:0:
133,288,56710,2,0,P|93:250|72:199,1,110,2|8,0:0|0:0,0:0:0:0:
162,62,57735,6,0,P|95:37|1:50,2,110,2|8|2,0:0|0:0|0:0,0:0:0:0:
218,122,59017,1,0,0:0:0:0:
294,89,59274,2,0,L|348:84,1,55,8|0,0:0|0:0,0:0:0:0:
392,155,59787,2,0,P|443:173|497:164,2,110,2|8|2,0:0|0:0|0:0,0:0:0:0:
349,84,61069,1,0,0:0:0:0:
270,57,61325,2,0,L|216:62,1,55,8|0,0:0|0:0,0:0:0:0:
137,34,61838,6,0,P|118:86|112:141,1,110,2|8,0:0|0:0,0:0:0:0:
128,221,62607,1,0,0:0:0:0:
209,205,62864,2,0,P|263:211|315:230,1,110,2|8,0:0|0:0,0:0:0:0:
376,286,63633,1,0,0:0:0:0:
444,239,63889,2,0,P|463:94|431:39,1,110,2|8,0:0|0:0,0:0:0:0:
307,147,64915,2,0,P|288:2|320:-53,1,110,4|4,0:0|0:0,0:0:0:0:
124,99,65941,6,0,P|143:244|111:299,1,110,6|8,0:0|0:0,0:0:0:0:
311,247,66967,2,0,P|292:392|324:447,1,110,2|8,0:0|0:0,0:0:0:0:
448,339,67992,2,0,L|454:284,1,55,2|0,0:0|0:0,0:0:0:0:
499,215,68505,2,0,L|493:160,1,55,8|0,0:0|0:0,0:0:0:0:
425,112,69017,2,0,P|372:100|317:97,1,110,2|8,0:0|0:0,0:0:0:0:
151,97,70043,6,0,P|96:99|42:111,1,110,2|8,0:0|0:0,0:0:0:0:
42,276,71069,2,0,P|95:288|150:291,1,110,2|8,0:0|0:0,0:0:0:0:
284,194,72094,2,0,L|338:197,1,55,2|0,0:0|0:0,0:0:0:0:
398,139,72607,2,0,L|452:136,1,55,8|0,0:0|0:0,0:0:0:0:
504,201,73120,2,0,P|459:310|415:343,1,110,2|8,0:0|0:0,0:0:0:0:
339,197,74146,6,0,P|284:200|234:222,1,110,2|8,0:0|0:0,0:0:0:0:
97,314,75171,2,0,L|42:311,2,55,2|0|8,0:0|0:0|0:0,0:0:0:0:
171,350,75941,1,0,0:0:0:0:
232,295,76197,2,0,P|286:286|340:292,2,110,2|8|2,0:0|0:0|0:0,0:0:0:0:
171,350,77479,2,0,L|116:347,1,55,4|2,0:0|0:0,0:0:0:0:
40,380,77992,1,0,0:0:0:0:
0,308,78248,6,0,P|2:253|20:201,1,110,2|8,0:0|0:0,0:0:0:0:
75,140,79017,1,0,0:0:0:0:
151,173,79274,2,0,P|206:172|259:156,1,110,2|8,0:0|0:0,0:0:0:0:
323,105,80043,1,0,0:0:0:0:
394,147,80300,2,0,P|415:197|422:251,2,110,2|8|2,0:0|0:0|0:0,0:0:0:0:
323,105,81582,1,8,0:0:0:0:
258,156,81838,2,0,L|203:154,1,55,8|8,0:0|0:0,0:0:0:0:
139,206,82351,6,0,P|86:216|33:205,2,110,2|8|2,0:0|0:0|0:0,0:0:0:0:
203,154,83633,1,8,0:0:0:0:
272,197,83889,2,0,L|327:199,1,55,8|8,0:0|0:0,0:0:0:0:
399,158,84402,1,2,0:0:0:0:
329,307,84915,2,0,P|356:355|405:379,1,110,2|4,0:0|0:0,0:0:0:0:
