osu file format v14

[General]
AudioFilename: audio.mp3
AudioLeadIn: -1710
PreviewTime: 49402
Countdown: 0
SampleSet: Soft
StackLeniency: 0.7
Mode: 0
LetterboxInBreaks: 0
WidescreenStoryboard: 0

[Editor]
Bookmarks: 16710,33120,49530,65941
DistanceSpacing: 1.4
BeatDivisor: 2
GridSize: 16
TimelineZoom: 1

[Metadata]
Title:FLIP FLAP FLIP FLAP
TitleUnicode:FLIP FLAP FLIP FLAP
Artist:TO-MAS feat. Chima
ArtistUnicode:TO-MAS feat. Chima
Creator:Pata-Mon
Version:Hard
Source:フリップフラッパーズ
Tags:Flip Flappers 伊藤真澄 Itou Masumi Anime ED ending tv size
BeatmapID:1120161
BeatmapSetID:527811

[Difficulty]
HPDrainRate:4
CircleSize:3.8
OverallDifficulty:5
ApproachRate:6
SliderMultiplier:1.2
SliderTickRate:1

[Events]
//Background and Video events
0,0,"BG.jpg",0,0
Video,-1200,"video.flv"
//Break Periods
//Storyboard Layer 0 (Background)
//Storyboard Layer 1 (Fail)
//Storyboard Layer 2 (Pass)
//Storyboard Layer 3 (Foreground)
//Storyboard Sound Samples

[TimingPoints]
300,512.820512820513,4,2,1,60,1,0
3889,-100,4,2,1,40,0,0
4402,-100,4,2,1,60,0,0
12094,-100,4,2,1,40,0,0
12607,-100,4,2,1,60,0,0
16710,-100,4,2,1,60,0,0
20300,-100,4,2,1,40,0,0
20812,-100,4,2,1,60,0,0
32607,-100,4,2,1,40,0,0
33120,-100,4,2,1,60,0,0
47479,-83.3333333333333,4,2,1,50,0,0
47992,-83.3333333333333,4,2,1,60,0,0
48505,-83.3333333333333,4,2,1,70,0,0
49017,-83.3333333333333,4,2,1,80,0,0
49530,-83.3333333333333,4,2,1,80,0,1
63889,-83.3333333333333,4,2,1,80,0,0
65941,-83.3333333333333,4,2,1,80,0,1
77992,-83.3333333333333,4,2,1,50,0,1
78248,-83.3333333333333,4,2,1,80,0,1
85428,-100,4,2,1,80,0,0

[Colours]
Combo1 : 95,95,255
Combo2 : 255,127,175
Combo3 : 127,175,255
Combo4 : 255,95,95

[HitObjects]
69,74,300,6,0,P|126:58|186:56,1,120,6|0,0:0|0:0,0:0:0:0:
268,75,1069,1,2,0:0:0:0:
287,157,1325,2,0,P|329:198|386:212,1,120,2|0,0:0|0:0,0:0:0:0:
467,187,2094,1,2,0:0:0:0:
457,103,2351,6,0,L|473:45,2,60,2|0|0,0:0|0:0|0:0,0:0:0:0:
467,187,3120,1,2,0:0:0:0:
387,212,3376,1,2,0:0:0:0:
387,212,3889,2,0,L|388:241,3,30,2|2|2|2,0:0|0:0|0:0|0:0,0:0:0:0:
413,275,4402,6,0,P|356:259|296:257,1,120,2|0,0:0|0:0,0:0:0:0:
212,273,5171,1,2,0:0:0:0:
162,340,5428,2,0,P|102:338|44:322,1,120,2|0,0:0|0:0,0:0:0:0:
4,248,6197,1,2,0:0:0:0:
46,175,6453,6,0,L|41:115,2,60,2|0|0,0:0|0:0|0:0,0:0:0:0:
4,248,7223,1,2,0:0:0:0:
44,322,7479,1,2,0:0:0:0:
44,322,7992,2,0,P|73:318|99:304,1,60,2|0,0:0|0:0,0:0:0:0:
147,193,8505,6,0,P|166:247|220:271,1,120,2|0,0:0|0:0,0:0:0:0:
303,259,9274,1,2,0:0:0:0:
384,280,9530,2,0,P|443:273|495:245,1,120,2|0,0:0|0:0,0:0:0:0:
512,161,10300,1,2,0:0:0:0:
457,97,10556,6,0,L|460:37,2,60,2|0|0,0:0|0:0|0:0,0:0:0:0:
512,161,11325,1,2,0:0:0:0:
437,200,11582,2,0,P|407:200|377:193,1,60,2|0,0:0|0:0,0:0:0:0:
304,151,12094,2,0,L|274:152,3,30,2|2|2|2,0:0|0:0|0:0|0:0,0:0:0:0:
253,114,12607,6,0,P|213:157|156:168,1,120,2|0,0:0|0:0,0:0:0:0:
71,152,13376,1,2,0:0:0:0:
41,72,13633,2,0,L|47:12,1,60,2|0,0:0|0:0,0:0:0:0:
71,152,14146,2,0,L|64:211,1,60,2|0,0:0|0:0,0:0:0:0:
0,297,14658,6,0,P|59:292|112:317,2,120,2|0|0,0:0|0:0|0:0,0:0:0:0:
71,152,16197,1,4,0:0:0:0:
226,44,16710,6,0,P|199:97|154:135,1,120,2|0,0:0|0:0,0:0:0:0:
71,152,17479,1,2,0:0:0:0:
126,215,17735,2,0,P|184:227|244:223,1,120,2|0,0:0|0:0,0:0:0:0:
324,196,18505,1,2,0:0:0:0:
368,124,18761,6,0,L|363:64,2,60,2|0|0,0:0|0:0|0:0,0:0:0:0:
324,196,19530,1,2,0:0:0:0:
243,170,19787,2,0,L|183:173,1,60,2|0,0:0|0:0,0:0:0:0:
125,234,20300,2,0,L|95:232,3,30,2|2|2|2,0:0|0:0|0:0|0:0,0:0:0:0:
57,251,20812,6,0,P|34:195|34:135,1,120,2|0,0:0|0:0,0:0:0:0:
77,63,21582,1,2,0:0:0:0:
155,92,21838,2,0,P|214:94|273:81,1,120,2|0,0:0|0:0,0:0:0:0:
347,41,22607,1,2,0:0:0:0:
419,84,22864,6,0,L|419:144,1,60,2|2,0:0|0:0,0:0:0:0:
388,222,23376,1,0,0:0:0:0:
440,287,23633,1,2,0:0:0:0:
388,222,23889,2,0,L|328:225,1,60,2|2,0:0|0:0,0:0:0:0:
261,276,24402,2,0,L|201:273,1,60,0|2,0:0|0:0,0:0:0:0:
133,191,24915,6,0,P|98:273|7:276,1,120,2|0,0:0|0:0,0:0:0:0:
50,204,25684,1,2,0:0:0:0:
80,126,25941,2,0,P|124:108|184:125,1,60,2|0,0:0|0:0,0:0:0:0:
209,147,26453,1,0,0:0:0:0:
209,147,26710,1,2,0:0:0:0:
261,81,26966,6,0,P|305:63|365:80,1,60,2|0,0:0|0:0,0:0:0:0:
385,110,27479,2,0,L|383:169,1,60,0|2,0:0|0:0,0:0:0:0:
327,233,27992,1,2,0:0:0:0:
327,233,28505,2,0,L|329:292,1,60,0|2,0:0|0:0,0:0:0:0:
395,345,29017,6,0,P|339:376|248:315,1,120,2|0,0:0|0:0,0:0:0:0:
229,303,29787,1,2,0:0:0:0:
172,365,30043,2,0,P|114:375|63:344,1,120,2|0,0:0|0:0,0:0:0:0:
32,266,30812,1,2,0:0:0:0:
101,217,31069,6,0,P|121:162|115:103,2,120,2|0|0,0:0|0:0|0:0,0:0:0:0:
280,161,32607,2,0,L|309:164,3,30,6|2|2|2,0:0|0:0|0:0|0:0,0:0:0:0:
337,196,33120,5,2,0:0:0:0:
337,196,33376,1,0,0:0:0:0:
374,120,33633,2,0,P|417:106|475:125,1,60,2|0,0:0|0:0,0:0:0:0:
421,190,34146,2,0,P|387:264|274:252,1,120,2|8,0:0|0:0,0:0:0:0:
271,280,34915,1,0,0:0:0:0:
209,222,35171,6,0,L|149:227,1,60,2|0,0:0|0:0,0:0:0:0:
91,288,35684,1,2,0:0:0:0:
91,288,35941,1,0,0:0:0:0:
155,341,36197,1,2,0:0:0:0:
160,169,36710,2,0,P|151:197|149:227,1,60,8|0,0:0|0:0,0:0:0:0:
230,122,37223,6,0,P|168:85|78:148,2,120,2|2|2,0:0|0:0|0:0,0:0:0:0:
248,204,38505,1,0,0:0:0:0:
328,227,38761,2,0,P|357:224|385:214,1,60,8|2,0:0|0:0,0:0:0:0:
435,119,39274,6,0,P|457:173|511:198,2,120,2|2|2,0:0|0:0|0:0,0:0:0:0:
308,8,40812,1,8,0:0:0:0:
308,8,41069,1,2,0:0:0:0:
362,72,41325,6,0,L|358:131,1,60,2|0,0:0|0:0,0:0:0:0:
280,164,41838,2,0,L|276:105,1,60,2|0,0:0|0:0,0:0:0:0:
222,38,42351,2,0,P|165:58|106:52,1,120,2|8,0:0|0:0,0:0:0:0:
33,11,43120,1,0,0:0:0:0:
54,118,43376,6,0,P|59:148|57:198,1,60,2|0,0:0|0:0,0:0:0:0:
42,260,43889,1,2,0:0:0:0:
0,334,44146,1,0,0:0:0:0:
125,252,44402,2,0,P|154:252|183:261,1,60,2|0,0:0|0:0,0:0:0:0:
291,319,44915,2,0,P|262:328|232:328,1,60,8|0,0:0|0:0,0:0:0:0:
243,202,45428,6,0,P|357:211|410:278,2,120,2|2|4,0:0|0:0|0:0,0:0:0:0:
183,261,46710,1,0,0:0:0:0:
115,210,46966,2,0,P|85:208|56:215,1,60,8|0,0:0|0:0,0:0:0:0:
183,261,47479,5,4,0:0:0:0:
395,223,47992,1,4,0:0:0:0:
167,151,48505,1,4,0:0:0:0:
411,113,49017,1,4,0:0:0:0:
151,41,49530,6,0,L|79:49,1,71.9999978027344,6|0,0:0|0:0,0:0:0:0:
180,158,50043,2,0,L|251:166,1,71.9999978027344,8|0,0:0|0:0,0:0:0:0:
306,86,50556,2,0,L|234:77,1,71.9999978027344,2|0,0:0|0:0,0:0:0:0:
335,203,51069,2,0,L|406:194,1,71.9999978027344,8|0,0:0|0:0,0:0:0:0:
252,167,51582,5,2,0:0:0:0:
252,167,51838,2,0,P|228:227|236:290,1,71.9999978027344,0|8,0:0|0:0,0:0:0:0:
286,307,52351,1,0,0:0:0:0:
426,249,52607,2,0,L|354:243,1,71.9999978027344,2|0,0:0|0:0,0:0:0:0:
214,313,53120,2,0,L|286:307,1,71.9999978027344,8|0,0:0|0:0,0:0:0:0:
283,183,53633,6,0,L|211:189,1,71.9999978027344,2|0,0:0|0:0,0:0:0:0:
71,247,54146,2,0,L|143:253,1,71.9999978027344,8|0,0:0|0:0,0:0:0:0:
143,124,54658,2,0,L|71:118,1,71.9999978027344,2|0,0:0|0:0,0:0:0:0:
211,189,55171,2,0,L|283:183,1,71.9999978027344,8|0,0:0|0:0,0:0:0:0:
283,54,55684,5,2,0:0:0:0:
283,54,55941,2,0,L|211:60,1,71.9999978027344,0|8,0:0|0:0,0:0:0:0:
143,124,56453,1,0,0:0:0:0:
195,241,56710,2,0,P|214:211|221:175,1,71.9999978027344,2|0,0:0|0:0,0:0:0:0:
117,59,57223,2,0,P|123:93|143:124,1,71.9999978027344,8|0,0:0|0:0,0:0:0:0:
287,108,57735,5,2,0:0:0:0:
287,108,57992,1,0,0:0:0:0:
374,37,58248,2,0,P|409:40|444:50,1,71.9999978027344,8|0,0:0|0:0,0:0:0:0:
509,118,58761,2,0,L|504:189,1,71.9999978027344,2|0,0:0|0:0,0:0:0:0:
453,327,59274,1,8,0:0:0:0:
424,239,59530,1,0,0:0:0:0:
365,377,59787,5,2,0:0:0:0:
365,377,60043,1,0,0:0:0:0:
332,263,60300,2,0,P|299:248|263:242,1,71.9999978027344,8|0,0:0|0:0,0:0:0:0:
119,275,60812,1,2,0:0:0:0:
119,275,61069,2,0,P|152:290|188:296,1,71.9999978027344,0|8,0:0|0:0,0:0:0:0:
264,242,61582,1,0,0:0:0:0:
192,161,61838,6,0,P|104:141|13:190,1,143.999995605469,2|8,0:0|0:0,0:0:0:0:
1,233,62607,1,0,0:0:0:0:
77,311,62864,2,0,P|165:331|256:282,1,143.999995605469,2|8,0:0|0:0,0:0:0:0:
268,239,63633,1,0,0:0:0:0:
192,161,63889,5,2,0:0:0:0:
393,137,64402,1,8,0:0:0:0:
178,49,64915,1,4,0:0:0:0:
407,25,65428,1,4,0:0:0:0:
178,49,65941,6,0,P|144:35|108:33,1,71.9999978027344,6|0,0:0|0:0,0:0:0:0:
160,191,66453,2,0,P|188:168|207:138,1,71.9999978027344,8|0,0:0|0:0,0:0:0:0:
47,103,66966,2,0,P|52:138|68:170,1,71.9999978027344,2|0,0:0|0:0,0:0:0:0:
50,313,67479,2,0,P|78:290|97:260,1,71.9999978027344,8|0,0:0|0:0,0:0:0:0:
160,152,67992,5,2,0:0:0:0:
160,152,68248,1,0,0:0:0:0:
261,254,68505,2,0,P|260:218|247:184,1,71.9999978027344,8|0,0:0|0:0,0:0:0:0:
173,83,69017,2,0,P|160:117|160:153,1,71.9999978027344,2|0,0:0|0:0,0:0:0:0:
253,35,69530,1,8,0:0:0:0:
253,35,69787,1,0,0:0:0:0:
384,52,70043,6,0,P|408:116|385:176,1,71.9999978027344,2|0,0:0|0:0,0:0:0:0:
252,151,70556,2,0,L|314:115,1,71.9999978027344,8|0,0:0|0:0,0:0:0:0:
373,205,71069,2,0,L|311:241,1,71.9999978027344,2|0,0:0|0:0,0:0:0:0:
408,118,71582,2,0,P|456:162|462:232,1,71.9999978027344,8|0,0:0|0:0,0:0:0:0:
402,294,72094,5,2,0:0:0:0:
402,294,72351,1,0,0:0:0:0:
280,211,72607,2,0,P|315:278|367:298,1,71.9999978027344,8|0,0:0|0:0,0:0:0:0:
465,225,73120,1,2,0:0:0:0:
373,205,73377,1,0,0:0:0:0:
506,141,73633,2,0,P|499:105|479:75,1,71.9999978027344,8|0,0:0|0:0,0:0:0:0:
344,7,74146,5,2,0:0:0:0:
393,86,74402,1,0,0:0:0:0:
393,86,74530,1,0,0:0:0:0:
393,86,74658,1,8,0:0:0:0:
164,106,75171,2,0,P|153:139|151:175,1,71.9999978027344,2|0,0:0|0:0,0:0:0:0:
198,307,75684,1,8,0:0:0:0:
233,220,75941,1,0,0:0:0:0:
127,313,76197,6,0,P|162:314|198:307,1,71.9999978027344,2|0,0:0|0:0,0:0:0:0:
304,226,76710,2,0,P|268:219|233:220,1,71.9999978027344,8|0,0:0|0:0,0:0:0:0:
374,288,77223,1,2,0:0:0:0:
398,222,77479,2,0,P|392:257|374:288,1,71.9999978027344,4|2,0:0|0:0,0:0:0:0:
369,131,77992,1,2,0:0:0:0:
369,131,78120,1,2,0:0:0:0:
369,131,78248,6,0,P|307:166|236:164,1,143.999995605469,2|8,0:0|0:0,0:0:0:0:
154,118,79017,1,0,0:0:0:0:
106,37,79274,2,0,P|168:72|239:70,1,143.999995605469,2|8,0:0|0:0,0:0:0:0:
321,24,80043,1,0,0:0:0:0:
472,77,80300,6,0,L|400:73,1,71.9999978027344,2|8,0:0|0:0,0:0:0:0:
271,152,80812,2,0,L|343:148,1,71.9999978027344,8|8,0:0|0:0,0:0:0:0:
486,198,81325,1,2,0:0:0:0:
400,73,81582,1,8,0:0:0:0:
396,225,81838,1,8,0:0:0:0:
488,104,82094,1,8,0:0:0:0:
343,148,82351,6,0,L|271:152,1,71.9999978027344,2|8,0:0|0:0,0:0:0:0:
142,223,82864,2,0,L|214:227,1,71.9999978027344,8|8,0:0|0:0,0:0:0:0:
357,277,83377,1,2,0:0:0:0:
271,152,83634,1,8,0:0:0:0:
267,304,83890,1,8,0:0:0:0:
359,183,84146,1,8,0:0:0:0:
214,227,84402,5,2,0:0:0:0:
239,91,84915,2,0,P|210:155|214:227,1,143.999995605469,2|4,0:0|0:0,0:0:0:0:
