osu file format v14

[General]
AudioFilename: audio.mp3
AudioLeadIn: 0
PreviewTime: 49530
Countdown: 0
SampleSet: Soft
StackLeniency: 0.6
Mode: 0
LetterboxInBreaks: 0
WidescreenStoryboard: 1

[Editor]
Bookmarks: 4402,8505,10556,12607,16710,33120,34658,36710,38761,47992,48505,49017,49530,63889,64402,64915,65428,65941,77992,84402,84915,85428
DistanceSpacing: 1
BeatDivisor: 2
GridSize: 4
TimelineZoom: 3.099999

[Metadata]
Title:FLIP FLAP FLIP FLAP
TitleUnicode:FLIP FLAP FLIP FLAP
Artist:TO-MAS feat. Chima
ArtistUnicode:TO-MAS feat. Chima
Creator:Kotori-Chan
Version:Normal
Source:フリップフラッパーズ
Tags:Flip Flappers 伊藤真澄 Itou Masumi Anime ED ending tv size
BeatmapID:1315265
BeatmapSetID:614773

[Difficulty]
HPDrainRate:3
CircleSize:3.5
OverallDifficulty:3
ApproachRate:4
SliderMultiplier:1.1
SliderTickRate:1

[Events]
//Background and Video events
0,0,"cute bg.png",0,0
Video,-1200,"video.flv"
//Break Periods
//Storyboard Layer 0 (Background)
//Storyboard Layer 1 (Fail)
//Storyboard Layer 2 (Pass)
//Storyboard Layer 3 (Foreground)
//Storyboard Sound Samples

[TimingPoints]
300,512.820512820513,4,2,1,70,1,0
33120,-100,4,2,2,70,0,0
45428,-100,4,2,1,70,0,0
45556,-100,4,2,5,70,0,0
46453,-100,4,2,1,70,0,0
46966,-100,4,2,5,70,0,0
47479,-100,4,2,1,70,0,0
49530,-100,4,2,5,80,0,1
63889,-100,4,2,1,70,0,0
65941,-100,4,2,5,80,0,1
77992,-100,4,2,5,80,0,0
80300,-100,4,2,5,80,0,1
84402,-100,4,2,1,80,0,1
85428,-100,4,2,1,80,0,0

[Colours]
Combo1 : 151,245,95
Combo2 : 0,64,128
Combo3 : 254,109,48
Combo4 : 215,215,0

[HitObjects]
81,108,300,6,0,P|68:161|81:214,1,110,2|0,0:0|0:0,0:0:0:0:
177,266,1325,2,0,P|190:213|177:160,1,110,2|0,0:0|0:0,0:0:0:0:
204,53,2351,2,0,B|236:53|256:38|256:38|276:53|308:53,1,110,2|0,0:0|0:0,0:0:0:0:
351,86,3120,1,2,0:0:0:0:
360,140,3376,2,0,B|328:140|308:155|308:155|288:140|256:140,1,110,2|0,0:0|0:0,0:0:0:0:
168,204,4402,6,0,B|134:169|134:169|134:163|134:163|129:169|129:169|129:163|129:163|93:129,2,110,2|0|2,0:0|0:0|0:0,0:0:0:0:
256,272,5941,1,0,0:0:0:0:
352,325,6453,2,0,B|370:273|370:273|352:221,1,110,2|0,0:0|0:0,0:0:0:0:
329,170,7223,1,2,0:0:0:0:
351,119,7479,1,2,0:0:0:0:
256,60,7992,6,0,L|208:104,1,55,2|0,0:0|0:0,0:0:0:0:
164,112,8505,1,2,0:0:0:0:
76,176,9017,2,0,L|76:292,1,110,2|0,0:0|0:0,0:0:0:0:
168,224,10043,1,2,0:0:0:0:
212,324,10556,2,0,P|256:352|300:324,1,110,2|0,0:0|0:0,0:0:0:0:
344,224,11582,2,0,L|352:156,1,55,2|0,0:0|0:0,0:0:0:0:
392,132,12094,1,2,0:0:0:0:
304,65,12607,6,0,B|256:38|256:38|208:65,1,110,8|8,0:0|0:0,0:0:0:0:
208,175,13633,2,0,B|256:202|256:202|304:175,1,110,8|8,0:0|0:0,0:0:0:0:
408,140,14658,2,0,B|430:101|430:101|435:100|435:100|428:96|428:96|434:94|434:94|459:49,2,110,8|8|8,0:0|0:0|0:0,0:0:0:0:
392,249,16197,1,4,0:0:0:0:
296,195,16710,6,0,B|280:171|256:158|256:158|232:171|216:195,1,110,2|2,0:0|0:0,0:0:0:0:
120,249,17735,1,2,0:0:0:0:
47,166,18248,1,2,0:0:0:0:
66,57,18761,2,0,B|98:57|118:72|118:72|138:57|170:57,1,110,2|0,0:0|0:0,0:0:0:0:
207,97,19530,1,2,0:0:0:0:
256,73,19787,2,0,B|288:73|308:88|308:88|328:73|360:73,1,110,2|0,0:0|0:0,0:0:0:0:
458,120,20812,6,0,P|480:71|457:23,2,110,2|0|2,0:0|0:0|0:0,0:0:0:0:
401,214,22351,2,0,P|378:262|401:310,1,110,2|0,0:0|0:0,0:0:0:0:
354,338,23120,1,2,0:0:0:0:
304,314,23376,2,0,P|255:291|207:314,1,110,2|0,0:0|0:0,0:0:0:0:
100,287,24402,1,2,0:0:0:0:
43,192,24915,6,0,B|96:177|96:177|110:124,1,110,2|0,0:0|0:0,0:0:0:0:
148,84,25684,1,2,0:0:0:0:
189,47,25941,1,2,0:0:0:0:
256,133,26453,1,0,0:0:0:0:
323,47,26966,6,0,L|364:89,1,55,2|0,0:0|0:0,0:0:0:0:
404,120,27479,2,0,B|404:162|404:162|400:166|400:166|408:166|408:166|404:170|404:170|403:218,1,110,2|0,0:0|0:0,0:0:0:0:
381,326,28505,1,2,0:0:0:0:
326,316,28761,1,2,0:0:0:0:
299,267,29017,6,0,B|268:281|256:300|256:300|244:281|213:267,1,110,8|8,0:0|0:0,0:0:0:0:
213,156,30043,2,0,B|244:142|256:123|256:123|268:142|299:156,1,110,8|8,0:0|0:0,0:0:0:0:
388,220,31069,2,0,B|410:259|410:259|415:260|415:260|408:264|408:264|414:266|414:266|439:311,2,110,8|8|8,0:0|0:0|0:0,0:0:0:0:
408,111,32607,1,4,0:0:0:0:
304,74,33120,6,0,B|256:47|256:47|208:74,1,110,2|0,0:0|0:0,0:0:0:0:
104,111,34146,1,2,0:0:0:0:
170,198,34658,1,4,0:0:0:0:
120,296,35171,2,0,P|169:319|217:296,1,110,2|0,0:0|0:0,0:0:0:0:
250,253,35941,1,2,0:0:0:0:
304,258,36197,1,2,0:0:0:0:
399,311,36710,1,4,0:0:0:0:
433,206,37223,6,8,B|433:174|448:154|448:154|433:134|433:102,2,110,2|2|2,0:0|0:0|0:0,0:0:0:0:
399,311,38761,1,4,0:0:0:0:
308,248,39274,2,8,B|276:248|256:263|256:263|236:248|204:248,2,110,2|2|2,0:0|0:0|0:0,0:0:0:0:
348,148,40812,1,4,0:0:0:0:
256,84,41325,5,2,0:0:0:0:
164,148,41838,2,0,P|115:125|67:148,1,110,2|2,0:0|0:0,0:0:0:0:
75,257,42864,2,0,L|111:313,1,55,4|0,0:0|0:0,0:0:0:0:
159,309,43376,2,0,P|208:332|256:309,1,110,2|2,0:0|0:0,0:0:0:0:
300,278,44146,1,0,0:0:0:0:
353,290,44402,2,0,P|375:241|352:193,1,110,2|6,0:0|0:0,0:0:0:0:
344,83,45428,6,0,B|308:45|308:45|256:20|256:20|204:45|204:45|168:83,1,220,4|4,0:0|0:0,0:0:0:0:
90,161,46966,1,4,0:0:0:0:
124,264,47479,2,0,B|140:288|164:301|164:301|188:288|204:264,1,110,4|4,0:0|0:0,0:0:0:0:
216,156,48505,2,0,B|232:132|256:119|256:119|280:132|296:156,1,110,4|4,0:0|0:0,0:0:0:0:
356,248,49530,6,0,B|342:279|323:291|323:291|342:303|356:334,1,110,8|12,0:0|0:0,0:0:0:0:
456,288,50556,2,0,B|470:257|489:245|489:245|470:233|456:202,1,110,8|4,0:0|0:0,0:0:0:0:
392,112,51582,2,0,B|316:112|316:112|256:152|256:152|172:152,1,220,8|8,0:0|0:0,0:0:0:0:
136,124,52864,1,0,0:0:0:0:
84,108,53120,1,4,0:0:0:0:
48,212,53633,6,0,B|66:264|66:264|48:316,1,110,8|4,0:0|0:0,0:0:0:0:
148,364,54658,2,0,B|130:312|130:312|148:260,1,110,8|4,0:0|0:0,0:0:0:0:
180,156,55684,2,0,B|234:135|256:81|256:81|278:135|332:156,1,220,8|8,0:0|0:0,0:0:0:0:
364,200,56966,1,0,0:0:0:0:
380,252,57223,1,4,0:0:0:0:
304,325,57735,6,0,P|256:348|208:325,2,110,8|4|8,0:0|0:0|0:0,0:0:0:0:
353,300,59017,1,0,0:0:0:0:
393,262,59274,2,0,L|417:208,1,55,4|0,0:0|0:0,0:0:0:0:
443,164,59787,2,0,P|466:116|443:68,2,110,8|4|8,0:0|0:0|0:0,0:0:0:0:
387,166,61069,2,0,L|324:166,1,55,0|4,0:0|0:0,0:0:0:0:
256,244,61838,6,0,B|256:276|271:296|271:296|256:316|256:348,1,110,8|4,0:0|0:0,0:0:0:0:
176,268,62864,2,0,B|176:236|161:216|161:216|176:196|176:164,1,110,8|4,0:0|0:0,0:0:0:0:
216,60,63889,2,0,B|232:36|256:23|256:23|280:36|296:60,1,110,4|4,0:0|0:0,0:0:0:0:
336,164,64915,2,0,B|320:188|296:201|296:201|272:188|256:164,1,110,4|4,0:0|0:0,0:0:0:0:
152,128,65941,6,0,B|110:128|110:128|106:124|106:124|106:132|106:132|102:128|102:128|54:127,1,110,8|4,0:0|0:0,0:0:0:0:
24,232,66966,2,0,B|66:232|66:232|70:228|70:228|70:236|70:236|74:232|74:232|122:231,1,110,8|4,0:0|0:0,0:0:0:0:
196,312,67992,2,0,L|232:268,1,55,8|0,0:0|0:0,0:0:0:0:
281,269,68505,2,0,L|316:312,1,55,4|0,0:0|0:0,0:0:0:0:
368,332,69017,2,0,L|438:247,1,110,8|4,0:0|0:0,0:0:0:0:
353,176,70043,6,0,P|376:128|353:80,1,110,8|4,0:0|0:0,0:0:0:0:
256,133,71069,2,0,P|233:181|256:229,1,110,8|4,0:0|0:0,0:0:0:0:
304,327,72094,2,0,B|256:354|256:354|208:327,1,110,8|4,0:0|0:0,0:0:0:0:
208,215,73120,2,0,B|256:188|256:188|304:215,1,110,8|4,0:0|0:0,0:0:0:0:
384,290,74146,6,0,L|384:347,2,55,8|0|4,0:0|0:0|0:0,0:0:0:0:
459,210,75171,2,0,L|459:155,1,55,8|0,0:0|0:0,0:0:0:0:
406,138,75684,2,0,L|406:83,1,55,4|0,0:0|0:0,0:0:0:0:
357,57,76197,2,0,B|320:56|320:56|288:80|288:80|232:80,2,110,8|4|8,0:0|0:0|0:0,0:0:0:0:
412,56,77479,2,0,L|472:56,1,55,0|4,0:0|0:0,0:0:0:0:
459,165,78248,6,0,P|411:188|363:165,1,110,8|4,0:0|0:0,0:0:0:0:
321,128,79017,1,0,0:0:0:0:
304,75,79274,2,0,P|256:52|208:75,1,110,8|4,0:0|0:0,0:0:0:0:
194,184,80300,2,0,L|108:114,1,110,8|4,0:0|0:0,0:0:0:0:
3,148,81325,2,0,L|89:218,1,110,8|4,0:0|0:0,0:0:0:0:
117,323,82351,2,0,B|149:323|169:338|169:338|189:323|221:323,1,110,8|4,0:0|0:0,0:0:0:0:
204,214,83376,2,0,B|236:214|256:199|256:199|276:214|308:214,1,110,8|4,0:0|0:0,0:0:0:0:
380,296,84402,5,4,0:0:0:0:
420,192,84915,1,4,0:0:0:0:
380,88,85428,1,4,0:0:0:0:
