osu file format v14

[General]
AudioFilename: audio.mp3
AudioLeadIn: 0
PreviewTime: 49530
Countdown: 0
SampleSet: Soft
StackLeniency: 0.6
Mode: 0
LetterboxInBreaks: 0
WidescreenStoryboard: 1

[Editor]
Bookmarks: 4402,8505,10556,12607,16710,33120,34658,36710,38761,47992,48505,49017,49530,63889,64402,64915,65428,65941,77992,83633,84402,84915,85428
DistanceSpacing: 1
BeatDivisor: 2
GridSize: 4
TimelineZoom: 3.099999

[Metadata]
Title:FLIP FLAP FLIP FLAP
TitleUnicode:FLIP FLAP FLIP FLAP
Artist:TO-MAS feat. Chima
ArtistUnicode:TO-MAS feat. Chima
Creator:Kotori-Chan
Version:Easy
Source:フリップフラッパーズ
Tags:Flip Flappers 伊藤真澄 Itou Masumi Anime ED ending tv size
BeatmapID:1297929
BeatmapSetID:614773

[Difficulty]
HPDrainRate:1
CircleSize:2.5
OverallDifficulty:1
ApproachRate:2
SliderMultiplier:1
SliderTickRate:1

[Events]
//Background and Video events
0,0,"cute bg.png",0,0
Video,-1200,"video.flv"
//Break Periods
//Storyboard Layer 0 (Background)
//Storyboard Layer 1 (Fail)
//Storyboard Layer 2 (Pass)
//Storyboard Layer 3 (Foreground)
//Storyboard Sound Samples

[TimingPoints]
300,512.820512820513,4,2,1,70,1,0
33120,-100,4,2,2,70,0,0
47479,-100,4,2,1,70,0,0
49530,-100,4,2,5,80,0,1
63889,-100,4,2,1,70,0,0
65941,-100,4,2,5,80,0,1
77223,-100,4,2,5,5,0,1
77479,-100,4,2,1,80,0,1
77992,-100,4,2,5,80,0,0
80300,-100,4,2,1,80,0,1
80556,-100,4,2,5,80,0,1
84402,-100,4,2,1,80,0,1
85428,-100,4,2,1,80,0,0

[Colours]
Combo1 : 151,245,95
Combo2 : 0,64,128
Combo3 : 254,109,48
Combo4 : 215,215,0

[HitObjects]
211,72,300,6,0,B|239:67|256:52|256:52|273:67|301:72,2,100,2|2|2,0:0|0:0|0:0,0:0:0:0:
256,168,1838,1,2,0:0:0:0:
171,221,2351,2,0,P|256:267|340:222,1,200,2|2,0:0|0:0,0:0:0:0:
430,179,3889,1,2,0:0:0:0:
344,126,4402,6,0,P|331:77|343:29,1,100,2|0,0:0|0:0,0:0:0:0:
428,83,5428,2,0,P|441:132|429:180,1,100,2|0,0:0|0:0,0:0:0:0:
336,215,6453,2,0,B|284:223|256:269|256:269|228:223|176:215,1,200,2|2,0:0|0:0,0:0:0:0:
83,176,7992,1,2,0:0:0:0:
167,122,8505,6,0,B|137:82|137:82|167:42,2,100,2|2|2,0:0|0:0|0:0,0:0:0:0:
255,168,10043,1,2,0:0:0:0:
324,239,10556,2,0,B|354:279|354:279|324:319,2,100,2|2|2,0:0|0:0|0:0,0:0:0:0:
255,168,12094,1,2,0:0:0:0:
155,171,12607,6,0,P|169:122|205:88,1,100,2|0,0:0|0:0,0:0:0:0:
307,88,13633,2,0,P|342:123|357:171,1,100,2|0,0:0|0:0,0:0:0:0:
364,272,14658,2,0,B|392:300|392:300|395:308|395:308|400:303|400:303|403:311|403:311|427:335,2,100,8|8|8,0:0|0:0|0:0,0:0:0:0:
172,213,16710,6,0,P|185:262|173:310,1,100,2|0,0:0|0:0,0:0:0:0:
88,256,17735,2,0,P|75:207|87:159,1,100,2|0,0:0|0:0,0:0:0:0:
164,97,18761,2,0,B|256:58|256:58|348:97,1,200,2|2,0:0|0:0,0:0:0:0:
426,160,20300,1,2,0:0:0:0:
382,249,20812,6,0,B|410:254|427:269|427:269|444:254|472:249,2,100,2|2|2,0:0|0:0|0:0,0:0:0:0:
313,176,22351,1,2,0:0:0:0:
258,259,22864,2,0,B|181:259|181:259|134:299|134:299|66:299,1,200,2|2,0:0|0:0,0:0:0:0:
48,201,24402,1,0,0:0:0:0:
82,108,24915,6,0,P|169:66|256:108,1,200,2|2,0:0|0:0,0:0:0:0:
256,208,26453,1,0,0:0:0:0:
256,308,26966,2,0,P|343:350|430:308,1,200,2|2,0:0|0:0,0:0:0:0:
446,208,28505,1,0,0:0:0:0:
430,109,29017,6,0,B|382:95|382:95|334:109,1,100,2|0,0:0|0:0,0:0:0:0:
304,204,30043,2,0,B|256:218|256:218|208:204,1,100,2|0,0:0|0:0,0:0:0:0:
178,109,31069,2,0,B|130:95|130:95|82:109,2,100,8|8|8,0:0|0:0|0:0,0:0:0:0:
180,308,33120,6,0,P|271:276|303:184,1,200,2|2,0:0|0:0,0:0:0:0:
256,96,34658,1,4,0:0:0:0:
195,176,35171,2,0,P|226:267|318:299,1,200,2|2,0:0|0:0,0:0:0:0:
395,235,36710,1,4,0:0:0:0:
351,144,37223,6,0,P|393:121|435:144,2,100,2|2|2,0:0|0:0|0:0,0:0:0:0:
256,176,38761,1,4,0:0:0:0:
173,232,39274,2,0,P|131:255|89:232,2,100,2|2|2,0:0|0:0|0:0,0:0:0:0:
256,176,40812,1,4,0:0:0:0:
296,267,41325,6,0,B|348:275|376:321|376:321|404:275|456:267,1,200,2|2,0:0|0:0,0:0:0:0:
457,166,42864,1,4,0:0:0:0:
420,73,43376,2,0,L|349:143,1,100,2|0,0:0|0:0,0:0:0:0:
298,230,44402,2,0,P|256:253|214:230,1,100,2|4,0:0|0:0,0:0:0:0:
162,143,45428,6,0,L|92:73,1,100,2|4,0:0|0:0,0:0:0:0:
40,158,46453,2,0,L|110:228,1,100,2|4,0:0|0:0,0:0:0:0:
136,325,47479,2,0,B|179:300|179:300|203:257,1,100,4|4,0:0|0:0,0:0:0:0:
308,257,48505,2,0,B|332:300|332:300|376:325,1,100,4|4,0:0|0:0,0:0:0:0:
453,261,49530,6,0,P|464:212|451:165,1,100,8|4,0:0|0:0,0:0:0:0:
366,111,50556,2,0,P|353:158|364:206,1,100,8|4,0:0|0:0,0:0:0:0:
336,303,51582,2,0,B|284:311|256:357|256:357|228:311|176:303,1,200,8|8,0:0|0:0,0:0:0:0:
94,244,53120,1,4,0:0:0:0:
52,153,53633,6,0,B|47:125|32:108|32:108|47:91|52:63,1,100,8|4,0:0|0:0,0:0:0:0:
152,63,54658,2,0,B|157:91|172:108|172:108|157:125|152:153,1,100,8|4,0:0|0:0,0:0:0:0:
195,242,55684,2,0,B|216:288|256:320|256:320|296:288|317:242,1,200,8|8,0:0|0:0,0:0:0:0:
399,184,57223,1,4,0:0:0:0:
348,97,57735,6,0,B|256:58|256:58|164:97,1,200,8|8,0:0|0:0,0:0:0:0:
113,184,59274,1,4,0:0:0:0:
44,256,59787,2,0,P|143:279|212:210,1,200,8|8,0:0|0:0,0:0:0:0:
256,128,61325,1,4,0:0:0:0:
318,206,61838,6,0,B|318:242|318:242|322:250|322:250|314:250|314:250|318:258|318:258|318:298,1,100,8|4,0:0|0:0,0:0:0:0:
418,296,62864,2,0,B|418:260|418:260|422:252|422:252|414:252|414:252|418:244|418:244|418:204,1,100,8|4,0:0|0:0,0:0:0:0:
372,117,63889,2,8,B|328:92|328:92|304:49,1,100,4|4,0:0|0:0,0:0:0:0:
207,49,64915,2,8,B|183:92|183:92|140:117,1,100,4|4,0:0|0:0,0:0:0:0:
48,184,65941,6,0,P|35:231|46:279,1,100,8|4,0:0|0:0,0:0:0:0:
133,328,66966,2,0,P|146:281|135:233,1,100,8|4,0:0|0:0,0:0:0:0:
204,160,67992,2,0,B|232:140|256:76|256:76|280:140|308:160,1,200,8|8,0:0|0:0,0:0:0:0:
399,120,69530,1,4,0:0:0:0:
379,220,70043,6,0,B|355:263|355:263|311:288,1,100,8|4,0:0|0:0,0:0:0:0:
201,288,71069,2,0,B|157:263|157:263|133:220,1,100,8|4,0:0|0:0,0:0:0:0:
188,136,72094,2,0,B|213:95|213:95|256:66|256:66|299:95|299:95|324:136,1,200,8|8,0:0|0:0,0:0:0:0:
408,192,73633,1,4,0:0:0:0:
454,280,74146,6,8,B|426:285|409:300|409:300|392:285|364:280,1,100,8|12,0:0|0:0,0:0:0:0:
281,223,75171,2,0,B|244:256|244:256|223:302,1,100,8|4,0:0|0:0,0:0:0:0:
124,321,76197,2,0,B|56:264|56:264|91:209|91:209|91:108,1,250,8|4,0:0|0:0,0:0:0:0:
256,52,78248,6,0,B|291:52|291:52|299:56|299:56|300:48|300:48|307:52|307:52|347:52,1,100,8|4,0:0|0:0,0:0:0:0:
440,86,79274,2,0,B|416:129|416:129|372:154,1,100,8|4,0:0|0:0,0:0:0:0:
317,238,80300,2,0,B|296:284|256:316|256:316|216:284|195:238,1,200,4|8,0:0|0:0,0:0:0:0:
115,176,81838,1,4,0:0:0:0:
28,126,82351,6,0,B|82:88|82:88|150:88|150:88|204:126,1,200,8|8,0:0|0:0,0:0:0:0:
256,211,83889,2,0,B|303:224|303:224|352:211,1,100,4|4,0:0|0:0,0:0:0:0:
437,158,84915,1,4,0:0:0:0:
392,68,85428,1,4,0:0:0:0:
