osu file format v14

[General]
AudioFilename: audio.mp3
AudioLeadIn: 0
PreviewTime: 68692
Countdown: 0
SampleSet: Normal
StackLeniency: 0.7
Mode: 1
LetterboxInBreaks: 0
WidescreenStoryboard: 0

[Editor]
Bookmarks: 242025
DistanceSpacing: 1.17
BeatDivisor: 4
GridSize: 4
TimelineZoom: 1.9

[Metadata]
Title:FLIP FLAP FLIP FLAP
TitleUnicode:FLIP FLAP FLIP FLAP
Artist:TO-MAS feat. Chima
ArtistUnicode:TO-MAS feat. Chima
Creator:Hikari-
Version:Pure Illusion
Source:フリップフラッパーズ
Tags:
BeatmapID:1262712
BeatmapSetID:597262

[Difficulty]
HPDrainRate:5
CircleSize:5
OverallDifficulty:6
ApproachRate:5
SliderMultiplier:1.4
SliderTickRate:1

[Events]
//Background and Video events
0,0,"bg.jpg",0,0
//Break Periods
//Storyboard Layer 0 (Background)
//Storyboard Layer 1 (Fail)
//Storyboard Layer 2 (Pass)
//Storyboard Layer 3 (Foreground)
//Storyboard Sound Samples

[TimingPoints]
1000,512.820512820513,4,1,1,100,1,0
68692,-100,4,1,1,100,0,1
105615,-100,4,1,1,100,0,0
190743,-100,4,1,1,100,0,1
226641,-100,4,1,1,100,0,0
244076,-100,4,1,1,100,0,1
297410,-100,4,1,1,100,0,0

[HitObjects]
112,132,1000,5,0,0:0:0:0:
112,132,2025,1,0,0:0:0:0:
120,128,3051,1,0,0:0:0:0:
124,120,4076,1,0,0:0:0:0:
124,120,4589,1,2,0:0:0:0:
124,120,4846,1,0,0:0:0:0:
124,120,4974,1,0,0:0:0:0:
124,120,5102,1,0,0:0:0:0:
144,124,5615,1,2,0:0:0:0:
144,120,6641,1,2,0:0:0:0:
152,144,7666,1,2,0:0:0:0:
156,152,8179,1,0,0:0:0:0:
160,156,8435,1,0,0:0:0:0:
160,152,8692,1,2,0:0:0:0:
164,148,9205,1,4,0:0:0:0:
164,152,9717,1,2,0:0:0:0:
164,148,10230,1,0,0:0:0:0:
164,152,10487,1,0,0:0:0:0:
156,152,10743,1,2,0:0:0:0:
168,144,11256,1,0,0:0:0:0:
168,144,11769,1,2,0:0:0:0:
176,152,12282,1,0,0:0:0:0:
176,152,12538,1,0,0:0:0:0:
176,152,12794,1,2,0:0:0:0:
144,144,13307,1,0,0:0:0:0:
144,144,13820,1,2,0:0:0:0:
176,132,14333,1,0,0:0:0:0:
176,132,14589,1,0,0:0:0:0:
176,132,14846,1,2,0:0:0:0:
152,148,15358,1,0,0:0:0:0:
152,148,15615,1,0,0:0:0:0:
152,148,15871,1,2,0:0:0:0:
152,148,16128,1,0,0:0:0:0:
152,148,16256,1,0,0:0:0:0:
152,148,16384,1,0,0:0:0:0:
152,148,16641,1,0,0:0:0:0:
152,148,16897,1,2,0:0:0:0:
152,148,17153,1,0,0:0:0:0:
152,148,17410,1,2,0:0:0:0:
136,184,19461,1,4,0:0:0:0:
136,184,19974,1,2,0:0:0:0:
136,184,20230,1,2,0:0:0:0:
136,184,20487,1,0,0:0:0:0:
136,184,21000,1,2,0:0:0:0:
136,184,21256,1,0,0:0:0:0:
136,184,21512,1,2,0:0:0:0:
136,184,21769,1,2,0:0:0:0:
136,184,21897,1,2,0:0:0:0:
136,184,22025,1,2,0:0:0:0:
136,184,22282,1,0,0:0:0:0:
136,184,22538,1,2,0:0:0:0:
160,128,23051,1,2,0:0:0:0:
160,128,23136,1,2,0:0:0:0:
160,128,23222,1,2,0:0:0:0:
160,128,23307,1,2,0:0:0:0:
160,128,23564,1,0,0:0:0:0:
160,128,24076,1,0,0:0:0:0:
160,128,24333,1,0,0:0:0:0:
160,128,24589,1,2,0:0:0:0:
160,120,25102,1,0,0:0:0:0:
160,120,25358,1,2,0:0:0:0:
160,120,25615,1,0,0:0:0:0:
160,120,25871,1,0,0:0:0:0:
160,120,26000,1,0,0:0:0:0:
160,120,26128,1,0,0:0:0:0:
160,120,26384,1,2,0:0:0:0:
160,120,26641,1,0,0:0:0:0:
160,120,27153,1,0,0:0:0:0:
160,120,27410,1,2,0:0:0:0:
160,120,27666,1,0,0:0:0:0:
160,120,28179,1,0,0:0:0:0:
160,120,28307,1,0,0:0:0:0:
160,120,28435,1,0,0:0:0:0:
160,120,28692,1,0,0:0:0:0:
160,120,29205,1,2,0:0:0:0:
164,116,29290,1,2,0:0:0:0:
164,116,29376,1,2,0:0:0:0:
164,116,29461,1,2,0:0:0:0:
160,120,29717,1,0,0:0:0:0:
160,120,30230,1,2,0:0:0:0:
164,116,30487,1,0,0:0:0:0:
160,120,30743,1,2,0:0:0:0:
160,120,31256,1,2,0:0:0:0:
156,120,31341,1,2,0:0:0:0:
156,120,31427,1,2,0:0:0:0:
156,120,31512,1,2,0:0:0:0:
160,120,31769,1,0,0:0:0:0:
160,120,32282,1,0,0:0:0:0:
160,124,32794,1,2,0:0:0:0:
160,128,33307,1,0,0:0:0:0:
160,124,33820,1,0,0:0:0:0:
164,124,34076,1,0,0:0:0:0:
164,120,34333,1,2,0:0:0:0:
164,120,34589,1,0,0:0:0:0:
164,120,34717,1,0,0:0:0:0:
164,120,34846,1,0,0:0:0:0:
164,120,35358,1,6,0:0:0:0:
164,120,35871,1,0,0:0:0:0:
164,120,36128,1,0,0:0:0:0:
164,120,36384,1,2,0:0:0:0:
164,120,36641,1,0,0:0:0:0:
164,120,36769,1,0,0:0:0:0:
164,120,36897,1,0,0:0:0:0:
164,120,37410,1,2,0:0:0:0:
164,120,37538,1,2,0:0:0:0:
164,120,37666,1,0,0:0:0:0:
164,120,37923,1,2,0:0:0:0:
164,120,38179,1,0,0:0:0:0:
164,120,38307,1,0,0:0:0:0:
164,120,38435,1,2,0:0:0:0:
164,120,38692,1,2,0:0:0:0:
164,120,38948,1,0,0:0:0:0:
164,120,39461,1,2,0:0:0:0:
164,120,39547,1,2,0:0:0:0:
164,120,39632,1,2,0:0:0:0:
164,120,39717,1,2,0:0:0:0:
164,120,39974,1,0,0:0:0:0:
164,120,40230,1,2,0:0:0:0:
164,120,40487,1,2,0:0:0:0:
164,120,40743,1,2,0:0:0:0:
164,120,40871,1,2,0:0:0:0:
164,120,41000,1,2,0:0:0:0:
164,120,41513,1,0,0:0:0:0:
164,120,41641,1,0,0:0:0:0:
164,120,41769,1,2,0:0:0:0:
164,120,42026,1,0,0:0:0:0:
164,120,42282,1,2,0:0:0:0:
164,120,42410,1,2,0:0:0:0:
164,120,42538,1,0,0:0:0:0:
164,120,42795,1,0,0:0:0:0:
164,120,43051,1,2,0:0:0:0:
164,120,43564,1,2,0:0:0:0:
164,120,43820,1,0,0:0:0:0:
164,120,44076,1,2,0:0:0:0:
164,120,44333,1,2,0:0:0:0:
164,120,44589,1,0,0:0:0:0:
164,120,44846,1,0,0:0:0:0:
164,120,44974,1,0,0:0:0:0:
164,120,45102,1,2,0:0:0:0:
164,120,45615,1,2,0:0:0:0:
164,120,45871,1,0,0:0:0:0:
164,120,46128,1,2,0:0:0:0:
164,120,46384,1,2,0:0:0:0:
164,120,46641,1,0,0:0:0:0:
164,120,46897,1,2,0:0:0:0:
164,120,47025,1,2,0:0:0:0:
164,120,47153,1,0,0:0:0:0:
164,120,47666,1,2,0:0:0:0:
164,120,47923,1,2,0:0:0:0:
164,120,48179,1,0,0:0:0:0:
164,120,48435,1,0,0:0:0:0:
164,120,48564,1,2,0:0:0:0:
164,120,48692,1,0,0:0:0:0:
164,120,48948,1,0,0:0:0:0:
164,120,49205,1,2,0:0:0:0:
164,120,49461,1,0,0:0:0:0:
164,120,49589,1,2,0:0:0:0:
164,120,49717,1,0,0:0:0:0:
164,120,49974,1,0,0:0:0:0:
164,120,50230,1,2,0:0:0:0:
164,120,50743,1,0,0:0:0:0:
164,120,51256,1,2,0:0:0:0:
164,120,51769,1,2,0:0:0:0:
164,120,51897,1,2,0:0:0:0:
164,120,52025,1,2,0:0:0:0:
164,120,52153,1,2,0:0:0:0:
164,120,52282,1,0,0:0:0:0:
164,120,52538,1,0,0:0:0:0:
164,120,52666,1,0,0:0:0:0:
164,120,52794,1,0,0:0:0:0:
164,120,53051,1,0,0:0:0:0:
164,120,53307,1,2,0:0:0:0:
164,120,53564,1,0,0:0:0:0:
164,120,53692,1,0,0:0:0:0:
164,120,53820,1,0,0:0:0:0:
164,120,54076,1,0,0:0:0:0:
164,120,54333,1,2,0:0:0:0:
164,120,54589,1,0,0:0:0:0:
164,120,54717,1,0,0:0:0:0:
164,120,54846,1,2,0:0:0:0:
164,120,54974,1,2,0:0:0:0:
164,120,55102,1,0,0:0:0:0:
164,120,55358,1,2,0:0:0:0:
172,124,55871,1,0,0:0:0:0:
188,112,56128,1,0,0:0:0:0:
192,116,56384,1,2,0:0:0:0:
192,116,56641,1,0,0:0:0:0:
192,116,56769,1,0,0:0:0:0:
192,116,56897,1,2,0:0:0:0:
192,120,57153,1,0,0:0:0:0:
192,116,57410,1,0,0:0:0:0:
192,116,57538,1,0,0:0:0:0:
192,116,57666,1,0,0:0:0:0:
192,116,57794,1,0,0:0:0:0:
192,116,57923,1,2,0:0:0:0:
192,116,58435,1,2,0:0:0:0:
192,116,58692,1,2,0:0:0:0:
192,116,58820,1,2,0:0:0:0:
192,120,58948,1,0,0:0:0:0:
192,116,59205,1,2,0:0:0:0:
192,116,59461,1,2,0:0:0:0:
192,116,59589,1,2,0:0:0:0:
192,116,59717,1,2,0:0:0:0:
192,116,59846,1,2,0:0:0:0:
192,116,59974,1,0,0:0:0:0:
192,120,60230,1,2,0:0:0:0:
192,116,60487,1,0,0:0:0:0:
192,116,60743,1,2,0:0:0:0:
192,116,60871,1,2,0:0:0:0:
192,116,61000,1,2,0:0:0:0:
192,120,61256,1,2,0:0:0:0:
192,116,61512,1,0,0:0:0:0:
192,116,61769,1,2,0:0:0:0:
192,116,61897,1,2,0:0:0:0:
192,116,62025,1,2,0:0:0:0:
196,116,62282,1,2,0:0:0:0:
196,116,62538,1,0,0:0:0:0:
200,120,62794,1,2,0:0:0:0:
200,120,62923,1,2,0:0:0:0:
200,116,63051,1,0,0:0:0:0:
196,116,63179,1,0,0:0:0:0:
200,116,63307,1,2,0:0:0:0:
196,116,63564,1,2,0:0:0:0:
196,116,63692,1,2,0:0:0:0:
196,116,63820,1,0,0:0:0:0:
192,116,63948,1,2,0:0:0:0:
192,116,64076,1,2,0:0:0:0:
192,116,64333,1,2,0:0:0:0:
196,116,64589,1,4,0:0:0:0:
200,112,65102,1,2,0:0:0:0:
200,112,65358,1,2,0:0:0:0:
204,112,65615,1,0,0:0:0:0:
212,112,65871,1,2,0:0:0:0:
212,112,66000,1,2,0:0:0:0:
216,112,66128,1,0,0:0:0:0:
216,112,66384,1,2,0:0:0:0:
216,112,66641,1,4,0:0:0:0:
216,112,67153,1,4,0:0:0:0:
216,112,67666,1,6,0:0:0:0:
216,120,68179,1,2,0:0:0:0:
224,128,68307,1,2,0:0:0:0:
224,128,68435,1,2,0:0:0:0:
224,128,68564,1,2,0:0:0:0:
220,128,68692,1,2,0:0:0:0:
208,128,68948,1,0,0:0:0:0:
224,128,69205,1,2,0:0:0:0:
220,120,69461,1,0,0:0:0:0:
220,120,69589,1,0,0:0:0:0:
224,132,69717,1,2,0:0:0:0:
248,132,69974,1,0,0:0:0:0:
248,132,70230,1,2,0:0:0:0:
208,144,70487,1,0,0:0:0:0:
220,136,70615,1,0,0:0:0:0:
204,140,70743,1,0,0:0:0:0:
184,132,71000,1,2,0:0:0:0:
184,140,71256,1,0,0:0:0:0:
184,140,71512,1,2,0:0:0:0:
184,140,71769,1,2,0:0:0:0:
184,140,72025,1,0,0:0:0:0:
184,140,72282,1,2,0:0:0:0:
312,192,72538,1,0,0:0:0:0:
220,156,72666,1,0,0:0:0:0:
312,192,72794,1,2,0:0:0:0:
220,156,73051,1,0,0:0:0:0:
220,156,73307,1,2,0:0:0:0:
220,156,73564,1,2,0:0:0:0:
220,156,73692,1,2,0:0:0:0:
220,156,73820,1,0,0:0:0:0:
220,156,74076,1,0,0:0:0:0:
220,156,74333,1,2,0:0:0:0:
220,156,74589,1,2,0:0:0:0:
220,156,74717,1,2,0:0:0:0:
224,152,74846,1,2,0:0:0:0:
216,148,75102,1,2,0:0:0:0:
228,148,75358,1,0,0:0:0:0:
224,152,75615,1,0,0:0:0:0:
228,160,75871,1,2,0:0:0:0:
228,160,76128,1,0,0:0:0:0:
228,160,76384,1,2,0:0:0:0:
224,160,76641,1,0,0:0:0:0:
228,160,76769,1,0,0:0:0:0:
236,168,76897,1,0,0:0:0:0:
212,160,77153,1,0,0:0:0:0:
204,176,77410,1,2,0:0:0:0:
216,136,77666,1,0,0:0:0:0:
176,168,77923,1,2,0:0:0:0:
196,168,78179,1,2,0:0:0:0:
196,168,78435,1,0,0:0:0:0:
196,168,78692,1,2,0:0:0:0:
220,152,78948,1,4,0:0:0:0:
212,160,79205,1,2,0:0:0:0:
204,176,79462,1,0,0:0:0:0:
216,136,79718,1,0,0:0:0:0:
176,168,79975,1,2,0:0:0:0:
196,168,80231,1,0,0:0:0:0:
196,168,80487,1,2,0:0:0:0:
196,168,80744,1,0,0:0:0:0:
196,168,81000,1,6,0:0:0:0:
180,168,81512,1,2,0:0:0:0:
220,168,81769,1,0,0:0:0:0:
184,136,82025,1,6,0:0:0:0:
184,148,82538,1,2,0:0:0:0:
184,148,82666,1,2,0:0:0:0:
184,148,82794,1,0,0:0:0:0:
184,148,83051,1,6,0:0:0:0:
184,152,83564,1,4,0:0:0:0:
184,152,84076,1,2,0:0:0:0:
184,152,84205,1,2,0:0:0:0:
184,152,84333,1,2,0:0:0:0:
184,152,84461,1,2,0:0:0:0:
184,152,84589,1,0,0:0:0:0:
184,152,84717,1,0,0:0:0:0:
184,152,84846,1,0,0:0:0:0:
184,152,84974,1,0,0:0:0:0:
184,152,85102,1,2,0:0:0:0:
184,152,85358,1,0,0:0:0:0:
192,152,85487,1,0,0:0:0:0:
192,152,85615,1,2,0:0:0:0:
188,152,85871,1,2,0:0:0:0:
192,148,86000,1,2,0:0:0:0:
184,152,86128,1,0,0:0:0:0:
188,152,86384,1,0,0:0:0:0:
192,152,86512,1,0,0:0:0:0:
192,152,86641,1,2,0:0:0:0:
188,152,86897,1,0,0:0:0:0:
192,148,87025,1,0,0:0:0:0:
192,152,87153,1,0,0:0:0:0:
196,148,87410,1,0,0:0:0:0:
192,152,87666,1,2,0:0:0:0:
196,152,87923,1,2,0:0:0:0:
196,152,88179,1,0,0:0:0:0:
192,152,88435,1,2,0:0:0:0:
196,148,88564,1,2,0:0:0:0:
192,152,88692,1,0,0:0:0:0:
196,148,88820,1,0,0:0:0:0:
204,144,88948,1,2,0:0:0:0:
200,144,89205,1,2,0:0:0:0:
204,140,89461,1,2,0:0:0:0:
200,140,89589,1,2,0:0:0:0:
200,140,89717,1,0,0:0:0:0:
204,144,89974,1,0,0:0:0:0:
204,136,90102,1,0,0:0:0:0:
204,136,90230,1,2,0:0:0:0:
204,140,90487,1,2,0:0:0:0:
200,132,90615,1,2,0:0:0:0:
204,132,90743,1,0,0:0:0:0:
196,132,91000,1,2,0:0:0:0:
196,132,91128,1,2,0:0:0:0:
200,132,91256,1,2,0:0:0:0:
196,148,91512,1,0,0:0:0:0:
192,152,91769,1,2,0:0:0:0:
196,152,92025,1,2,0:0:0:0:
196,152,92282,1,0,0:0:0:0:
192,152,92537,1,0,0:0:0:0:
196,148,92666,1,0,0:0:0:0:
192,152,92794,1,2,0:0:0:0:
196,148,92922,1,2,0:0:0:0:
204,144,93050,1,0,0:0:0:0:
200,144,93307,1,2,0:0:0:0:
220,128,93564,1,2,0:0:0:0:
216,128,93692,1,2,0:0:0:0:
220,128,93820,1,0,0:0:0:0:
224,132,94333,1,2,0:0:0:0:
224,132,94589,1,2,0:0:0:0:
224,132,94846,1,0,0:0:0:0:
224,132,95102,1,0,0:0:0:0:
228,136,95358,1,2,0:0:0:0:
232,140,95615,1,0,0:0:0:0:
232,140,95743,1,0,0:0:0:0:
228,136,95871,1,2,0:0:0:0:
232,124,96128,1,2,0:0:0:0:
228,136,96384,1,0,0:0:0:0:
232,140,96512,1,2,0:0:0:0:
232,140,96641,1,0,0:0:0:0:
228,136,96769,1,0,0:0:0:0:
228,136,96897,1,2,0:0:0:0:
232,144,97153,1,0,0:0:0:0:
232,144,97282,1,0,0:0:0:0:
232,144,97410,1,2,0:0:0:0:
240,136,97666,1,0,0:0:0:0:
240,136,97923,1,2,0:0:0:0:
240,136,98179,1,2,0:0:0:0:
240,136,98307,1,2,0:0:0:0:
240,136,98435,1,0,0:0:0:0:
240,136,98692,1,0,0:0:0:0:
240,136,98948,1,2,0:0:0:0:
240,136,99205,1,2,0:0:0:0:
240,136,99333,1,2,0:0:0:0:
240,136,99461,1,2,0:0:0:0:
240,136,99717,1,0,0:0:0:0:
240,136,99974,1,2,0:0:0:0:
240,136,100230,1,2,0:0:0:0:
240,136,100487,1,0,0:0:0:0:
240,136,100743,1,0,0:0:0:0:
240,136,100871,1,0,0:0:0:0:
240,136,101000,1,2,0:0:0:0:
240,132,101256,1,2,0:0:0:0:
240,136,101512,1,0,0:0:0:0:
240,136,101769,1,2,0:0:0:0:
240,136,102025,1,2,0:0:0:0:
240,132,102282,1,2,0:0:0:0:
240,136,102538,1,0,0:0:0:0:
244,132,102794,1,2,0:0:0:0:
244,132,102923,1,0,0:0:0:0:
244,132,103051,1,2,0:0:0:0:
240,132,103179,1,2,0:0:0:0:
244,132,103307,1,0,0:0:0:0:
224,132,103564,1,0,0:0:0:0:
224,132,104076,1,2,0:0:0:0:
236,128,104589,1,6,0:0:0:0:
224,144,105615,1,4,0:0:0:0:
224,144,106128,1,2,0:0:0:0:
224,144,106641,1,0,0:0:0:0:
220,140,106897,1,0,0:0:0:0:
224,136,107025,1,0,0:0:0:0:
224,136,107153,1,2,0:0:0:0:
224,136,107410,1,0,0:0:0:0:
224,136,107538,1,0,0:0:0:0:
224,136,107666,1,0,0:0:0:0:
220,140,107923,1,0,0:0:0:0:
224,136,108051,1,0,0:0:0:0:
224,136,108179,1,2,0:0:0:0:
216,144,108435,1,0,0:0:0:0:
224,136,108692,1,2,0:0:0:0:
220,140,108820,1,2,0:0:0:0:
212,140,108948,1,0,0:0:0:0:
224,136,109077,1,2,0:0:0:0:
224,132,109205,1,2,0:0:0:0:
224,132,109461,1,0,0:0:0:0:
224,136,109717,1,2,0:0:0:0:
224,136,110230,1,2,0:0:0:0:
224,136,110743,1,0,0:0:0:0:
224,136,111000,1,0,0:0:0:0:
224,136,111128,1,0,0:0:0:0:
224,136,111256,1,2,0:0:0:0:
224,136,111512,1,0,0:0:0:0:
224,136,111641,1,2,0:0:0:0:
224,136,111769,1,2,0:0:0:0:
224,136,112025,1,2,0:0:0:0:
224,136,112153,1,2,0:0:0:0:
224,136,112282,1,2,0:0:0:0:
224,136,112538,1,2,0:0:0:0:
224,136,112794,1,0,0:0:0:0:
224,136,112923,1,0,0:0:0:0:
224,136,113051,1,2,0:0:0:0:
224,136,113179,1,2,0:0:0:0:
224,136,113307,1,0,0:0:0:0:
224,136,113564,1,2,0:0:0:0:
224,132,113820,1,0,0:0:0:0:
228,120,114333,1,2,0:0:0:0:
228,128,114846,1,0,0:0:0:0:
232,128,115102,1,0,0:0:0:0:
232,128,115230,1,0,0:0:0:0:
232,128,115358,1,2,0:0:0:0:
232,128,115615,1,2,0:0:0:0:
232,128,115743,1,0,0:0:0:0:
232,128,115871,1,2,0:0:0:0:
232,128,116128,1,2,0:0:0:0:
232,128,116256,1,0,0:0:0:0:
232,128,116384,1,2,0:0:0:0:
232,128,116512,1,2,0:0:0:0:
232,128,116641,1,0,0:0:0:0:
224,128,116897,1,2,0:0:0:0:
232,128,117153,1,0,0:0:0:0:
232,128,117282,1,2,0:0:0:0:
232,128,117410,1,2,0:0:0:0:
232,128,117538,1,2,0:0:0:0:
232,128,117666,1,0,0:0:0:0:
232,128,117923,1,2,0:0:0:0:
232,120,118435,1,2,0:0:0:0:
232,120,118948,1,0,0:0:0:0:
232,120,119205,1,0,0:0:0:0:
232,120,119333,1,0,0:0:0:0:
232,120,119461,1,2,0:0:0:0:
232,120,119717,1,2,0:0:0:0:
232,120,119846,1,2,0:0:0:0:
232,120,119974,1,2,0:0:0:0:
232,120,120230,1,0,0:0:0:0:
232,120,120358,1,0,0:0:0:0:
232,120,120487,1,2,0:0:0:0:
232,120,120615,1,2,0:0:0:0:
232,120,120743,1,2,0:0:0:0:
240,120,121000,1,0,0:0:0:0:
232,120,121256,1,2,0:0:0:0:
232,120,121384,1,2,0:0:0:0:
240,120,121512,1,0,0:0:0:0:
240,120,121641,1,2,0:0:0:0:
240,120,121768,1,2,0:0:0:0:
240,120,122025,1,2,0:0:0:0:
240,120,122196,1,0,0:0:0:0:
240,120,122367,1,0,0:0:0:0:
240,124,122538,1,2,0:0:0:0:
240,124,122709,1,0,0:0:0:0:
240,124,122880,1,0,0:0:0:0:
240,124,123051,1,2,0:0:0:0:
240,124,123222,1,0,0:0:0:0:
240,124,123393,1,0,0:0:0:0:
248,128,123564,1,2,0:0:0:0:
244,128,123735,1,0,0:0:0:0:
244,128,123905,1,0,0:0:0:0:
244,128,124076,1,2,0:0:0:0:
244,128,124247,1,2,0:0:0:0:
244,128,124418,1,0,0:0:0:0:
248,128,124589,1,2,0:0:0:0:
236,128,124760,1,2,0:0:0:0:
236,124,124931,1,0,0:0:0:0:
244,128,125102,1,2,0:0:0:0:
244,128,125273,1,2,0:0:0:0:
244,128,125444,1,0,0:0:0:0:
248,128,125615,1,2,0:0:0:0:
236,128,125786,1,2,0:0:0:0:
236,124,125957,1,0,0:0:0:0:
232,120,126128,1,2,0:0:0:0:
232,120,126384,1,0,0:0:0:0:
232,120,126641,1,2,0:0:0:0:
224,112,126897,1,0,0:0:0:0:
216,112,127153,1,2,0:0:0:0:
216,116,127410,1,0,0:0:0:0:
212,112,127666,1,2,0:0:0:0:
212,112,127923,1,0,0:0:0:0:
216,112,128051,1,0,0:0:0:0:
216,112,128179,1,2,0:0:0:0:
216,116,128435,1,2,0:0:0:0:
212,112,128692,1,2,0:0:0:0:
212,112,128948,1,2,0:0:0:0:
208,112,129076,1,2,0:0:0:0:
208,112,129205,1,0,0:0:0:0:
204,112,129333,1,0,0:0:0:0:
204,112,129461,1,2,0:0:0:0:
204,112,129589,1,2,0:0:0:0:
204,112,129717,1,0,0:0:0:0:
204,112,129846,1,0,0:0:0:0:
204,112,129974,1,2,0:0:0:0:
208,112,130102,1,0,0:0:0:0:
208,112,130230,1,2,0:0:0:0:
212,188,132282,1,0,0:0:0:0:
212,188,132794,1,2,0:0:0:0:
212,188,133820,1,2,0:0:0:0:
216,192,134076,1,0,0:0:0:0:
216,192,134333,1,2,0:0:0:0:
216,192,134846,1,0,0:0:0:0:
224,188,135871,1,0,0:0:0:0:
224,188,136128,1,2,0:0:0:0:
224,188,136384,1,0,0:0:0:0:
224,188,136897,1,2,0:0:0:0:
224,176,137153,1,2,0:0:0:0:
224,176,137239,1,2,0:0:0:0:
224,176,137324,1,2,0:0:0:0:
224,176,137410,1,2,0:0:0:0:
224,172,137923,1,2,0:0:0:0:
224,176,138179,1,0,0:0:0:0:
224,176,138435,1,2,0:0:0:0:
124,64,138692,2,2,L|464:232,1,350
136,184,140487,1,4,0:0:0:0:
136,184,141000,1,2,0:0:0:0:
136,184,141513,1,0,0:0:0:0:
136,184,142026,1,2,0:0:0:0:
136,184,142282,1,0,0:0:0:0:
136,184,142538,1,2,0:0:0:0:
136,184,142795,1,2,0:0:0:0:
136,184,142923,1,2,0:0:0:0:
136,184,143051,1,2,0:0:0:0:
136,184,143308,1,0,0:0:0:0:
136,184,143564,1,2,0:0:0:0:
160,128,144077,1,2,0:0:0:0:
160,128,144590,1,0,0:0:0:0:
160,128,145102,1,0,0:0:0:0:
160,128,145359,1,0,0:0:0:0:
160,128,145615,1,2,0:0:0:0:
160,120,146128,1,0,0:0:0:0:
160,120,146384,1,2,0:0:0:0:
160,120,146641,1,0,0:0:0:0:
160,120,146897,1,0,0:0:0:0:
160,120,147026,1,0,0:0:0:0:
160,120,147154,1,0,0:0:0:0:
160,120,147410,1,2,0:0:0:0:
160,120,147667,1,0,0:0:0:0:
160,120,148179,1,2,0:0:0:0:
160,120,148692,1,0,0:0:0:0:
160,120,149205,1,0,0:0:0:0:
160,120,149333,1,0,0:0:0:0:
160,120,149461,1,0,0:0:0:0:
160,120,149718,1,0,0:0:0:0:
160,120,150231,1,2,0:0:0:0:
160,120,150743,1,0,0:0:0:0:
160,120,151256,1,2,0:0:0:0:
160,120,151384,1,2,0:0:0:0:
164,116,151513,1,2,0:0:0:0:
160,120,151769,1,2,0:0:0:0:
160,120,152282,1,2,0:0:0:0:
156,120,152367,1,2,0:0:0:0:
156,120,152453,1,2,0:0:0:0:
156,120,152538,1,2,0:0:0:0:
160,120,152795,1,0,0:0:0:0:
160,120,153308,1,2,0:0:0:0:
160,124,153820,1,0,0:0:0:0:
160,128,154333,1,2,0:0:0:0:
160,124,154846,1,0,0:0:0:0:
164,120,155358,1,0,0:0:0:0:
164,120,155615,1,0,0:0:0:0:
164,120,155872,1,0,0:0:0:0:
164,120,156384,1,6,0:0:0:0:
164,120,156897,1,2,0:0:0:0:
164,120,157154,1,0,0:0:0:0:
164,120,157410,1,2,0:0:0:0:
164,120,157667,1,0,0:0:0:0:
164,120,157794,1,0,0:0:0:0:
164,120,157923,1,2,0:0:0:0:
164,120,158435,1,0,0:0:0:0:
164,120,158521,1,0,0:0:0:0:
164,120,158606,1,0,0:0:0:0:
164,120,158692,1,0,0:0:0:0:
164,120,158948,1,2,0:0:0:0:
164,120,159205,1,2,0:0:0:0:
164,120,159333,1,2,0:0:0:0:
164,120,159461,1,2,0:0:0:0:
164,120,159718,1,2,0:0:0:0:
164,120,159974,1,0,0:0:0:0:
164,120,160487,1,2,0:0:0:0:
164,120,160573,1,2,0:0:0:0:
164,120,160658,1,2,0:0:0:0:
164,120,160743,1,2,0:0:0:0:
164,120,161000,1,0,0:0:0:0:
164,120,161256,1,2,0:0:0:0:
164,120,161513,1,0,0:0:0:0:
164,120,161769,1,2,0:0:0:0:
164,120,161897,1,2,0:0:0:0:
164,120,162026,1,0,0:0:0:0:
164,120,162538,1,0,0:0:0:0:
164,120,162623,1,0,0:0:0:0:
164,120,162709,1,0,0:0:0:0:
164,120,162794,1,0,0:0:0:0:
164,120,163052,1,2,0:0:0:0:
164,120,163308,1,0,0:0:0:0:
164,120,163436,1,0,0:0:0:0:
164,120,163564,1,2,0:0:0:0:
164,120,163821,1,0,0:0:0:0:
164,120,164077,1,2,0:0:0:0:
164,120,164589,1,2,0:0:0:0:
164,120,164675,1,2,0:0:0:0:
164,120,164760,1,2,0:0:0:0:
164,120,164846,1,2,0:0:0:0:
164,120,165102,1,2,0:0:0:0:
164,120,165359,1,0,0:0:0:0:
164,120,165487,1,0,0:0:0:0:
164,120,165615,1,2,0:0:0:0:
164,120,165872,1,2,0:0:0:0:
164,120,166128,1,2,0:0:0:0:
164,120,166641,1,0,0:0:0:0:
164,120,166726,1,0,0:0:0:0:
164,120,166811,1,0,0:0:0:0:
164,120,166897,1,0,0:0:0:0:
164,120,167154,1,2,0:0:0:0:
164,120,167410,1,2,0:0:0:0:
164,120,167538,1,2,0:0:0:0:
164,120,167667,1,0,0:0:0:0:
164,120,167923,1,0,0:0:0:0:
164,120,168179,1,2,0:0:0:0:
340,216,168692,1,2,0:0:0:0:
340,216,168777,1,2,0:0:0:0:
340,216,168863,1,2,0:0:0:0:
340,216,168948,1,2,0:0:0:0:
260,184,169205,1,0,0:0:0:0:
260,176,169461,1,0,0:0:0:0:
260,176,169589,1,0,0:0:0:0:
260,176,169717,1,0,0:0:0:0:
280,208,169974,1,2,0:0:0:0:
280,208,170230,1,0,0:0:0:0:
280,208,170358,1,0,0:0:0:0:
280,208,170487,1,0,0:0:0:0:
280,208,170743,1,0,0:0:0:0:
280,208,170829,1,0,0:0:0:0:
280,208,170914,1,0,0:0:0:0:
280,208,171000,1,0,0:0:0:0:
260,128,171256,1,0,0:0:0:0:
260,128,171512,1,0,0:0:0:0:
260,128,171769,1,0,0:0:0:0:
260,128,171897,1,0,0:0:0:0:
260,128,172025,1,0,0:0:0:0:
260,128,172153,1,0,0:0:0:0:
260,128,172282,1,0,0:0:0:0:
164,120,172795,1,2,0:0:0:0:
164,120,172923,1,2,0:0:0:0:
164,120,173051,1,0,0:0:0:0:
164,120,173179,1,0,0:0:0:0:
164,120,173308,1,0,0:0:0:0:
164,120,173564,1,0,0:0:0:0:
164,120,173820,1,2,0:0:0:0:
164,120,174077,1,0,0:0:0:0:
164,120,174333,1,2,0:0:0:0:
164,120,174846,1,0,0:0:0:0:
164,120,175102,1,2,0:0:0:0:
164,120,175230,1,2,0:0:0:0:
164,120,175359,1,2,0:0:0:0:
164,120,175615,1,0,0:0:0:0:
164,120,175871,1,0,0:0:0:0:
168,124,176000,1,0,0:0:0:0:
164,120,176128,1,2,0:0:0:0:
168,124,176256,1,2,0:0:0:0:
164,120,176384,1,0,0:0:0:0:
172,124,176897,1,0,0:0:0:0:
188,112,177154,1,2,0:0:0:0:
192,116,177410,1,0,0:0:0:0:
192,116,177666,1,2,0:0:0:0:
192,116,177794,1,0,0:0:0:0:
192,116,177923,1,2,0:0:0:0:
192,120,178179,1,0,0:0:0:0:
192,116,178436,1,0,0:0:0:0:
192,116,178564,1,2,0:0:0:0:
192,116,178692,1,0,0:0:0:0:
192,116,178820,1,0,0:0:0:0:
192,116,178949,1,2,0:0:0:0:
192,116,179461,1,2,0:0:0:0:
192,116,179717,1,0,0:0:0:0:
192,116,179846,1,2,0:0:0:0:
192,116,179974,1,0,0:0:0:0:
192,120,180230,1,2,0:0:0:0:
192,116,180487,1,2,0:0:0:0:
192,116,180615,1,0,0:0:0:0:
192,116,180743,1,2,0:0:0:0:
192,116,180871,1,2,0:0:0:0:
192,116,181000,1,0,0:0:0:0:
192,120,181256,1,2,0:0:0:0:
164,120,181512,1,0,0:0:0:0:
164,120,181768,1,2,0:0:0:0:
164,120,182024,1,2,0:0:0:0:
164,120,182281,1,0,0:0:0:0:
164,120,182537,1,2,0:0:0:0:
164,120,183050,1,2,0:0:0:0:
164,120,183307,1,0,0:0:0:0:
164,120,183563,1,2,0:0:0:0:
164,120,183820,1,2,0:0:0:0:
164,120,183948,1,2,0:0:0:0:
164,120,184075,1,0,0:0:0:0:
168,124,184205,1,0,0:0:0:0:
164,120,184332,1,2,0:0:0:0:
164,120,184588,1,2,0:0:0:0:
172,120,184846,1,2,0:0:0:0:
172,120,184974,1,2,0:0:0:0:
172,124,185101,1,2,0:0:0:0:
180,120,185230,1,2,0:0:0:0:
188,112,185358,1,0,0:0:0:0:
196,116,185615,1,0,0:0:0:0:
196,116,185871,1,0,0:0:0:0:
200,112,186128,1,2,0:0:0:0:
200,112,186384,1,2,0:0:0:0:
204,112,186641,1,0,0:0:0:0:
212,112,186897,1,2,0:0:0:0:
212,112,187026,1,2,0:0:0:0:
216,112,187154,1,0,0:0:0:0:
216,112,187410,1,2,0:0:0:0:
216,112,187667,1,4,0:0:0:0:
220,112,187923,1,2,0:0:0:0:
216,112,188179,1,2,0:0:0:0:
208,120,188435,1,0,0:0:0:0:
216,112,188692,1,6,0:0:0:0:
220,120,188948,1,2,0:0:0:0:
216,120,189205,1,2,0:0:0:0:
224,128,189333,1,0,0:0:0:0:
220,128,189461,1,2,0:0:0:0:
208,128,189974,1,4,0:0:0:0:
208,128,190230,1,0,0:0:0:0:
208,128,190358,1,0,0:0:0:0:
208,128,190487,1,0,0:0:0:0:
208,128,190615,1,0,0:0:0:0:
208,124,190743,1,2,0:0:0:0:
208,128,191000,1,0,0:0:0:0:
224,128,191256,1,2,0:0:0:0:
220,120,191513,1,0,0:0:0:0:
224,128,191641,1,0,0:0:0:0:
224,132,191769,1,2,0:0:0:0:
248,132,192026,1,0,0:0:0:0:
248,132,192282,1,2,0:0:0:0:
208,144,192539,1,0,0:0:0:0:
208,144,192666,1,0,0:0:0:0:
204,140,192795,1,0,0:0:0:0:
184,132,193052,1,0,0:0:0:0:
184,140,193308,1,2,0:0:0:0:
184,132,193564,1,2,0:0:0:0:
184,140,193821,1,0,0:0:0:0:
184,140,194077,1,2,0:0:0:0:
184,140,194334,1,0,0:0:0:0:
312,192,194590,1,0,0:0:0:0:
184,140,194717,1,0,0:0:0:0:
312,192,194846,1,2,0:0:0:0:
220,156,195103,1,0,0:0:0:0:
220,156,195358,1,2,0:0:0:0:
220,156,195615,1,2,0:0:0:0:
220,156,195743,1,2,0:0:0:0:
220,156,195871,1,0,0:0:0:0:
220,156,196128,1,0,0:0:0:0:
220,156,196385,1,2,0:0:0:0:
220,156,196641,1,2,0:0:0:0:
220,156,196769,1,2,0:0:0:0:
224,152,196898,1,2,0:0:0:0:
216,148,197154,1,2,0:0:0:0:
228,148,197410,1,0,0:0:0:0:
228,148,197666,1,2,0:0:0:0:
228,160,197923,1,0,0:0:0:0:
228,160,198180,1,0,0:0:0:0:
228,160,198436,1,2,0:0:0:0:
224,160,198693,1,0,0:0:0:0:
228,160,198821,1,0,0:0:0:0:
236,168,198949,1,0,0:0:0:0:
212,160,199205,1,0,0:0:0:0:
204,176,199462,1,2,0:0:0:0:
216,136,199718,1,2,0:0:0:0:
176,168,199975,1,0,0:0:0:0:
196,168,200231,1,2,0:0:0:0:
196,160,200358,1,2,0:0:0:0:
196,168,200487,1,0,0:0:0:0:
196,160,200615,1,0,0:0:0:0:
196,168,200744,1,2,0:0:0:0:
220,152,201000,1,0,0:0:0:0:
212,160,201257,1,2,0:0:0:0:
204,176,201514,1,0,0:0:0:0:
216,136,201770,1,2,0:0:0:0:
176,168,202027,1,2,0:0:0:0:
204,156,202153,1,2,0:0:0:0:
196,168,202283,1,0,0:0:0:0:
204,156,202410,1,2,0:0:0:0:
196,168,202539,1,2,0:0:0:0:
196,168,202796,1,0,0:0:0:0:
196,168,203052,1,6,0:0:0:0:
180,168,203564,1,2,0:0:0:0:
220,168,203821,1,0,0:0:0:0:
184,136,204077,1,6,0:0:0:0:
184,148,204590,1,2,0:0:0:0:
184,148,204718,1,2,0:0:0:0:
184,148,204846,1,0,0:0:0:0:
184,148,205103,1,6,0:0:0:0:
184,148,205358,1,0,0:0:0:0:
184,152,205616,1,6,0:0:0:0:
184,148,205871,1,2,0:0:0:0:
184,152,206128,1,2,0:0:0:0:
184,152,206257,1,0,0:0:0:0:
184,152,206384,1,2,0:0:0:0:
184,152,206512,1,2,0:0:0:0:
184,152,206641,1,0,0:0:0:0:
184,152,206769,1,2,0:0:0:0:
184,152,206898,1,2,0:0:0:0:
184,152,207026,1,2,0:0:0:0:
184,152,207153,1,0,0:0:0:0:
184,152,207410,1,0,0:0:0:0:
192,152,207539,1,0,0:0:0:0:
192,152,207667,1,2,0:0:0:0:
188,152,207923,1,0,0:0:0:0:
192,148,208052,1,0,0:0:0:0:
184,152,208180,1,2,0:0:0:0:
188,152,208436,1,0,0:0:0:0:
192,152,208564,1,0,0:0:0:0:
192,152,208693,1,2,0:0:0:0:
188,152,208949,1,0,0:0:0:0:
192,148,209077,1,0,0:0:0:0:
192,152,209205,1,0,0:0:0:0:
196,148,209462,1,2,0:0:0:0:
192,152,209718,1,0,0:0:0:0:
196,148,209846,1,0,0:0:0:0:
196,152,209975,1,2,0:0:0:0:
196,152,210231,1,0,0:0:0:0:
192,152,210487,1,0,0:0:0:0:
196,148,210616,1,0,0:0:0:0:
192,152,210744,1,2,0:0:0:0:
196,148,210872,1,2,0:0:0:0:
204,144,211000,1,0,0:0:0:0:
200,144,211257,1,2,0:0:0:0:
204,140,211513,1,2,0:0:0:0:
200,140,211641,1,2,0:0:0:0:
200,140,211769,1,0,0:0:0:0:
204,144,212026,1,2,0:0:0:0:
204,136,212154,1,2,0:0:0:0:
204,136,212282,1,0,0:0:0:0:
204,140,212539,1,2,0:0:0:0:
200,132,212667,1,2,0:0:0:0:
204,132,212795,1,0,0:0:0:0:
196,132,213052,1,2,0:0:0:0:
196,132,213180,1,2,0:0:0:0:
200,132,213308,1,2,0:0:0:0:
196,148,213564,1,0,0:0:0:0:
192,152,213820,1,2,0:0:0:0:
196,148,213948,1,2,0:0:0:0:
196,152,214077,1,0,0:0:0:0:
196,152,214333,1,2,0:0:0:0:
192,152,214589,1,2,0:0:0:0:
196,148,214718,1,2,0:0:0:0:
192,152,214846,1,0,0:0:0:0:
196,148,214974,1,0,0:0:0:0:
204,144,215102,1,2,0:0:0:0:
200,144,215359,1,2,0:0:0:0:
220,128,215616,1,2,0:0:0:0:
216,128,215744,1,2,0:0:0:0:
220,128,215872,1,0,0:0:0:0:
224,132,216385,1,2,0:0:0:0:
224,132,216641,1,0,0:0:0:0:
224,132,216898,1,0,0:0:0:0:
224,132,217154,1,2,0:0:0:0:
228,136,217410,1,0,0:0:0:0:
232,140,217667,1,0,0:0:0:0:
232,140,217795,1,0,0:0:0:0:
228,136,217923,1,2,0:0:0:0:
232,124,218180,1,2,0:0:0:0:
228,136,218436,1,0,0:0:0:0:
232,140,218564,1,2,0:0:0:0:
232,140,218693,1,0,0:0:0:0:
228,136,218821,1,0,0:0:0:0:
228,136,218949,1,2,0:0:0:0:
232,144,219205,1,0,0:0:0:0:
232,144,219333,1,2,0:0:0:0:
232,144,219462,1,0,0:0:0:0:
240,136,219718,1,0,0:0:0:0:
240,136,219975,1,2,0:0:0:0:
240,136,220231,1,2,0:0:0:0:
240,136,220359,1,0,0:0:0:0:
240,136,220487,1,2,0:0:0:0:
240,136,220744,1,0,0:0:0:0:
240,136,221000,1,2,0:0:0:0:
240,136,221257,1,2,0:0:0:0:
240,136,221385,1,2,0:0:0:0:
240,136,221513,1,2,0:0:0:0:
240,136,221769,1,0,0:0:0:0:
240,136,222026,1,2,0:0:0:0:
240,136,222282,1,2,0:0:0:0:
240,136,222539,1,0,0:0:0:0:
240,136,222795,1,0,0:0:0:0:
240,136,222923,1,0,0:0:0:0:
240,136,223052,1,0,0:0:0:0:
240,132,223308,1,2,0:0:0:0:
240,136,223564,1,0,0:0:0:0:
240,136,223821,1,2,0:0:0:0:
240,136,224077,1,2,0:0:0:0:
240,132,224334,1,2,0:0:0:0:
240,136,224590,1,0,0:0:0:0:
244,132,224846,1,2,0:0:0:0:
244,132,224975,1,0,0:0:0:0:
244,132,225102,1,2,0:0:0:0:
240,132,225231,1,2,0:0:0:0:
244,132,225358,1,0,0:0:0:0:
224,132,225616,1,2,0:0:0:0:
224,132,226128,1,0,0:0:0:0:
236,128,226641,1,6,0:0:0:0:
208,176,227666,1,0,0:0:0:0:
208,176,227923,1,2,0:0:0:0:
208,184,228179,1,0,0:0:0:0:
208,184,228435,1,2,0:0:0:0:
176,120,228692,2,0,L|256:120,1,70
224,200,229205,1,2,0:0:0:0:
224,200,229333,1,2,0:0:0:0:
224,200,229461,1,2,0:0:0:0:
224,200,229717,1,2,0:0:0:0:
224,200,229974,1,0,0:0:0:0:
224,200,230230,1,2,0:0:0:0:
224,200,230487,1,0,0:0:0:0:
256,192,230743,8,2,231000,0:0:0:0:
152,132,231256,5,0,0:0:0:0:
152,132,231384,1,0,0:0:0:0:
152,132,231512,1,0,0:0:0:0:
152,132,231769,1,2,0:0:0:0:
152,132,232025,1,0,0:0:0:0:
152,132,232282,1,2,0:0:0:0:
152,132,232538,1,0,0:0:0:0:
132,124,232794,2,0,L|220:136,1,70
212,136,233307,1,2,0:0:0:0:
212,136,233435,1,2,0:0:0:0:
212,136,233564,1,2,0:0:0:0:
212,136,233820,1,2,0:0:0:0:
212,136,234076,1,0,0:0:0:0:
212,136,234333,1,2,0:0:0:0:
212,136,234589,1,0,0:0:0:0:
256,192,234846,8,0,235102,0:0:0:0:
220,172,235358,5,0,0:0:0:0:
220,172,235487,1,0,0:0:0:0:
220,172,235615,1,0,0:0:0:0:
220,172,235871,1,2,0:0:0:0:
220,172,236128,1,0,0:0:0:0:
220,172,236384,1,2,0:0:0:0:
220,172,236641,1,0,0:0:0:0:
168,136,236897,2,0,L|264:144,1,70
288,176,237410,1,2,0:0:0:0:
288,176,237538,1,2,0:0:0:0:
288,176,237666,1,2,0:0:0:0:
288,176,237923,1,2,0:0:0:0:
288,176,238179,1,0,0:0:0:0:
288,176,238435,1,2,0:0:0:0:
288,176,238692,1,0,0:0:0:0:
256,192,238948,8,0,239205,0:0:0:0:
256,172,239461,5,0,0:0:0:0:
192,192,239717,1,2,0:0:0:0:
216,184,239974,1,2,0:0:0:0:
216,184,240230,1,0,0:0:0:0:
216,184,240487,1,2,0:0:0:0:
216,184,240743,1,2,0:0:0:0:
168,168,241000,2,0,L|256:168,1,70
144,248,241512,1,2,0:0:0:0:
144,248,241769,1,0,0:0:0:0:
192,136,242025,1,2,0:0:0:0:
192,136,242111,1,0,0:0:0:0:
192,136,242196,1,2,0:0:0:0:
192,136,242282,1,0,0:0:0:0:
192,136,242367,1,2,0:0:0:0:
192,136,242452,1,0,0:0:0:0:
192,136,242623,1,2,0:0:0:0:
192,136,242794,1,0,0:0:0:0:
192,120,242965,1,2,0:0:0:0:
200,116,243222,1,0,0:0:0:0:
188,96,243393,1,2,0:0:0:0:
184,96,243564,1,0,0:0:0:0:
188,108,243649,1,0,0:0:0:0:
188,108,243735,1,0,0:0:0:0:
188,96,243820,1,0,0:0:0:0:
188,96,243905,1,0,0:0:0:0:
188,96,243991,1,0,0:0:0:0:
188,96,244076,1,2,0:0:0:0:
328,172,244589,1,2,0:0:0:0:
208,180,244846,1,0,0:0:0:0:
160,208,245102,1,2,0:0:0:0:
220,188,245358,1,0,0:0:0:0:
220,188,245487,1,2,0:0:0:0:
220,188,245615,1,0,0:0:0:0:
220,188,245871,1,0,0:0:0:0:
220,188,246128,1,2,0:0:0:0:
216,308,246384,1,0,0:0:0:0:
216,308,246512,1,2,0:0:0:0:
216,308,246641,1,0,0:0:0:0:
216,308,246897,1,2,0:0:0:0:
320,280,247153,1,2,0:0:0:0:
320,280,247282,1,2,0:0:0:0:
320,280,247410,1,0,0:0:0:0:
320,280,247538,1,0,0:0:0:0:
320,280,247666,1,2,0:0:0:0:
236,188,247923,1,0,0:0:0:0:
236,188,248008,1,0,0:0:0:0:
236,188,248094,1,0,0:0:0:0:
236,188,248179,1,2,0:0:0:0:
236,188,248435,1,0,0:0:0:0:
236,188,248692,1,2,0:0:0:0:
236,188,248948,1,0,0:0:0:0:
236,188,249205,1,0,0:0:0:0:
236,188,249333,1,0,0:0:0:0:
236,188,249461,1,0,0:0:0:0:
236,188,249589,1,0,0:0:0:0:
236,188,249717,1,2,0:0:0:0:
236,188,249974,1,0,0:0:0:0:
236,188,250059,1,0,0:0:0:0:
236,188,250145,1,0,0:0:0:0:
236,188,250230,1,0,0:0:0:0:
236,188,250487,1,0,0:0:0:0:
236,188,250743,1,2,0:0:0:0:
236,188,251000,1,2,0:0:0:0:
232,184,251128,1,2,0:0:0:0:
236,188,251256,1,0,0:0:0:0:
236,188,251512,1,2,0:0:0:0:
236,176,251769,1,0,0:0:0:0:
232,180,252025,1,2,0:0:0:0:
236,180,252111,1,2,0:0:0:0:
232,180,252196,1,2,0:0:0:0:
232,180,252282,1,2,0:0:0:0:
328,172,252794,1,2,0:0:0:0:
208,180,253051,1,0,0:0:0:0:
160,208,253307,1,2,0:0:0:0:
220,188,253563,1,0,0:0:0:0:
220,188,253692,1,0,0:0:0:0:
220,188,253820,1,2,0:0:0:0:
220,188,254076,1,0,0:0:0:0:
220,188,254333,1,2,0:0:0:0:
216,308,254589,1,2,0:0:0:0:
216,308,254717,1,2,0:0:0:0:
216,308,254846,1,2,0:0:0:0:
216,308,255102,1,2,0:0:0:0:
320,280,255358,1,2,0:0:0:0:
320,280,255487,1,2,0:0:0:0:
320,280,255615,1,0,0:0:0:0:
320,280,255743,1,0,0:0:0:0:
320,280,255871,1,0,0:0:0:0:
236,188,256128,1,0,0:0:0:0:
236,188,256213,1,0,0:0:0:0:
236,188,256299,1,0,0:0:0:0:
236,188,256384,1,2,0:0:0:0:
236,188,256640,1,0,0:0:0:0:
236,188,256897,1,2,0:0:0:0:
236,188,257153,1,0,0:0:0:0:
236,188,257410,1,2,0:0:0:0:
236,188,257538,1,0,0:0:0:0:
236,188,257666,1,0,0:0:0:0:
236,188,257794,1,0,0:0:0:0:
236,188,257922,1,2,0:0:0:0:
236,188,258179,1,0,0:0:0:0:
236,188,258264,1,0,0:0:0:0:
236,188,258350,1,0,0:0:0:0:
236,188,258435,1,0,0:0:0:0:
236,188,258692,1,0,0:0:0:0:
236,188,258948,1,0,0:0:0:0:
236,188,259076,1,2,0:0:0:0:
236,188,259205,1,2,0:0:0:0:
232,184,259333,1,2,0:0:0:0:
236,188,259461,1,0,0:0:0:0:
236,188,259717,1,2,0:0:0:0:
236,176,259974,1,0,0:0:0:0:
232,180,260230,1,2,0:0:0:0:
236,180,260316,1,2,0:0:0:0:
232,180,260401,1,2,0:0:0:0:
232,180,260487,1,2,0:0:0:0:
328,172,261000,1,2,0:0:0:0:
208,180,261257,1,0,0:0:0:0:
160,208,261513,1,2,0:0:0:0:
220,188,261769,1,2,0:0:0:0:
220,188,261897,1,2,0:0:0:0:
220,188,262026,1,2,0:0:0:0:
220,188,262282,1,0,0:0:0:0:
220,188,262539,1,2,0:0:0:0:
216,308,262795,1,0,0:0:0:0:
216,308,262923,1,0,0:0:0:0:
216,308,263052,1,0,0:0:0:0:
216,308,263308,1,2,0:0:0:0:
320,280,263564,1,2,0:0:0:0:
320,280,263693,1,2,0:0:0:0:
320,280,263820,1,0,0:0:0:0:
320,280,263949,1,0,0:0:0:0:
320,280,264077,1,2,0:0:0:0:
236,188,264334,1,0,0:0:0:0:
236,188,264419,1,0,0:0:0:0:
236,188,264505,1,0,0:0:0:0:
236,188,264590,1,2,0:0:0:0:
236,188,264846,1,0,0:0:0:0:
236,188,265103,1,2,0:0:0:0:
236,188,265359,1,0,0:0:0:0:
236,188,265616,1,0,0:0:0:0:
236,188,265744,1,2,0:0:0:0:
236,188,265872,1,0,0:0:0:0:
236,188,266000,1,0,0:0:0:0:
236,188,266128,1,2,0:0:0:0:
236,188,266385,1,0,0:0:0:0:
236,188,266470,1,0,0:0:0:0:
236,188,266556,1,0,0:0:0:0:
236,188,266641,1,0,0:0:0:0:
236,188,266898,1,0,0:0:0:0:
236,188,267154,1,2,0:0:0:0:
236,188,267282,1,2,0:0:0:0:
236,188,267411,1,2,0:0:0:0:
232,184,267539,1,2,0:0:0:0:
236,188,267667,1,2,0:0:0:0:
236,188,267923,1,2,0:0:0:0:
236,176,268180,1,0,0:0:0:0:
232,180,268436,1,2,0:0:0:0:
236,180,268522,1,2,0:0:0:0:
232,180,268607,1,2,0:0:0:0:
232,180,268693,1,2,0:0:0:0:
328,172,269205,1,2,0:0:0:0:
208,180,269462,1,0,0:0:0:0:
160,208,269718,1,2,0:0:0:0:
220,188,269974,1,2,0:0:0:0:
220,188,270103,1,0,0:0:0:0:
220,188,270231,1,2,0:0:0:0:
220,188,270487,1,0,0:0:0:0:
220,188,270744,1,2,0:0:0:0:
216,308,271000,1,2,0:0:0:0:
216,308,271128,1,2,0:0:0:0:
216,308,271257,1,2,0:0:0:0:
216,308,271513,1,2,0:0:0:0:
320,280,271769,1,2,0:0:0:0:
320,280,271898,1,2,0:0:0:0:
320,280,272026,1,0,0:0:0:0:
320,280,272154,1,2,0:0:0:0:
320,280,272282,1,2,0:0:0:0:
236,188,272539,1,0,0:0:0:0:
236,188,272624,1,0,0:0:0:0:
236,188,272710,1,0,0:0:0:0:
236,188,272795,1,2,0:0:0:0:
236,188,273051,1,0,0:0:0:0:
236,188,273308,1,2,0:0:0:0:
236,188,273564,1,0,0:0:0:0:
236,188,273820,1,0,0:0:0:0:
236,188,273949,1,0,0:0:0:0:
236,188,274077,1,0,0:0:0:0:
236,188,274205,1,0,0:0:0:0:
236,188,274333,1,2,0:0:0:0:
236,188,274590,1,0,0:0:0:0:
236,188,274675,1,0,0:0:0:0:
236,188,274761,1,0,0:0:0:0:
236,188,274846,1,0,0:0:0:0:
236,188,275103,1,0,0:0:0:0:
236,188,275359,1,0,0:0:0:0:
236,188,275487,1,0,0:0:0:0:
236,188,275615,1,2,0:0:0:0:
232,184,275743,1,0,0:0:0:0:
236,188,275870,1,0,0:0:0:0:
236,188,276128,1,0,0:0:0:0:
236,176,276385,1,2,0:0:0:0:
232,180,276641,1,2,0:0:0:0:
236,180,276727,1,2,0:0:0:0:
232,180,276812,1,2,0:0:0:0:
232,180,276898,1,2,0:0:0:0:
232,180,277153,1,2,0:0:0:0:
236,176,277410,1,0,0:0:0:0:
232,172,277666,1,0,0:0:0:0:
232,172,277923,1,2,0:0:0:0:
232,172,278179,1,2,0:0:0:0:
236,176,278435,1,0,0:0:0:0:
232,176,278692,1,0,0:0:0:0:
232,176,278820,1,0,0:0:0:0:
232,180,278948,1,2,0:0:0:0:
232,180,279203,1,2,0:0:0:0:
236,176,279460,1,0,0:0:0:0:
232,172,279716,1,0,0:0:0:0:
232,172,279973,1,2,0:0:0:0:
236,176,280102,1,2,0:0:0:0:
232,172,280229,1,0,0:0:0:0:
228,176,280358,1,0,0:0:0:0:
236,176,280485,1,2,0:0:0:0:
232,172,280615,1,2,0:0:0:0:
232,172,280743,1,0,0:0:0:0:
232,180,281000,1,2,0:0:0:0:
232,180,281255,1,2,0:0:0:0:
236,176,281512,1,0,0:0:0:0:
232,172,281768,1,0,0:0:0:0:
232,172,282025,1,2,0:0:0:0:
232,172,282281,1,2,0:0:0:0:
236,176,282537,1,0,0:0:0:0:
236,168,282794,1,0,0:0:0:0:
236,168,282923,1,2,0:0:0:0:
236,168,283051,1,0,0:0:0:0:
236,168,283307,1,2,0:0:0:0:
236,168,283564,1,2,0:0:0:0:
236,168,283820,1,2,0:0:0:0:
236,168,284076,1,0,0:0:0:0:
236,168,284333,1,2,0:0:0:0:
236,160,284461,1,2,0:0:0:0:
236,168,284589,1,2,0:0:0:0:
236,168,284846,1,2,0:0:0:0:
236,168,285102,1,0,0:0:0:0:
236,168,285358,1,2,0:0:0:0:
232,168,285615,1,0,0:0:0:0:
232,168,285871,1,0,0:0:0:0:
236,168,286128,1,2,0:0:0:0:
236,168,286384,1,2,0:0:0:0:
232,168,286641,1,0,0:0:0:0:
232,168,286897,1,2,0:0:0:0:
228,168,287025,1,2,0:0:0:0:
232,168,287153,1,2,0:0:0:0:
232,168,287410,1,0,0:0:0:0:
232,168,287666,1,2,0:0:0:0:
232,168,287923,1,0,0:0:0:0:
232,168,288179,1,2,0:0:0:0:
232,168,288307,1,2,0:0:0:0:
232,168,288435,1,0,0:0:0:0:
232,168,288564,1,0,0:0:0:0:
232,168,288692,1,2,0:0:0:0:
232,168,288820,1,2,0:0:0:0:
232,168,288948,1,0,0:0:0:0:
232,168,289205,1,2,0:0:0:0:
232,168,289461,1,0,0:0:0:0:
232,168,289717,1,2,0:0:0:0:
232,168,289974,1,0,0:0:0:0:
232,168,290102,1,0,0:0:0:0:
232,168,290230,1,2,0:0:0:0:
232,168,290487,1,0,0:0:0:0:
232,168,290743,1,2,0:0:0:0:
232,168,291000,1,0,0:0:0:0:
232,168,291256,1,2,0:0:0:0:
232,168,291512,1,2,0:0:0:0:
232,168,291641,1,2,0:0:0:0:
232,168,291769,1,2,0:0:0:0:
232,168,292025,1,2,0:0:0:0:
232,168,292282,1,2,0:0:0:0:
232,168,292538,1,2,0:0:0:0:
232,168,292666,1,2,0:0:0:0:
232,168,292794,1,2,0:0:0:0:
232,168,293051,1,2,0:0:0:0:
232,168,293307,1,0,0:0:0:0:
232,168,293564,1,0,0:0:0:0:
232,168,293820,1,2,0:0:0:0:
232,168,294076,1,2,0:0:0:0:
232,168,294333,1,0,0:0:0:0:
232,168,294589,1,0,0:0:0:0:
232,168,294846,1,2,0:0:0:0:
232,168,295102,1,2,0:0:0:0:
232,168,295358,1,0,0:0:0:0:
232,168,295487,1,0,0:0:0:0:
232,168,295615,1,2,0:0:0:0:
232,168,295743,1,2,0:0:0:0:
232,168,295871,1,0,0:0:0:0:
232,168,296000,1,0,0:0:0:0:
232,168,296128,1,2,0:0:0:0:
232,168,296256,1,2,0:0:0:0:
232,168,296384,1,0,0:0:0:0:
232,168,296512,1,0,0:0:0:0:
232,168,296641,1,2,0:0:0:0:
232,168,296769,1,2,0:0:0:0:
232,168,296897,1,0,0:0:0:0:
232,168,296982,1,0,0:0:0:0:
232,168,297068,1,0,0:0:0:0:
232,168,297153,1,2,0:0:0:0:
256,192,299461,1,4,0:0:0:0:
