osu file format v14

[General]
AudioFilename: audio.mp3
AudioLeadIn: 0
PreviewTime: 18567
Countdown: 1
SampleSet: Soft
StackLeniency: 0.7
Mode: 3
LetterboxInBreaks: 0
SpecialStyle: 0
WidescreenStoryboard: 1

[Editor]
Bookmarks: 772,974,1177,1380,1582,1785,1988,2190,32393,32697,33001,33508,36447,36717,36988,37258,37528,37799,42934,43136,43339,43542,43744,43947,44150,44353,53474,53677,53880,54082,57528,57731,57934,58136,58339,58542,58744,58947
DistanceSpacing: 1
BeatDivisor: 4
GridSize: 32
TimelineZoom: 2.3

[Metadata]
Title:Season 1 Opening (Finnish)
TitleUnicode:Season 1 Opening (Finnish)
Artist:TMNT
ArtistUnicode:TMNT
Creator:isopaharuntikka
Version:TAAS ROSVOT MANIATELEE
Source:
Tags:finnish finland suomi teenage mutant ninja turtles teini ikäiset mutantti ninja kilpikonnat
BeatmapID:1479220
BeatmapSetID:697948

[Difficulty]
HPDrainRate:6
CircleSize:4
OverallDifficulty:8
ApproachRate:8.3
SliderMultiplier:1.7
SliderTickRate:1

[Events]
//Background and Video events
Video,0,"TMNT Season 1 Opening (Finnish).mp4"
0,0,"659564.jpg",0,0
//Break Periods
//Storyboard Layer 0 (Background)
//Storyboard Layer 1 (Fail)
//Storyboard Layer 2 (Pass)
//Storyboard Layer 3 (Foreground)
//Storyboard Sound Samples

[TimingPoints]
780,405.405405405405,4,2,0,80,1,0
3820,-166.666666666667,4,2,0,80,0,0
4225,-55.5555555555556,4,2,0,80,0,0
4428,-100,4,2,0,80,0,0

[HitObjects]
64,192,780,5,0,0:0:0:0:
192,192,780,1,0,0:0:0:0:
64,192,982,1,0,0:0:0:0:
192,192,982,1,0,0:0:0:0:
64,192,1185,1,0,0:0:0:0:
192,192,1185,1,0,0:0:0:0:
64,192,1388,1,0,0:0:0:0:
192,192,1388,1,0,0:0:0:0:
320,192,1590,1,0,0:0:0:0:
448,192,1590,1,0,0:0:0:0:
320,192,1793,1,0,0:0:0:0:
448,192,1793,1,0,0:0:0:0:
320,192,1996,1,0,0:0:0:0:
448,192,1996,1,0,0:0:0:0:
320,192,2198,1,0,0:0:0:0:
448,192,2198,1,0,0:0:0:0:
64,192,2604,1,0,0:0:0:0:
448,192,2807,128,0,3009:0:0:0:0:
320,192,3009,1,0,0:0:0:0:
192,192,3212,128,0,3617:0:0:0:0:
64,192,3617,1,0,0:0:0:0:
320,192,3820,1,0,0:0:0:0:
448,192,3820,1,0,0:0:0:0:
192,192,3820,128,0,4428:0:0:0:0:
64,192,4428,1,0,0:0:0:0:
192,192,4631,1,0,0:0:0:0:
320,192,4834,1,0,0:0:0:0:
448,192,5036,1,0,0:0:0:0:
320,192,5239,1,0,0:0:0:0:
192,192,5442,1,0,0:0:0:0:
64,192,5644,1,0,0:0:0:0:
192,192,5644,1,0,0:0:0:0:
320,192,5644,1,0,0:0:0:0:
320,192,6050,1,0,0:0:0:0:
448,192,6050,1,0,0:0:0:0:
64,192,6252,1,0,0:0:0:0:
192,192,6354,1,0,0:0:0:0:
320,192,6455,1,0,0:0:0:0:
448,192,6455,1,0,0:0:0:0:
64,192,6557,1,0,0:0:0:0:
320,192,6658,1,0,0:0:0:0:
448,192,6658,1,0,0:0:0:0:
64,192,6861,1,0,0:0:0:0:
192,192,6861,1,0,0:0:0:0:
320,192,6861,1,0,0:0:0:0:
192,192,7063,1,0,0:0:0:0:
320,192,7165,1,0,0:0:0:0:
448,192,7266,1,0,0:0:0:0:
192,192,7266,1,0,0:0:0:0:
320,192,7266,1,0,0:0:0:0:
64,192,7469,1,0,0:0:0:0:
192,192,7671,1,0,0:0:0:0:
320,192,7671,1,0,0:0:0:0:
448,192,7975,1,0,0:0:0:0:
320,192,8077,1,0,0:0:0:0:
192,192,8077,1,0,0:0:0:0:
64,192,8279,1,0,0:0:0:0:
192,192,8279,1,0,0:0:0:0:
448,192,8482,1,0,0:0:0:0:
320,192,8482,1,0,0:0:0:0:
64,192,8482,1,0,0:0:0:0:
192,192,8685,1,0,0:0:0:0:
64,192,8786,1,0,0:0:0:0:
320,192,8888,1,0,0:0:0:0:
448,192,8888,1,0,0:0:0:0:
192,192,9090,1,0,0:0:0:0:
64,192,9293,1,0,0:0:0:0:
320,192,9293,1,0,0:0:0:0:
448,192,9293,1,0,0:0:0:0:
192,192,9496,1,0,0:0:0:0:
448,192,9597,1,0,0:0:0:0:
320,192,9698,1,0,0:0:0:0:
64,192,9698,1,0,0:0:0:0:
192,192,9800,1,0,0:0:0:0:
64,192,9901,1,0,0:0:0:0:
448,192,9901,1,0,0:0:0:0:
64,192,10104,1,0,0:0:0:0:
192,192,10104,1,0,0:0:0:0:
448,192,10104,1,0,0:0:0:0:
64,192,10307,1,0,0:0:0:0:
448,192,10509,1,0,0:0:0:0:
320,192,10509,1,0,0:0:0:0:
192,192,10712,1,0,0:0:0:0:
64,192,10915,1,0,0:0:0:0:
192,192,10915,1,0,0:0:0:0:
320,192,10915,1,0,0:0:0:0:
448,192,11117,1,0,0:0:0:0:
320,192,11219,1,0,0:0:0:0:
192,192,11320,1,0,0:0:0:0:
64,192,11320,1,0,0:0:0:0:
320,192,11421,1,0,0:0:0:0:
192,192,11523,1,0,0:0:0:0:
448,192,11523,1,0,0:0:0:0:
64,192,11725,1,0,0:0:0:0:
320,192,11725,1,0,0:0:0:0:
448,192,11725,1,0,0:0:0:0:
64,192,11928,1,0,0:0:0:0:
192,192,12131,1,0,0:0:0:0:
320,192,12131,1,0,0:0:0:0:
448,192,12131,1,0,0:0:0:0:
192,192,12334,1,0,0:0:0:0:
64,192,12536,1,0,0:0:0:0:
192,192,12536,1,0,0:0:0:0:
320,192,12739,1,0,0:0:0:0:
448,192,12739,1,0,0:0:0:0:
64,192,12942,1,0,0:0:0:0:
192,192,12942,1,0,0:0:0:0:
320,192,13144,1,0,0:0:0:0:
448,192,13144,1,0,0:0:0:0:
64,192,13347,1,0,0:0:0:0:
192,192,13347,1,0,0:0:0:0:
320,192,13550,1,0,0:0:0:0:
448,192,13550,1,0,0:0:0:0:
64,192,13752,1,0,0:0:0:0:
192,192,13752,1,0,0:0:0:0:
320,192,13854,1,0,0:0:0:0:
448,192,13955,1,0,0:0:0:0:
64,192,14057,1,0,0:0:0:0:
192,192,14158,1,0,0:0:0:0:
320,192,14158,1,0,0:0:0:0:
448,192,14158,1,0,0:0:0:0:
64,192,14259,1,0,0:0:0:0:
448,192,14361,1,0,0:0:0:0:
192,192,14462,1,0,0:0:0:0:
320,192,14563,1,0,0:0:0:0:
448,192,14563,1,0,0:0:0:0:
64,192,14665,1,0,0:0:0:0:
192,192,14665,1,0,0:0:0:0:
448,192,14766,1,0,0:0:0:0:
320,192,14766,1,0,0:0:0:0:
64,192,14766,1,0,0:0:0:0:
192,192,14867,1,0,0:0:0:0:
64,192,14969,1,0,0:0:0:0:
320,192,14969,1,0,0:0:0:0:
448,192,14969,1,0,0:0:0:0:
192,192,15070,1,0,0:0:0:0:
64,192,15171,1,0,0:0:0:0:
320,192,15171,1,0,0:0:0:0:
448,192,15273,1,0,0:0:0:0:
64,192,15374,1,0,0:0:0:0:
192,192,15374,1,0,0:0:0:0:
320,192,15374,1,0,0:0:0:0:
448,192,15577,128,0,16388:0:0:0:0:
320,192,15779,1,0,0:0:0:0:
64,192,16084,1,0,0:0:0:0:
192,192,16084,1,0,0:0:0:0:
320,192,16286,1,0,0:0:0:0:
64,192,16388,1,0,0:0:0:0:
192,192,16388,128,0,17198:0:0:0:0:
320,192,16590,1,0,0:0:0:0:
448,192,16590,1,0,0:0:0:0:
320,192,16793,1,0,0:0:0:0:
64,192,16894,1,0,0:0:0:0:
320,192,16996,1,0,0:0:0:0:
448,192,16996,1,0,0:0:0:0:
320,192,17401,1,0,0:0:0:0:
320,192,17604,1,0,0:0:0:0:
320,192,17807,1,0,0:0:0:0:
64,192,18009,1,0,0:0:0:0:
192,192,18009,1,0,0:0:0:0:
448,192,18161,1,0,0:0:0:0:
320,192,18212,1,0,0:0:0:0:
192,192,18212,1,0,0:0:0:0:
64,192,18263,1,0,0:0:0:0:
320,192,18313,1,0,0:0:0:0:
448,192,18313,1,0,0:0:0:0:
64,192,18415,1,0,0:0:0:0:
192,192,18415,1,0,0:0:0:0:
64,192,18567,1,0,0:0:0:0:
192,192,18567,1,0,0:0:0:0:
448,192,18567,1,0,0:0:0:0:
320,192,18668,1,0,0:0:0:0:
192,192,18820,1,0,0:0:0:0:
320,192,19023,1,0,0:0:0:0:
64,192,19023,1,0,0:0:0:0:
192,192,19225,1,0,0:0:0:0:
448,192,19225,1,0,0:0:0:0:
320,192,19428,1,0,0:0:0:0:
448,192,19428,1,0,0:0:0:0:
64,192,19631,1,0,0:0:0:0:
448,192,19834,1,0,0:0:0:0:
64,192,19834,1,0,0:0:0:0:
192,192,19834,1,0,0:0:0:0:
320,192,20036,1,0,0:0:0:0:
64,192,20239,1,0,0:0:0:0:
192,192,20239,1,0,0:0:0:0:
320,192,20239,1,0,0:0:0:0:
448,192,20239,1,0,0:0:0:0:
448,192,20644,1,0,0:0:0:0:
320,192,20644,1,0,0:0:0:0:
192,192,20644,1,0,0:0:0:0:
448,192,21050,1,0,0:0:0:0:
320,192,21151,1,0,0:0:0:0:
64,192,21252,1,0,0:0:0:0:
192,192,21252,1,0,0:0:0:0:
64,192,21455,1,0,0:0:0:0:
192,192,21455,1,0,0:0:0:0:
448,192,21455,1,0,0:0:0:0:
320,192,21557,1,0,0:0:0:0:
192,192,21658,1,0,0:0:0:0:
64,192,21861,1,0,0:0:0:0:
192,192,21861,1,0,0:0:0:0:
320,192,21861,1,0,0:0:0:0:
448,192,21861,1,0,0:0:0:0:
64,192,22266,1,0,0:0:0:0:
192,192,22266,1,0,0:0:0:0:
448,192,22266,1,0,0:0:0:0:
64,192,22570,1,0,0:0:0:0:
320,192,22671,1,0,0:0:0:0:
192,192,22773,1,0,0:0:0:0:
320,192,22874,1,0,0:0:0:0:
448,192,22874,1,0,0:0:0:0:
448,192,23077,1,0,0:0:0:0:
320,192,23077,1,0,0:0:0:0:
64,192,23077,1,0,0:0:0:0:
192,192,23279,1,0,0:0:0:0:
320,192,23381,1,0,0:0:0:0:
64,192,23482,1,0,0:0:0:0:
192,192,23482,1,0,0:0:0:0:
448,192,23685,1,0,0:0:0:0:
64,192,23888,1,0,0:0:0:0:
192,192,23888,1,0,0:0:0:0:
320,192,24192,1,0,0:0:0:0:
64,192,24293,1,0,0:0:0:0:
448,192,24394,1,0,0:0:0:0:
192,192,24496,1,0,0:0:0:0:
320,192,24496,1,0,0:0:0:0:
64,192,24698,1,0,0:0:0:0:
320,192,24698,1,0,0:0:0:0:
448,192,24698,1,0,0:0:0:0:
192,192,24800,1,0,0:0:0:0:
320,192,24901,1,0,0:0:0:0:
448,192,25002,1,0,0:0:0:0:
64,192,25104,1,0,0:0:0:0:
192,192,25104,1,0,0:0:0:0:
320,192,25509,1,0,0:0:0:0:
448,192,25509,1,0,0:0:0:0:
192,192,25712,1,0,0:0:0:0:
64,192,25813,1,0,0:0:0:0:
320,192,25915,1,0,0:0:0:0:
448,192,25915,1,0,0:0:0:0:
64,192,26016,1,0,0:0:0:0:
192,192,26016,1,0,0:0:0:0:
320,192,26117,1,0,0:0:0:0:
448,192,26117,1,0,0:0:0:0:
64,192,26320,1,0,0:0:0:0:
448,192,26320,1,0,0:0:0:0:
192,192,26320,1,0,0:0:0:0:
320,192,26523,1,0,0:0:0:0:
192,192,26624,1,0,0:0:0:0:
64,192,26725,1,0,0:0:0:0:
192,192,26725,1,0,0:0:0:0:
320,192,26725,1,0,0:0:0:0:
448,192,26725,1,0,0:0:0:0:
192,192,26928,1,0,0:0:0:0:
64,192,27131,1,0,0:0:0:0:
320,192,27131,1,0,0:0:0:0:
448,192,27131,1,0,0:0:0:0:
64,192,27334,1,0,0:0:0:0:
192,192,27435,1,0,0:0:0:0:
320,192,27536,1,0,0:0:0:0:
448,192,27536,1,0,0:0:0:0:
192,192,27638,1,0,0:0:0:0:
320,192,27942,1,0,0:0:0:0:
448,192,27942,1,0,0:0:0:0:
192,192,28144,1,0,0:0:0:0:
64,192,28246,1,0,0:0:0:0:
448,192,28347,1,0,0:0:0:0:
320,192,28347,1,0,0:0:0:0:
192,192,28347,1,0,0:0:0:0:
64,192,28347,1,0,0:0:0:0:
320,192,28550,1,0,0:0:0:0:
64,192,28752,1,0,0:0:0:0:
192,192,28752,1,0,0:0:0:0:
320,192,28752,1,0,0:0:0:0:
448,192,28955,1,0,0:0:0:0:
192,192,29158,1,0,0:0:0:0:
320,192,29158,1,0,0:0:0:0:
64,192,29361,1,0,0:0:0:0:
192,192,29361,1,0,0:0:0:0:
320,192,29563,1,0,0:0:0:0:
448,192,29766,1,0,0:0:0:0:
64,192,29969,1,0,0:0:0:0:
192,192,29969,1,0,0:0:0:0:
320,192,30171,1,0,0:0:0:0:
448,192,30171,1,0,0:0:0:0:
64,192,30374,1,0,0:0:0:0:
192,192,30374,1,0,0:0:0:0:
320,192,30577,1,0,0:0:0:0:
448,192,30577,1,0,0:0:0:0:
64,192,30982,1,0,0:0:0:0:
192,192,30982,1,0,0:0:0:0:
320,192,30982,128,0,31489:0:0:0:0:
64,192,31590,1,0,0:0:0:0:
192,192,31590,128,0,32300:0:0:0:0:
320,192,31996,1,0,0:0:0:0:
448,192,31996,1,0,0:0:0:0:
448,192,32401,1,0,0:0:0:0:
320,192,32401,1,0,0:0:0:0:
64,192,32502,1,0,0:0:0:0:
192,192,32604,1,0,0:0:0:0:
320,192,32705,1,0,0:0:0:0:
448,192,32705,1,0,0:0:0:0:
64,192,32807,1,0,0:0:0:0:
320,192,32959,1,0,0:0:0:0:
448,192,32959,1,0,0:0:0:0:
192,192,33212,1,0,0:0:0:0:
64,192,33415,1,0,0:0:0:0:
320,192,33516,1,0,0:0:0:0:
448,192,33516,1,0,0:0:0:0:
64,192,33617,1,0,0:0:0:0:
192,192,33617,1,0,0:0:0:0:
448,192,33617,1,0,0:0:0:0:
64,192,33820,1,0,0:0:0:0:
192,192,33820,1,0,0:0:0:0:
320,192,34023,1,0,0:0:0:0:
448,192,34124,1,0,0:0:0:0:
320,192,34225,1,0,0:0:0:0:
64,192,34428,1,0,0:0:0:0:
192,192,34428,1,0,0:0:0:0:
64,192,34631,1,0,0:0:0:0:
192,192,34631,1,0,0:0:0:0:
448,192,34834,128,0,34935:0:0:0:0:
320,192,34834,1,0,0:0:0:0:
192,192,34834,1,0,0:0:0:0:
320,192,35036,128,0,35138:0:0:0:0:
192,192,35036,1,0,0:0:0:0:
64,192,35036,1,0,0:0:0:0:
192,192,35239,128,0,35340:0:0:0:0:
320,192,35239,1,0,0:0:0:0:
448,192,35239,1,0,0:0:0:0:
64,192,35442,128,0,35543:0:0:0:0:
192,192,35442,1,0,0:0:0:0:
320,192,35442,1,0,0:0:0:0:
192,192,35644,128,0,35746:0:0:0:0:
320,192,35644,1,0,0:0:0:0:
448,192,35644,1,0,0:0:0:0:
320,192,35847,128,0,35948:0:0:0:0:
64,192,35847,1,0,0:0:0:0:
192,192,35847,1,0,0:0:0:0:
448,192,36050,128,0,36252:0:0:0:0:
320,192,36050,1,0,0:0:0:0:
192,192,36050,1,0,0:0:0:0:
64,192,36252,1,0,0:0:0:0:
192,192,36278,1,0,0:0:0:0:
320,192,36303,1,0,0:0:0:0:
448,192,36328,1,0,0:0:0:0:
64,192,36354,1,0,0:0:0:0:
192,192,36379,1,0,0:0:0:0:
320,192,36404,1,0,0:0:0:0:
448,192,36430,1,0,0:0:0:0:
64,192,36455,1,0,0:0:0:0:
192,192,36455,1,0,0:0:0:0:
64,192,36709,1,0,0:0:0:0:
192,192,36709,1,0,0:0:0:0:
320,192,36709,1,0,0:0:0:0:
448,192,36709,1,0,0:0:0:0:
448,192,36962,1,0,0:0:0:0:
320,192,36962,1,0,0:0:0:0:
192,192,36962,1,0,0:0:0:0:
64,192,36962,1,0,0:0:0:0:
448,192,37266,1,0,0:0:0:0:
320,192,37266,1,0,0:0:0:0:
192,192,37266,1,0,0:0:0:0:
64,192,37266,1,0,0:0:0:0:
64,192,37519,1,0,0:0:0:0:
192,192,37519,1,0,0:0:0:0:
320,192,37519,1,0,0:0:0:0:
448,192,37519,1,0,0:0:0:0:
448,192,37773,1,0,0:0:0:0:
320,192,37773,1,0,0:0:0:0:
192,192,37773,1,0,0:0:0:0:
64,192,37773,1,0,0:0:0:0:
64,192,38077,1,0,0:0:0:0:
448,192,38279,1,0,0:0:0:0:
64,192,38482,1,0,0:0:0:0:
192,192,38482,1,0,0:0:0:0:
320,192,38482,1,0,0:0:0:0:
448,192,38584,1,0,0:0:0:0:
320,192,38786,1,0,0:0:0:0:
64,192,38888,1,0,0:0:0:0:
192,192,38888,1,0,0:0:0:0:
320,192,38989,1,0,0:0:0:0:
448,192,38989,1,0,0:0:0:0:
64,192,39090,1,0,0:0:0:0:
192,192,39090,1,0,0:0:0:0:
448,192,39293,1,0,0:0:0:0:
320,192,39293,1,0,0:0:0:0:
192,192,39293,1,0,0:0:0:0:
64,192,39394,1,0,0:0:0:0:
320,192,39496,1,0,0:0:0:0:
64,192,39698,1,0,0:0:0:0:
192,192,39698,1,0,0:0:0:0:
448,192,39698,1,0,0:0:0:0:
320,192,39800,1,0,0:0:0:0:
64,192,39901,1,0,0:0:0:0:
192,192,39901,1,0,0:0:0:0:
448,192,40104,1,0,0:0:0:0:
320,192,40104,1,0,0:0:0:0:
64,192,40104,1,0,0:0:0:0:
192,192,40408,1,0,0:0:0:0:
64,192,40509,1,0,0:0:0:0:
320,192,40509,1,0,0:0:0:0:
448,192,40509,1,0,0:0:0:0:
192,192,40611,1,0,0:0:0:0:
64,192,40611,1,0,0:0:0:0:
320,192,40712,1,0,0:0:0:0:
448,192,40712,1,0,0:0:0:0:
64,192,40915,1,0,0:0:0:0:
192,192,40915,1,0,0:0:0:0:
320,192,40915,1,0,0:0:0:0:
192,192,41117,1,0,0:0:0:0:
320,192,41219,1,0,0:0:0:0:
64,192,41320,1,0,0:0:0:0:
192,192,41320,1,0,0:0:0:0:
448,192,41320,1,0,0:0:0:0:
320,192,41523,1,0,0:0:0:0:
64,192,41725,1,0,0:0:0:0:
192,192,41725,1,0,0:0:0:0:
448,192,41725,1,0,0:0:0:0:
192,192,42029,1,0,0:0:0:0:
64,192,42131,1,0,0:0:0:0:
320,192,42131,1,0,0:0:0:0:
448,192,42131,1,0,0:0:0:0:
64,192,42232,1,0,0:0:0:0:
192,192,42232,1,0,0:0:0:0:
320,192,42334,1,0,0:0:0:0:
448,192,42334,1,0,0:0:0:0:
64,192,42536,1,0,0:0:0:0:
192,192,42536,1,0,0:0:0:0:
320,192,42536,1,0,0:0:0:0:
448,192,42739,1,0,0:0:0:0:
64,192,42942,1,0,0:0:0:0:
192,192,42942,1,0,0:0:0:0:
320,192,43144,1,0,0:0:0:0:
448,192,43144,1,0,0:0:0:0:
64,192,43347,1,0,0:0:0:0:
192,192,43347,1,0,0:0:0:0:
320,192,43550,1,0,0:0:0:0:
448,192,43550,1,0,0:0:0:0:
64,192,43752,1,0,0:0:0:0:
192,192,43752,1,0,0:0:0:0:
320,192,43955,1,0,0:0:0:0:
448,192,43955,1,0,0:0:0:0:
64,192,44158,1,0,0:0:0:0:
192,192,44158,1,0,0:0:0:0:
320,192,44361,1,0,0:0:0:0:
448,192,44361,1,0,0:0:0:0:
448,192,44563,128,0,46185:0:0:0:0:
320,192,45577,1,0,0:0:0:0:
192,192,45779,1,0,0:0:0:0:
64,192,45982,1,0,0:0:0:0:
192,192,46185,1,0,0:0:0:0:
320,192,46185,1,0,0:0:0:0:
64,192,46590,1,0,0:0:0:0:
192,192,46590,1,0,0:0:0:0:
320,192,46590,1,0,0:0:0:0:
448,192,46793,1,0,0:0:0:0:
192,192,46894,1,0,0:0:0:0:
320,192,46894,1,0,0:0:0:0:
64,192,46996,1,0,0:0:0:0:
448,192,47097,1,0,0:0:0:0:
320,192,47097,1,0,0:0:0:0:
64,192,47198,1,0,0:0:0:0:
192,192,47198,1,0,0:0:0:0:
320,192,47198,1,0,0:0:0:0:
448,192,47401,1,0,0:0:0:0:
320,192,47401,1,0,0:0:0:0:
64,192,47401,1,0,0:0:0:0:
320,192,47604,1,0,0:0:0:0:
64,192,47807,1,0,0:0:0:0:
192,192,47807,1,0,0:0:0:0:
448,192,47807,1,0,0:0:0:0:
320,192,48009,1,0,0:0:0:0:
64,192,48212,1,0,0:0:0:0:
192,192,48212,1,0,0:0:0:0:
320,192,48212,1,0,0:0:0:0:
448,192,48415,1,0,0:0:0:0:
64,192,48516,1,0,0:0:0:0:
192,192,48516,1,0,0:0:0:0:
320,192,48617,1,0,0:0:0:0:
448,192,48617,1,0,0:0:0:0:
64,192,48719,1,0,0:0:0:0:
192,192,48719,1,0,0:0:0:0:
448,192,48820,1,0,0:0:0:0:
320,192,48820,1,0,0:0:0:0:
64,192,48820,1,0,0:0:0:0:
64,192,49023,1,0,0:0:0:0:
192,192,49023,1,0,0:0:0:0:
448,192,49023,1,0,0:0:0:0:
320,192,49225,1,0,0:0:0:0:
192,192,49428,128,0,49834:0:0:0:0:
320,192,49428,1,0,0:0:0:0:
64,192,49631,1,0,0:0:0:0:
320,192,49834,1,0,0:0:0:0:
448,192,49834,1,0,0:0:0:0:
64,192,49935,128,0,50138:0:0:0:0:
320,192,50239,128,0,50442:0:0:0:0:
448,192,50543,128,0,50847:0:0:0:0:
64,192,50644,1,0,0:0:0:0:
192,192,50644,1,0,0:0:0:0:
448,192,50948,1,0,0:0:0:0:
192,192,50948,1,0,0:0:0:0:
448,192,51050,128,0,51354:0:0:0:0:
64,192,51252,1,0,0:0:0:0:
64,192,51455,1,0,0:0:0:0:
192,192,51455,1,0,0:0:0:0:
320,192,51455,1,0,0:0:0:0:
64,192,51658,1,0,0:0:0:0:
192,192,51759,1,0,0:0:0:0:
320,192,51759,1,0,0:0:0:0:
448,192,51861,1,0,0:0:0:0:
64,192,51962,1,0,0:0:0:0:
192,192,51962,1,0,0:0:0:0:
448,192,52063,1,0,0:0:0:0:
320,192,52063,1,0,0:0:0:0:
192,192,52063,1,0,0:0:0:0:
64,192,52266,1,0,0:0:0:0:
192,192,52266,1,0,0:0:0:0:
448,192,52266,1,0,0:0:0:0:
320,192,52469,1,0,0:0:0:0:
64,192,52671,1,0,0:0:0:0:
192,192,52671,1,0,0:0:0:0:
448,192,52874,1,0,0:0:0:0:
64,192,53077,1,0,0:0:0:0:
320,192,53077,1,0,0:0:0:0:
448,192,53279,1,0,0:0:0:0:
320,192,53279,1,0,0:0:0:0:
192,192,53279,1,0,0:0:0:0:
64,192,53482,1,0,0:0:0:0:
192,192,53482,1,0,0:0:0:0:
320,192,53482,1,0,0:0:0:0:
448,192,53685,1,0,0:0:0:0:
320,192,53685,1,0,0:0:0:0:
192,192,53685,1,0,0:0:0:0:
64,192,53888,1,0,0:0:0:0:
192,192,53888,1,0,0:0:0:0:
320,192,53888,1,0,0:0:0:0:
192,192,54090,1,0,0:0:0:0:
320,192,54090,1,0,0:0:0:0:
64,192,54293,1,0,0:0:0:0:
64,192,54698,1,0,0:0:0:0:
192,192,54698,1,0,0:0:0:0:
64,192,55104,1,0,0:0:0:0:
192,192,55104,1,0,0:0:0:0:
320,192,55104,1,0,0:0:0:0:
64,192,55509,1,0,0:0:0:0:
192,192,55509,1,0,0:0:0:0:
448,192,55509,1,0,0:0:0:0:
320,192,55509,1,0,0:0:0:0:
448,192,55915,1,0,0:0:0:0:
320,192,56320,1,0,0:0:0:0:
448,192,56320,1,0,0:0:0:0:
448,192,56725,1,0,0:0:0:0:
320,192,56725,1,0,0:0:0:0:
192,192,56725,1,0,0:0:0:0:
448,192,57131,1,0,0:0:0:0:
320,192,57131,1,0,0:0:0:0:
192,192,57131,1,0,0:0:0:0:
64,192,57131,1,0,0:0:0:0:
64,192,57435,1,0,0:0:0:0:
192,192,57435,1,0,0:0:0:0:
320,192,57638,1,0,0:0:0:0:
448,192,57638,1,0,0:0:0:0:
64,192,57840,1,0,0:0:0:0:
192,192,57840,1,0,0:0:0:0:
320,192,58043,1,0,0:0:0:0:
448,192,58043,1,0,0:0:0:0:
64,192,58246,1,0,0:0:0:0:
192,192,58246,1,0,0:0:0:0:
320,192,58448,1,0,0:0:0:0:
448,192,58448,1,0,0:0:0:0:
64,192,58651,1,0,0:0:0:0:
192,192,58651,1,0,0:0:0:0:
448,192,58854,1,0,0:0:0:0:
320,192,58854,128,0,59969:0:0:0:0:
