osu file format v14

[General]
AudioFilename: audio.mp3
AudioLeadIn: 0
PreviewTime: -1
Countdown: 1
SampleSet: None
StackLeniency: 0.7
Mode: 1
LetterboxInBreaks: 0
WidescreenStoryboard: 0

[Editor]
Bookmarks: 13710,20567,27424,34281,35996,49710,63424,78853,92567,106281,119996,133710,135424,149138,162853
DistanceSpacing: 0.8
BeatDivisor: 8
GridSize: 32
TimelineZoom: 2.2

[Metadata]
Title:Ultimate Destruction
TitleUnicode:Ultimate Destruction
Artist:TMM43
ArtistUnicode:TMM43
Creator:Grimbow
Version:Oni
Source:
Tags:
BeatmapID:1825830
BeatmapSetID:873480

[Difficulty]
HPDrainRate:7.5
CircleSize:5
OverallDifficulty:5
ApproachRate:5
SliderMultiplier:1.4
SliderTickRate:1

[Events]
//Background and Video events
0,0,"Ultwep.png",0,0
//Break Periods
//Storyboard Layer 0 (Background)
//Storyboard Layer 1 (Fail)
//Storyboard Layer 2 (Pass)
//Storyboard Layer 3 (Foreground)
//Storyboard Sound Samples

[TimingPoints]
-4,428.571428571429,4,1,0,65,1,0
35996,-100,4,1,0,65,0,1
63424,-100,4,1,0,65,0,0

[HitObjects]
256,192,13710,5,0,0:0:0:0:
256,192,13817,1,0,0:0:0:0:
256,192,13924,1,0,0:0:0:0:
256,192,14031,1,8,0:0:0:0:
256,192,14353,1,8,0:0:0:0:
256,192,14567,1,8,0:0:0:0:
256,192,14674,1,8,0:0:0:0:
256,192,14781,1,8,0:0:0:0:
256,192,14888,1,8,0:0:0:0:
256,192,15210,1,8,0:0:0:0:
256,192,15424,1,0,0:0:0:0:
256,192,15531,1,0,0:0:0:0:
256,192,15638,1,0,0:0:0:0:
256,192,15746,1,8,0:0:0:0:
256,192,16067,1,8,0:0:0:0:
256,192,16281,1,8,0:0:0:0:
256,192,16388,1,0,0:0:0:0:
256,192,16496,1,0,0:0:0:0:
256,192,16603,1,8,0:0:0:0:
256,192,16710,1,8,0:0:0:0:
256,192,16924,1,8,0:0:0:0:
256,192,17031,1,8,0:0:0:0:
256,192,17138,1,8,0:0:0:0:
256,192,17460,1,8,0:0:0:0:
256,192,17781,1,8,0:0:0:0:
256,192,17996,1,8,0:0:0:0:
256,192,18317,1,0,0:0:0:0:
256,192,18638,1,0,0:0:0:0:
256,192,18853,1,8,0:0:0:0:
256,192,19174,1,0,0:0:0:0:
256,192,19496,1,0,0:0:0:0:
256,192,19710,1,8,0:0:0:0:
256,192,19924,1,8,0:0:0:0:
256,192,20138,1,0,0:0:0:0:
256,192,20353,1,8,0:0:0:0:
256,192,20567,1,0,0:0:0:0:
256,192,20674,1,0,0:0:0:0:
256,192,20781,1,0,0:0:0:0:
256,192,20888,1,8,0:0:0:0:
256,192,21103,1,0,0:0:0:0:
256,192,21210,1,8,0:0:0:0:
256,192,21424,1,8,0:0:0:0:
256,192,21531,1,8,0:0:0:0:
256,192,21638,1,8,0:0:0:0:
256,192,21746,1,8,0:0:0:0:
256,192,21960,1,8,0:0:0:0:
256,192,22067,1,0,0:0:0:0:
256,192,22281,1,0,0:0:0:0:
256,192,22388,1,0,0:0:0:0:
256,192,22496,1,0,0:0:0:0:
256,192,22603,1,8,0:0:0:0:
256,192,22817,1,0,0:0:0:0:
256,192,22924,1,8,0:0:0:0:
256,192,23138,1,8,0:0:0:0:
256,192,23246,1,0,0:0:0:0:
256,192,23353,1,0,0:0:0:0:
256,192,23460,1,8,0:0:0:0:
256,192,23567,1,8,0:0:0:0:
256,192,23781,1,8,0:0:0:0:
256,192,23888,1,8,0:0:0:0:
256,192,23996,1,8,0:0:0:0:
256,192,24103,1,0,0:0:0:0:
256,192,24210,1,0,0:0:0:0:
256,192,24317,1,8,0:0:0:0:
256,192,24531,1,0,0:0:0:0:
256,192,24638,1,8,0:0:0:0:
256,192,24853,1,8,0:0:0:0:
256,192,24960,1,0,0:0:0:0:
256,192,25067,1,8,0:0:0:0:
256,192,25174,1,0,0:0:0:0:
256,192,25388,1,0,0:0:0:0:
256,192,25496,1,0,0:0:0:0:
256,192,25710,1,8,0:0:0:0:
256,192,25817,1,0,0:0:0:0:
256,192,25924,1,8,0:0:0:0:
256,192,26031,1,0,0:0:0:0:
256,192,26246,1,0,0:0:0:0:
256,192,26353,1,0,0:0:0:0:
256,192,26567,1,8,0:0:0:0:
256,192,26674,1,0,0:0:0:0:
256,192,26781,1,8,0:0:0:0:
256,192,26888,1,8,0:0:0:0:
256,192,26996,1,0,0:0:0:0:
256,192,27210,1,8,0:0:0:0:
256,192,27424,1,0,0:0:0:0:
256,192,27531,1,0,0:0:0:0:
256,192,27638,1,0,0:0:0:0:
256,192,27746,1,8,0:0:0:0:
256,192,27853,1,0,0:0:0:0:
256,192,27960,1,0,0:0:0:0:
256,192,28067,1,8,0:0:0:0:
256,192,28174,1,0,0:0:0:0:
256,192,28281,1,8,0:0:0:0:
256,192,28388,1,8,0:0:0:0:
256,192,28496,1,0,0:0:0:0:
256,192,28603,1,8,0:0:0:0:
256,192,28710,1,0,0:0:0:0:
256,192,28817,1,0,0:0:0:0:
256,192,28924,1,8,0:0:0:0:
256,192,29138,1,0,0:0:0:0:
256,192,29246,1,0,0:0:0:0:
256,192,29353,1,0,0:0:0:0:
256,192,29460,1,8,0:0:0:0:
256,192,29567,1,0,0:0:0:0:
256,192,29674,1,0,0:0:0:0:
256,192,29781,1,8,0:0:0:0:
256,192,29888,1,0,0:0:0:0:
256,192,29996,1,8,0:0:0:0:
256,192,30103,1,0,0:0:0:0:
256,192,30210,1,0,0:0:0:0:
256,192,30317,1,8,0:0:0:0:
256,192,30424,1,8,0:0:0:0:
256,192,30638,1,8,0:0:0:0:
256,192,30746,1,0,0:0:0:0:
256,192,30799,1,0,0:0:0:0:
256,192,30853,1,8,0:0:0:0:
256,192,30960,1,0,0:0:0:0:
256,192,31067,1,8,0:0:0:0:
256,192,31121,1,8,0:0:0:0:
256,192,31174,1,0,0:0:0:0:
256,192,31228,1,0,0:0:0:0:
256,192,31281,1,8,0:0:0:0:
256,192,31388,1,0,0:0:0:0:
256,192,31496,1,8,0:0:0:0:
256,192,31603,1,0,0:0:0:0:
256,192,31710,1,8,0:0:0:0:
256,192,31763,1,8,0:0:0:0:
256,192,31817,1,0,0:0:0:0:
256,192,31924,1,0,0:0:0:0:
256,192,32031,1,8,0:0:0:0:
256,192,32085,1,8,0:0:0:0:
256,192,32138,1,0,0:0:0:0:
256,192,32246,1,0,0:0:0:0:
256,192,32353,1,8,0:0:0:0:
256,192,32460,1,0,0:0:0:0:
256,192,32567,1,8,0:0:0:0:
256,192,32621,1,8,0:0:0:0:
256,192,32674,1,0,0:0:0:0:
256,192,32781,1,0,0:0:0:0:
256,192,32888,1,8,0:0:0:0:
256,192,32942,1,8,0:0:0:0:
256,192,32996,1,0,0:0:0:0:
256,192,33103,1,0,0:0:0:0:
256,192,33210,1,8,0:0:0:0:
256,192,33317,1,0,0:0:0:0:
256,192,33424,1,8,0:0:0:0:
256,192,33531,1,0,0:0:0:0:
256,192,33638,1,8,0:0:0:0:
256,192,33746,1,0,0:0:0:0:
256,192,33853,1,8,0:0:0:0:
256,192,33960,1,0,0:0:0:0:
256,192,34067,1,8,0:0:0:0:
256,192,34281,1,12,0:0:0:0:
256,192,34603,1,0,0:0:0:0:
256,192,34924,1,0,0:0:0:0:
256,192,35567,1,0,0:0:0:0:
256,192,35996,1,8,0:0:0:0:
256,192,36103,1,0,0:0:0:0:
256,192,36210,1,0,0:0:0:0:
256,192,36317,1,8,0:0:0:0:
256,192,36424,1,0,0:0:0:0:
256,192,36531,1,0,0:0:0:0:
256,192,36638,1,8,0:0:0:0:
256,192,36746,1,0,0:0:0:0:
256,192,36853,1,8,0:0:0:0:
256,192,36960,1,8,0:0:0:0:
256,192,37067,1,0,0:0:0:0:
256,192,37174,1,8,0:0:0:0:
256,192,37281,1,8,0:0:0:0:
256,192,37388,1,0,0:0:0:0:
256,192,37496,1,8,0:0:0:0:
256,192,37603,1,0,0:0:0:0:
256,192,37710,1,8,0:0:0:0:
256,192,37817,1,0,0:0:0:0:
256,192,37924,1,0,0:0:0:0:
256,192,38031,1,8,0:0:0:0:
256,192,38138,1,0,0:0:0:0:
256,192,38246,1,0,0:0:0:0:
256,192,38353,1,8,0:0:0:0:
256,192,38460,1,0,0:0:0:0:
256,192,38567,1,8,0:0:0:0:
256,192,38674,1,8,0:0:0:0:
256,192,38781,1,0,0:0:0:0:
256,192,38888,1,8,0:0:0:0:
256,192,38996,1,8,0:0:0:0:
256,192,39103,1,0,0:0:0:0:
256,192,39210,1,8,0:0:0:0:
256,192,39317,1,8,0:0:0:0:
256,192,39424,1,8,0:0:0:0:
256,192,39531,1,0,0:0:0:0:
256,192,39638,1,0,0:0:0:0:
256,192,39746,1,8,0:0:0:0:
256,192,39853,1,0,0:0:0:0:
256,192,39960,1,0,0:0:0:0:
256,192,40067,1,8,0:0:0:0:
256,192,40174,1,0,0:0:0:0:
256,192,40281,1,8,0:0:0:0:
256,192,40388,1,8,0:0:0:0:
256,192,40496,1,0,0:0:0:0:
256,192,40603,1,8,0:0:0:0:
256,192,40710,1,8,0:0:0:0:
256,192,40817,1,0,0:0:0:0:
256,192,40924,1,8,0:0:0:0:
256,192,41031,1,8,0:0:0:0:
256,192,41138,1,8,0:0:0:0:
256,192,41246,1,0,0:0:0:0:
256,192,41353,1,0,0:0:0:0:
256,192,41460,1,8,0:0:0:0:
256,192,41567,1,0,0:0:0:0:
256,192,41674,1,0,0:0:0:0:
256,192,41781,1,8,0:0:0:0:
256,192,41888,1,0,0:0:0:0:
256,192,41996,1,8,0:0:0:0:
256,192,42103,1,8,0:0:0:0:
256,192,42210,1,0,0:0:0:0:
256,192,42317,1,8,0:0:0:0:
256,192,42424,1,8,0:0:0:0:
256,192,42531,1,0,0:0:0:0:
256,192,42638,1,8,0:0:0:0:
256,192,42746,1,8,0:0:0:0:
256,192,42853,1,8,0:0:0:0:
256,192,42960,1,0,0:0:0:0:
256,192,43067,1,0,0:0:0:0:
256,192,43174,1,8,0:0:0:0:
256,192,43281,1,0,0:0:0:0:
256,192,43388,1,0,0:0:0:0:
256,192,43496,1,8,0:0:0:0:
256,192,43603,1,0,0:0:0:0:
256,192,43710,1,8,0:0:0:0:
256,192,43817,1,8,0:0:0:0:
256,192,43924,1,0,0:0:0:0:
256,192,44031,1,8,0:0:0:0:
256,192,44138,1,8,0:0:0:0:
256,192,44246,1,0,0:0:0:0:
256,192,44353,1,8,0:0:0:0:
256,192,44460,1,0,0:0:0:0:
256,192,44567,1,8,0:0:0:0:
256,192,44674,1,0,0:0:0:0:
256,192,44781,1,0,0:0:0:0:
256,192,44888,1,8,0:0:0:0:
256,192,44996,1,0,0:0:0:0:
256,192,45103,1,0,0:0:0:0:
256,192,45210,1,8,0:0:0:0:
256,192,45317,1,0,0:0:0:0:
256,192,45424,1,8,0:0:0:0:
256,192,45531,1,8,0:0:0:0:
256,192,45638,1,0,0:0:0:0:
256,192,45746,1,8,0:0:0:0:
256,192,45853,1,8,0:0:0:0:
256,192,45960,1,0,0:0:0:0:
256,192,46067,1,8,0:0:0:0:
256,192,46174,1,8,0:0:0:0:
256,192,46281,1,8,0:0:0:0:
256,192,46388,1,0,0:0:0:0:
256,192,46496,1,0,0:0:0:0:
256,192,46603,1,8,0:0:0:0:
256,192,46710,1,0,0:0:0:0:
256,192,46817,1,0,0:0:0:0:
256,192,46924,1,8,0:0:0:0:
256,192,47031,1,0,0:0:0:0:
256,192,47138,1,8,0:0:0:0:
256,192,47246,1,8,0:0:0:0:
256,192,47353,1,0,0:0:0:0:
256,192,47460,1,8,0:0:0:0:
256,192,47567,1,8,0:0:0:0:
256,192,47674,1,0,0:0:0:0:
256,192,47781,1,8,0:0:0:0:
256,192,47888,1,0,0:0:0:0:
256,192,47996,1,8,0:0:0:0:
256,192,48103,1,0,0:0:0:0:
256,192,48210,1,0,0:0:0:0:
256,192,48317,1,8,0:0:0:0:
256,192,48424,1,0,0:0:0:0:
256,192,48531,1,0,0:0:0:0:
256,192,48638,1,8,0:0:0:0:
256,192,48746,1,0,0:0:0:0:
256,192,48853,1,8,0:0:0:0:
256,192,48960,1,0,0:0:0:0:
256,192,49067,1,8,0:0:0:0:
256,192,49174,1,8,0:0:0:0:
256,192,49281,1,8,0:0:0:0:
256,192,49388,1,0,0:0:0:0:
256,192,49496,1,8,0:0:0:0:
256,192,49603,1,8,0:0:0:0:
256,192,49710,1,0,0:0:0:0:
256,192,49817,1,8,0:0:0:0:
256,192,49924,1,0,0:0:0:0:
256,192,50031,1,0,0:0:0:0:
256,192,50138,1,8,0:0:0:0:
256,192,50246,1,0,0:0:0:0:
256,192,50353,1,8,0:0:0:0:
256,192,50460,1,8,0:0:0:0:
256,192,50567,1,0,0:0:0:0:
256,192,50674,1,8,0:0:0:0:
256,192,50781,1,0,0:0:0:0:
256,192,50888,1,0,0:0:0:0:
256,192,50996,1,8,0:0:0:0:
256,192,51103,1,0,0:0:0:0:
256,192,51210,1,8,0:0:0:0:
256,192,51317,1,8,0:0:0:0:
256,192,51424,1,0,0:0:0:0:
256,192,51531,1,8,0:0:0:0:
256,192,51638,1,0,0:0:0:0:
256,192,51746,1,0,0:0:0:0:
256,192,51853,1,8,0:0:0:0:
256,192,51960,1,0,0:0:0:0:
256,192,52067,1,8,0:0:0:0:
256,192,52174,1,8,0:0:0:0:
256,192,52281,1,0,0:0:0:0:
256,192,52388,1,8,0:0:0:0:
256,192,52496,1,0,0:0:0:0:
256,192,52603,1,0,0:0:0:0:
256,192,52710,1,8,0:0:0:0:
256,192,52817,1,0,0:0:0:0:
256,192,52924,1,8,0:0:0:0:
256,192,53031,1,8,0:0:0:0:
256,192,53138,1,8,0:0:0:0:
256,192,53246,1,0,0:0:0:0:
256,192,53353,1,8,0:0:0:0:
256,192,53460,1,8,0:0:0:0:
256,192,53567,1,0,0:0:0:0:
256,192,53674,1,8,0:0:0:0:
256,192,53781,1,0,0:0:0:0:
256,192,53888,1,0,0:0:0:0:
256,192,53996,1,8,0:0:0:0:
256,192,54103,1,0,0:0:0:0:
256,192,54210,1,8,0:0:0:0:
256,192,54317,1,8,0:0:0:0:
256,192,54424,1,0,0:0:0:0:
256,192,54531,1,0,0:0:0:0:
256,192,54638,1,8,0:0:0:0:
256,192,54746,1,8,0:0:0:0:
256,192,54853,1,8,0:0:0:0:
256,192,54960,1,0,0:0:0:0:
256,192,55067,1,8,0:0:0:0:
256,192,55174,1,8,0:0:0:0:
256,192,55281,1,0,0:0:0:0:
256,192,55388,1,8,0:0:0:0:
256,192,55496,1,0,0:0:0:0:
256,192,55603,1,0,0:0:0:0:
256,192,55710,1,8,0:0:0:0:
256,192,55817,1,0,0:0:0:0:
256,192,55924,1,8,0:0:0:0:
256,192,56031,1,8,0:0:0:0:
256,192,56138,1,0,0:0:0:0:
256,192,56246,1,8,0:0:0:0:
256,192,56353,1,8,0:0:0:0:
256,192,56460,1,8,0:0:0:0:
256,192,56567,1,0,0:0:0:0:
256,192,56674,1,8,0:0:0:0:
256,192,56781,1,0,0:0:0:0:
256,192,56888,1,0,0:0:0:0:
256,192,56996,1,8,0:0:0:0:
256,192,57103,1,0,0:0:0:0:
256,192,57210,1,8,0:0:0:0:
256,192,57317,1,8,0:0:0:0:
256,192,57424,1,0,0:0:0:0:
256,192,57531,1,8,0:0:0:0:
256,192,57638,1,0,0:0:0:0:
256,192,57746,1,0,0:0:0:0:
256,192,57853,1,8,0:0:0:0:
256,192,57960,1,0,0:0:0:0:
256,192,58067,1,8,0:0:0:0:
256,192,58174,1,8,0:0:0:0:
256,192,58281,1,0,0:0:0:0:
256,192,58388,1,8,0:0:0:0:
256,192,58496,1,0,0:0:0:0:
256,192,58603,1,0,0:0:0:0:
256,192,58710,1,8,0:0:0:0:
256,192,58817,1,0,0:0:0:0:
256,192,58924,1,0,0:0:0:0:
256,192,59031,1,8,0:0:0:0:
256,192,59138,1,8,0:0:0:0:
256,192,59246,1,0,0:0:0:0:
256,192,59353,1,8,0:0:0:0:
256,192,59460,1,8,0:0:0:0:
256,192,59567,1,8,0:0:0:0:
256,192,59674,1,0,0:0:0:0:
256,192,59781,1,8,0:0:0:0:
256,192,59888,1,8,0:0:0:0:
256,192,59996,1,0,0:0:0:0:
256,192,60103,1,8,0:0:0:0:
256,192,60210,1,0,0:0:0:0:
256,192,60317,1,0,0:0:0:0:
256,192,60424,1,8,0:0:0:0:
256,192,60531,1,0,0:0:0:0:
256,192,60638,1,8,0:0:0:0:
256,192,60746,1,8,0:0:0:0:
256,192,60853,1,0,0:0:0:0:
256,192,60960,1,8,0:0:0:0:
256,192,61067,1,0,0:0:0:0:
256,192,61174,1,0,0:0:0:0:
256,192,61281,1,8,0:0:0:0:
256,192,61388,1,0,0:0:0:0:
256,192,61496,1,8,0:0:0:0:
256,192,61603,1,8,0:0:0:0:
256,192,61710,1,0,0:0:0:0:
256,192,61817,1,8,0:0:0:0:
256,192,61924,1,8,0:0:0:0:
256,192,62031,1,0,0:0:0:0:
256,192,62138,1,8,0:0:0:0:
256,192,62246,1,0,0:0:0:0:
256,192,62353,1,8,0:0:0:0:
256,192,62460,1,8,0:0:0:0:
256,192,62567,1,0,0:0:0:0:
256,192,62674,1,8,0:0:0:0:
256,192,62781,1,8,0:0:0:0:
256,192,62888,1,0,0:0:0:0:
256,192,62996,1,8,0:0:0:0:
256,192,63103,1,0,0:0:0:0:
256,192,63210,1,8,0:0:0:0:
256,192,63317,1,8,0:0:0:0:
256,192,63424,1,4,0:0:0:0:
256,192,63746,1,0,0:0:0:0:
256,192,64067,1,8,0:0:0:0:
256,192,64138,1,0,0:0:0:0:
256,192,64210,1,0,0:0:0:0:
256,192,64281,1,8,0:0:0:0:
256,192,64710,1,0,0:0:0:0:
256,192,65138,1,12,0:0:0:0:
