osu file format v14

[General]
AudioFilename: audio.mp3
AudioLeadIn: 0
PreviewTime: -1
Countdown: 1
SampleSet: None
StackLeniency: 0.7
Mode: 1
LetterboxInBreaks: 0
WidescreenStoryboard: 1

[Editor]
Bookmarks: 13710,20567,27424,34281,35996,49710,63424,78853,92567,106281,119996,133710,135424,149138,162853
DistanceSpacing: 0.8
BeatDivisor: 8
GridSize: 32
TimelineZoom: 2.2

[Metadata]
Title:Ultimate Destruction
TitleUnicode:Ultimate Destruction
Artist:TMM43
ArtistUnicode:TMM43
Creator:Grimbow
Version:Oni (Full)
Source:
Tags:
BeatmapID:1825829
BeatmapSetID:873480

[Difficulty]
HPDrainRate:7.5
CircleSize:5
OverallDifficulty:5
ApproachRate:5
SliderMultiplier:1.4
SliderTickRate:1

[Events]
//Background and Video events
0,0,"Ultwep.png",0,0
//Break Periods
//Storyboard Layer 0 (Background)
//Storyboard Layer 1 (Fail)
//Storyboard Layer 2 (Pass)
//Storyboard Layer 3 (Foreground)
//Storyboard Sound Samples

[TimingPoints]
-4,428.571428571429,4,1,0,65,1,0
35996,-100,4,1,0,65,0,1
63424,-100,4,1,0,65,0,0
106281,-100,4,1,0,65,0,1
133710,-100,4,1,0,65,0,0

[HitObjects]
256,192,13710,5,0,0:0:0:0:
256,192,13817,1,0,0:0:0:0:
256,192,13924,1,0,0:0:0:0:
256,192,14031,1,8,0:0:0:0:
256,192,14353,1,8,0:0:0:0:
256,192,14567,1,8,0:0:0:0:
256,192,14674,1,8,0:0:0:0:
256,192,14781,1,8,0:0:0:0:
256,192,14888,1,8,0:0:0:0:
256,192,15210,1,8,0:0:0:0:
256,192,15424,1,0,0:0:0:0:
256,192,15531,1,0,0:0:0:0:
256,192,15638,1,0,0:0:0:0:
256,192,15746,1,8,0:0:0:0:
256,192,16067,1,8,0:0:0:0:
256,192,16281,1,8,0:0:0:0:
256,192,16388,1,0,0:0:0:0:
256,192,16496,1,0,0:0:0:0:
256,192,16603,1,8,0:0:0:0:
256,192,16710,1,8,0:0:0:0:
256,192,16924,1,8,0:0:0:0:
256,192,17031,1,8,0:0:0:0:
256,192,17138,1,8,0:0:0:0:
256,192,17460,1,8,0:0:0:0:
256,192,17781,1,8,0:0:0:0:
256,192,17996,1,8,0:0:0:0:
256,192,18317,1,0,0:0:0:0:
256,192,18638,1,0,0:0:0:0:
256,192,18853,1,8,0:0:0:0:
256,192,19174,1,0,0:0:0:0:
256,192,19496,1,0,0:0:0:0:
256,192,19710,1,8,0:0:0:0:
256,192,19924,1,8,0:0:0:0:
256,192,20138,1,0,0:0:0:0:
256,192,20353,1,8,0:0:0:0:
256,192,20567,1,0,0:0:0:0:
256,192,20674,1,0,0:0:0:0:
256,192,20781,1,0,0:0:0:0:
256,192,20888,1,8,0:0:0:0:
256,192,21103,1,0,0:0:0:0:
256,192,21210,1,8,0:0:0:0:
256,192,21424,1,8,0:0:0:0:
256,192,21531,1,8,0:0:0:0:
256,192,21638,1,8,0:0:0:0:
256,192,21746,1,8,0:0:0:0:
256,192,21960,1,8,0:0:0:0:
256,192,22067,1,0,0:0:0:0:
256,192,22281,1,0,0:0:0:0:
256,192,22388,1,0,0:0:0:0:
256,192,22496,1,0,0:0:0:0:
256,192,22603,1,8,0:0:0:0:
256,192,22817,1,0,0:0:0:0:
256,192,22924,1,8,0:0:0:0:
256,192,23138,1,8,0:0:0:0:
256,192,23246,1,0,0:0:0:0:
256,192,23353,1,0,0:0:0:0:
256,192,23460,1,8,0:0:0:0:
256,192,23567,1,8,0:0:0:0:
256,192,23781,1,8,0:0:0:0:
256,192,23888,1,8,0:0:0:0:
256,192,23996,1,8,0:0:0:0:
256,192,24103,1,0,0:0:0:0:
256,192,24210,1,0,0:0:0:0:
256,192,24317,1,8,0:0:0:0:
256,192,24531,1,0,0:0:0:0:
256,192,24638,1,8,0:0:0:0:
256,192,24853,1,8,0:0:0:0:
256,192,24960,1,0,0:0:0:0:
256,192,25067,1,8,0:0:0:0:
256,192,25174,1,0,0:0:0:0:
256,192,25388,1,0,0:0:0:0:
256,192,25496,1,0,0:0:0:0:
256,192,25710,1,8,0:0:0:0:
256,192,25817,1,0,0:0:0:0:
256,192,25924,1,8,0:0:0:0:
256,192,26031,1,0,0:0:0:0:
256,192,26246,1,0,0:0:0:0:
256,192,26353,1,0,0:0:0:0:
256,192,26567,1,8,0:0:0:0:
256,192,26674,1,0,0:0:0:0:
256,192,26781,1,8,0:0:0:0:
256,192,26888,1,8,0:0:0:0:
256,192,26996,1,0,0:0:0:0:
256,192,27210,1,8,0:0:0:0:
256,192,27424,1,0,0:0:0:0:
256,192,27531,1,0,0:0:0:0:
256,192,27638,1,0,0:0:0:0:
256,192,27746,1,8,0:0:0:0:
256,192,27853,1,0,0:0:0:0:
256,192,27960,1,0,0:0:0:0:
256,192,28067,1,8,0:0:0:0:
256,192,28174,1,0,0:0:0:0:
256,192,28281,1,8,0:0:0:0:
256,192,28388,1,8,0:0:0:0:
256,192,28496,1,0,0:0:0:0:
256,192,28603,1,8,0:0:0:0:
256,192,28710,1,0,0:0:0:0:
256,192,28817,1,0,0:0:0:0:
256,192,28924,1,8,0:0:0:0:
256,192,29138,1,0,0:0:0:0:
256,192,29246,1,0,0:0:0:0:
256,192,29353,1,0,0:0:0:0:
256,192,29460,1,8,0:0:0:0:
256,192,29567,1,0,0:0:0:0:
256,192,29674,1,0,0:0:0:0:
256,192,29781,1,8,0:0:0:0:
256,192,29888,1,0,0:0:0:0:
256,192,29996,1,8,0:0:0:0:
256,192,30103,1,0,0:0:0:0:
256,192,30210,1,0,0:0:0:0:
256,192,30317,1,8,0:0:0:0:
256,192,30424,1,8,0:0:0:0:
256,192,30638,1,8,0:0:0:0:
256,192,30746,1,0,0:0:0:0:
256,192,30799,1,0,0:0:0:0:
256,192,30853,1,8,0:0:0:0:
256,192,30960,1,0,0:0:0:0:
256,192,31067,1,8,0:0:0:0:
256,192,31121,1,8,0:0:0:0:
256,192,31174,1,0,0:0:0:0:
256,192,31228,1,0,0:0:0:0:
256,192,31281,1,8,0:0:0:0:
256,192,31388,1,0,0:0:0:0:
256,192,31496,1,8,0:0:0:0:
256,192,31603,1,0,0:0:0:0:
256,192,31710,1,8,0:0:0:0:
256,192,31763,1,8,0:0:0:0:
256,192,31817,1,0,0:0:0:0:
256,192,31924,1,0,0:0:0:0:
256,192,32031,1,8,0:0:0:0:
256,192,32085,1,8,0:0:0:0:
256,192,32138,1,0,0:0:0:0:
256,192,32246,1,0,0:0:0:0:
256,192,32353,1,8,0:0:0:0:
256,192,32460,1,0,0:0:0:0:
256,192,32567,1,8,0:0:0:0:
256,192,32621,1,8,0:0:0:0:
256,192,32674,1,0,0:0:0:0:
256,192,32781,1,0,0:0:0:0:
256,192,32888,1,8,0:0:0:0:
256,192,32942,1,8,0:0:0:0:
256,192,32996,1,0,0:0:0:0:
256,192,33103,1,0,0:0:0:0:
256,192,33210,1,8,0:0:0:0:
256,192,33317,1,0,0:0:0:0:
256,192,33424,1,8,0:0:0:0:
256,192,33531,1,0,0:0:0:0:
256,192,33638,1,8,0:0:0:0:
256,192,33746,1,0,0:0:0:0:
256,192,33853,1,8,0:0:0:0:
256,192,33960,1,0,0:0:0:0:
256,192,34067,1,8,0:0:0:0:
256,192,34281,1,12,0:0:0:0:
256,192,34603,1,0,0:0:0:0:
256,192,34924,1,0,0:0:0:0:
256,192,35567,1,0,0:0:0:0:
256,192,35996,1,8,0:0:0:0:
256,192,36103,1,0,0:0:0:0:
256,192,36210,1,0,0:0:0:0:
256,192,36317,1,8,0:0:0:0:
256,192,36424,1,0,0:0:0:0:
256,192,36531,1,0,0:0:0:0:
256,192,36638,1,8,0:0:0:0:
256,192,36746,1,0,0:0:0:0:
256,192,36853,1,8,0:0:0:0:
256,192,36960,1,8,0:0:0:0:
256,192,37067,1,0,0:0:0:0:
256,192,37174,1,8,0:0:0:0:
256,192,37281,1,8,0:0:0:0:
256,192,37388,1,0,0:0:0:0:
256,192,37496,1,8,0:0:0:0:
256,192,37603,1,0,0:0:0:0:
256,192,37710,1,8,0:0:0:0:
256,192,37817,1,0,0:0:0:0:
256,192,37924,1,0,0:0:0:0:
256,192,38031,1,8,0:0:0:0:
256,192,38138,1,0,0:0:0:0:
256,192,38246,1,0,0:0:0:0:
256,192,38353,1,8,0:0:0:0:
256,192,38460,1,0,0:0:0:0:
256,192,38567,1,8,0:0:0:0:
256,192,38674,1,8,0:0:0:0:
256,192,38781,1,0,0:0:0:0:
256,192,38888,1,8,0:0:0:0:
256,192,38996,1,8,0:0:0:0:
256,192,39103,1,0,0:0:0:0:
256,192,39210,1,8,0:0:0:0:
256,192,39317,1,8,0:0:0:0:
256,192,39424,1,8,0:0:0:0:
256,192,39531,1,0,0:0:0:0:
256,192,39638,1,0,0:0:0:0:
256,192,39746,1,8,0:0:0:0:
256,192,39853,1,0,0:0:0:0:
256,192,39960,1,0,0:0:0:0:
256,192,40067,1,8,0:0:0:0:
256,192,40174,1,0,0:0:0:0:
256,192,40281,1,8,0:0:0:0:
256,192,40388,1,8,0:0:0:0:
256,192,40496,1,0,0:0:0:0:
256,192,40603,1,8,0:0:0:0:
256,192,40710,1,8,0:0:0:0:
256,192,40817,1,0,0:0:0:0:
256,192,40924,1,8,0:0:0:0:
256,192,41031,1,8,0:0:0:0:
256,192,41138,1,8,0:0:0:0:
256,192,41246,1,0,0:0:0:0:
256,192,41353,1,0,0:0:0:0:
256,192,41460,1,8,0:0:0:0:
256,192,41567,1,0,0:0:0:0:
256,192,41674,1,0,0:0:0:0:
256,192,41781,1,8,0:0:0:0:
256,192,41888,1,0,0:0:0:0:
256,192,41996,1,8,0:0:0:0:
256,192,42103,1,8,0:0:0:0:
256,192,42210,1,0,0:0:0:0:
256,192,42317,1,8,0:0:0:0:
256,192,42424,1,8,0:0:0:0:
256,192,42531,1,0,0:0:0:0:
256,192,42638,1,8,0:0:0:0:
256,192,42746,1,8,0:0:0:0:
256,192,42853,1,8,0:0:0:0:
256,192,42960,1,0,0:0:0:0:
256,192,43067,1,0,0:0:0:0:
256,192,43174,1,8,0:0:0:0:
256,192,43281,1,0,0:0:0:0:
256,192,43388,1,0,0:0:0:0:
256,192,43496,1,8,0:0:0:0:
256,192,43603,1,0,0:0:0:0:
256,192,43710,1,8,0:0:0:0:
256,192,43817,1,8,0:0:0:0:
256,192,43924,1,0,0:0:0:0:
256,192,44031,1,8,0:0:0:0:
256,192,44138,1,8,0:0:0:0:
256,192,44246,1,0,0:0:0:0:
256,192,44353,1,8,0:0:0:0:
256,192,44460,1,0,0:0:0:0:
256,192,44567,1,8,0:0:0:0:
256,192,44674,1,0,0:0:0:0:
256,192,44781,1,0,0:0:0:0:
256,192,44888,1,8,0:0:0:0:
256,192,44996,1,0,0:0:0:0:
256,192,45103,1,0,0:0:0:0:
256,192,45210,1,8,0:0:0:0:
256,192,45317,1,0,0:0:0:0:
256,192,45424,1,8,0:0:0:0:
256,192,45531,1,8,0:0:0:0:
256,192,45638,1,0,0:0:0:0:
256,192,45746,1,8,0:0:0:0:
256,192,45853,1,8,0:0:0:0:
256,192,45960,1,0,0:0:0:0:
256,192,46067,1,8,0:0:0:0:
256,192,46174,1,8,0:0:0:0:
256,192,46281,1,8,0:0:0:0:
256,192,46388,1,0,0:0:0:0:
256,192,46496,1,0,0:0:0:0:
256,192,46603,1,8,0:0:0:0:
256,192,46710,1,0,0:0:0:0:
256,192,46817,1,0,0:0:0:0:
256,192,46924,1,8,0:0:0:0:
256,192,47031,1,0,0:0:0:0:
256,192,47138,1,8,0:0:0:0:
256,192,47246,1,8,0:0:0:0:
256,192,47353,1,0,0:0:0:0:
256,192,47460,1,8,0:0:0:0:
256,192,47567,1,8,0:0:0:0:
256,192,47674,1,0,0:0:0:0:
256,192,47781,1,8,0:0:0:0:
256,192,47888,1,0,0:0:0:0:
256,192,47996,1,8,0:0:0:0:
256,192,48103,1,0,0:0:0:0:
256,192,48210,1,0,0:0:0:0:
256,192,48317,1,8,0:0:0:0:
256,192,48424,1,0,0:0:0:0:
256,192,48531,1,0,0:0:0:0:
256,192,48638,1,8,0:0:0:0:
256,192,48746,1,0,0:0:0:0:
256,192,48853,1,8,0:0:0:0:
256,192,48960,1,0,0:0:0:0:
256,192,49067,1,8,0:0:0:0:
256,192,49174,1,8,0:0:0:0:
256,192,49281,1,8,0:0:0:0:
256,192,49388,1,0,0:0:0:0:
256,192,49496,1,8,0:0:0:0:
256,192,49603,1,8,0:0:0:0:
256,192,49710,1,0,0:0:0:0:
256,192,49817,1,8,0:0:0:0:
256,192,49924,1,0,0:0:0:0:
256,192,50031,1,0,0:0:0:0:
256,192,50138,1,8,0:0:0:0:
256,192,50246,1,0,0:0:0:0:
256,192,50353,1,8,0:0:0:0:
256,192,50460,1,8,0:0:0:0:
256,192,50567,1,0,0:0:0:0:
256,192,50674,1,8,0:0:0:0:
256,192,50781,1,0,0:0:0:0:
256,192,50888,1,0,0:0:0:0:
256,192,50996,1,8,0:0:0:0:
256,192,51103,1,0,0:0:0:0:
256,192,51210,1,8,0:0:0:0:
256,192,51317,1,8,0:0:0:0:
256,192,51424,1,0,0:0:0:0:
256,192,51531,1,8,0:0:0:0:
256,192,51638,1,0,0:0:0:0:
256,192,51746,1,0,0:0:0:0:
256,192,51853,1,8,0:0:0:0:
256,192,51960,1,0,0:0:0:0:
256,192,52067,1,8,0:0:0:0:
256,192,52174,1,8,0:0:0:0:
256,192,52281,1,0,0:0:0:0:
256,192,52388,1,8,0:0:0:0:
256,192,52496,1,0,0:0:0:0:
256,192,52603,1,0,0:0:0:0:
256,192,52710,1,8,0:0:0:0:
256,192,52817,1,0,0:0:0:0:
256,192,52924,1,8,0:0:0:0:
256,192,53031,1,8,0:0:0:0:
256,192,53138,1,8,0:0:0:0:
256,192,53246,1,0,0:0:0:0:
256,192,53353,1,8,0:0:0:0:
256,192,53460,1,8,0:0:0:0:
256,192,53567,1,0,0:0:0:0:
256,192,53674,1,8,0:0:0:0:
256,192,53781,1,0,0:0:0:0:
256,192,53888,1,0,0:0:0:0:
256,192,53996,1,8,0:0:0:0:
256,192,54103,1,0,0:0:0:0:
256,192,54210,1,8,0:0:0:0:
256,192,54317,1,8,0:0:0:0:
256,192,54424,1,0,0:0:0:0:
256,192,54531,1,0,0:0:0:0:
256,192,54638,1,8,0:0:0:0:
256,192,54746,1,8,0:0:0:0:
256,192,54853,1,8,0:0:0:0:
256,192,54960,1,0,0:0:0:0:
256,192,55067,1,8,0:0:0:0:
256,192,55174,1,8,0:0:0:0:
256,192,55281,1,0,0:0:0:0:
256,192,55388,1,8,0:0:0:0:
256,192,55496,1,0,0:0:0:0:
256,192,55603,1,0,0:0:0:0:
256,192,55710,1,8,0:0:0:0:
256,192,55817,1,0,0:0:0:0:
256,192,55924,1,8,0:0:0:0:
256,192,56031,1,8,0:0:0:0:
256,192,56138,1,0,0:0:0:0:
256,192,56246,1,8,0:0:0:0:
256,192,56353,1,8,0:0:0:0:
256,192,56460,1,8,0:0:0:0:
256,192,56567,1,0,0:0:0:0:
256,192,56674,1,8,0:0:0:0:
256,192,56781,1,0,0:0:0:0:
256,192,56888,1,0,0:0:0:0:
256,192,56996,1,8,0:0:0:0:
256,192,57103,1,0,0:0:0:0:
256,192,57210,1,8,0:0:0:0:
256,192,57317,1,8,0:0:0:0:
256,192,57424,1,0,0:0:0:0:
256,192,57531,1,8,0:0:0:0:
256,192,57638,1,0,0:0:0:0:
256,192,57746,1,0,0:0:0:0:
256,192,57853,1,8,0:0:0:0:
256,192,57960,1,0,0:0:0:0:
256,192,58067,1,8,0:0:0:0:
256,192,58174,1,8,0:0:0:0:
256,192,58281,1,0,0:0:0:0:
256,192,58388,1,8,0:0:0:0:
256,192,58496,1,0,0:0:0:0:
256,192,58603,1,0,0:0:0:0:
256,192,58710,1,8,0:0:0:0:
256,192,58817,1,0,0:0:0:0:
256,192,58924,1,0,0:0:0:0:
256,192,59031,1,8,0:0:0:0:
256,192,59138,1,8,0:0:0:0:
256,192,59246,1,0,0:0:0:0:
256,192,59353,1,8,0:0:0:0:
256,192,59460,1,8,0:0:0:0:
256,192,59567,1,8,0:0:0:0:
256,192,59674,1,0,0:0:0:0:
256,192,59781,1,8,0:0:0:0:
256,192,59888,1,8,0:0:0:0:
256,192,59996,1,0,0:0:0:0:
256,192,60103,1,8,0:0:0:0:
256,192,60210,1,0,0:0:0:0:
256,192,60317,1,0,0:0:0:0:
256,192,60424,1,8,0:0:0:0:
256,192,60531,1,0,0:0:0:0:
256,192,60638,1,8,0:0:0:0:
256,192,60746,1,8,0:0:0:0:
256,192,60853,1,0,0:0:0:0:
256,192,60960,1,8,0:0:0:0:
256,192,61067,1,0,0:0:0:0:
256,192,61174,1,0,0:0:0:0:
256,192,61281,1,8,0:0:0:0:
256,192,61388,1,0,0:0:0:0:
256,192,61496,1,8,0:0:0:0:
256,192,61603,1,8,0:0:0:0:
256,192,61710,1,0,0:0:0:0:
256,192,61817,1,8,0:0:0:0:
256,192,61924,1,8,0:0:0:0:
256,192,62031,1,0,0:0:0:0:
256,192,62138,1,8,0:0:0:0:
256,192,62246,1,0,0:0:0:0:
256,192,62353,1,8,0:0:0:0:
256,192,62460,1,8,0:0:0:0:
256,192,62567,1,0,0:0:0:0:
256,192,62674,1,8,0:0:0:0:
256,192,62781,1,8,0:0:0:0:
256,192,62888,1,0,0:0:0:0:
256,192,62996,1,8,0:0:0:0:
256,192,63103,1,0,0:0:0:0:
256,192,63210,1,8,0:0:0:0:
256,192,63317,1,8,0:0:0:0:
256,192,63424,1,4,0:0:0:0:
256,192,63746,1,0,0:0:0:0:
256,192,64067,1,8,0:0:0:0:
256,192,64138,1,0,0:0:0:0:
256,192,64210,1,0,0:0:0:0:
256,192,64281,1,8,0:0:0:0:
256,192,64710,1,0,0:0:0:0:
256,192,65138,1,12,0:0:0:0:
256,192,65460,1,8,0:0:0:0:
256,192,65781,1,8,0:0:0:0:
256,192,65996,1,0,0:0:0:0:
256,192,66317,1,0,0:0:0:0:
256,192,66638,1,8,0:0:0:0:
256,192,66853,1,0,0:0:0:0:
256,192,67174,1,0,0:0:0:0:
256,192,67496,1,0,0:0:0:0:
256,192,67710,1,8,0:0:0:0:
256,192,68031,1,8,0:0:0:0:
256,192,68353,1,0,0:0:0:0:
256,192,68460,1,8,0:0:0:0:
256,192,68567,1,8,0:0:0:0:
256,192,68888,1,8,0:0:0:0:
256,192,69210,1,8,0:0:0:0:
256,192,69424,1,0,0:0:0:0:
256,192,69746,1,0,0:0:0:0:
256,192,70067,1,0,0:0:0:0:
256,192,70174,1,8,0:0:0:0:
256,192,70281,1,8,0:0:0:0:
256,192,70603,1,8,0:0:0:0:
256,192,70924,1,8,0:0:0:0:
256,192,71138,1,0,0:0:0:0:
256,192,71460,1,0,0:0:0:0:
256,192,71781,1,0,0:0:0:0:
256,192,71888,1,0,0:0:0:0:
256,192,71996,1,8,0:0:0:0:
256,192,72317,1,8,0:0:0:0:
256,192,72638,1,8,0:0:0:0:
256,192,72853,1,0,0:0:0:0:
256,192,73174,1,0,0:0:0:0:
256,192,73496,1,0,0:0:0:0:
256,192,73710,1,8,0:0:0:0:
256,192,74031,1,8,0:0:0:0:
256,192,74353,1,0,0:0:0:0:
256,192,74567,1,8,0:0:0:0:
256,192,74888,1,8,0:0:0:0:
256,192,75210,1,8,0:0:0:0:
256,192,75424,1,0,0:0:0:0:
256,192,75746,1,0,0:0:0:0:
256,192,76067,1,8,0:0:0:0:
256,192,76281,1,0,0:0:0:0:
256,192,76603,1,0,0:0:0:0:
256,192,76924,1,0,0:0:0:0:
256,192,77138,1,8,0:0:0:0:
256,192,77460,1,8,0:0:0:0:
256,192,77781,1,0,0:0:0:0:
256,192,77996,1,0,0:0:0:0:
256,192,78210,1,8,0:0:0:0:
256,192,78317,1,0,0:0:0:0:
256,192,78531,1,8,0:0:0:0:
256,192,78638,1,0,0:0:0:0:
256,192,78746,1,0,0:0:0:0:
256,192,78853,1,8,0:0:0:0:
256,192,79067,1,0,0:0:0:0:
256,192,79174,1,8,0:0:0:0:
256,192,79388,1,8,0:0:0:0:
256,192,79496,1,0,0:0:0:0:
256,192,79603,1,0,0:0:0:0:
256,192,79710,1,8,0:0:0:0:
256,192,79924,1,8,0:0:0:0:
256,192,80031,1,0,0:0:0:0:
256,192,80246,1,0,0:0:0:0:
256,192,80353,1,8,0:0:0:0:
256,192,80460,1,0,0:0:0:0:
256,192,80567,1,8,0:0:0:0:
256,192,80781,1,8,0:0:0:0:
256,192,80888,1,0,0:0:0:0:
256,192,81103,1,0,0:0:0:0:
256,192,81210,1,8,0:0:0:0:
256,192,81317,1,0,0:0:0:0:
256,192,81424,1,0,0:0:0:0:
256,192,81638,1,8,0:0:0:0:
256,192,81746,1,0,0:0:0:0:
256,192,81960,1,0,0:0:0:0:
256,192,82067,1,8,0:0:0:0:
256,192,82174,1,8,0:0:0:0:
256,192,82281,1,8,0:0:0:0:
256,192,82496,1,8,0:0:0:0:
256,192,82603,1,0,0:0:0:0:
256,192,82817,1,0,0:0:0:0:
256,192,82924,1,8,0:0:0:0:
256,192,83138,1,8,0:0:0:0:
256,192,83246,1,0,0:0:0:0:
256,192,83353,1,8,0:0:0:0:
256,192,83460,1,0,0:0:0:0:
256,192,83674,1,0,0:0:0:0:
256,192,83781,1,0,0:0:0:0:
256,192,83888,1,0,0:0:0:0:
256,192,83996,1,8,0:0:0:0:
256,192,84210,1,0,0:0:0:0:
256,192,84317,1,8,0:0:0:0:
256,192,84531,1,8,0:0:0:0:
256,192,84638,1,0,0:0:0:0:
256,192,84853,1,0,0:0:0:0:
256,192,84960,1,8,0:0:0:0:
256,192,85067,1,8,0:0:0:0:
256,192,85174,1,0,0:0:0:0:
256,192,85388,1,0,0:0:0:0:
256,192,85496,1,8,0:0:0:0:
256,192,85603,1,0,0:0:0:0:
256,192,85710,1,8,0:0:0:0:
256,192,85924,1,8,0:0:0:0:
256,192,86031,1,0,0:0:0:0:
256,192,86246,1,0,0:0:0:0:
256,192,86353,1,8,0:0:0:0:
256,192,86567,1,8,0:0:0:0:
256,192,86674,1,0,0:0:0:0:
256,192,86781,1,8,0:0:0:0:
256,192,86888,1,0,0:0:0:0:
256,192,87103,1,0,0:0:0:0:
256,192,87210,1,8,0:0:0:0:
256,192,87424,1,8,0:0:0:0:
256,192,87531,1,0,0:0:0:0:
256,192,87638,1,0,0:0:0:0:
256,192,87746,1,8,0:0:0:0:
256,192,87960,1,8,0:0:0:0:
256,192,88067,1,0,0:0:0:0:
256,192,88281,1,8,0:0:0:0:
256,192,88496,1,0,0:0:0:0:
256,192,88603,1,8,0:0:0:0:
256,192,88710,1,0,0:0:0:0:
256,192,88817,1,0,0:0:0:0:
256,192,88924,1,8,0:0:0:0:
256,192,89138,1,8,0:0:0:0:
256,192,89246,1,0,0:0:0:0:
256,192,89353,1,0,0:0:0:0:
256,192,89460,1,8,0:0:0:0:
256,192,89674,1,0,0:0:0:0:
256,192,89781,1,8,0:0:0:0:
256,192,89996,1,8,0:0:0:0:
256,192,90103,1,0,0:0:0:0:
256,192,90210,1,0,0:0:0:0:
256,192,90317,1,8,0:0:0:0:
256,192,90531,1,0,0:0:0:0:
256,192,90638,1,8,0:0:0:0:
256,192,90853,1,8,0:0:0:0:
256,192,90960,1,8,0:0:0:0:
256,192,91067,1,0,0:0:0:0:
256,192,91174,1,8,0:0:0:0:
256,192,91388,1,0,0:0:0:0:
256,192,91496,1,8,0:0:0:0:
256,192,91710,1,8,0:0:0:0:
256,192,91817,1,0,0:0:0:0:
256,192,91924,1,8,0:0:0:0:
256,192,92031,1,8,0:0:0:0:
256,192,92246,1,8,0:0:0:0:
256,192,92353,1,0,0:0:0:0:
256,192,92460,1,0,0:0:0:0:
256,192,92567,1,8,0:0:0:0:
256,192,92674,1,0,0:0:0:0:
256,192,92781,1,0,0:0:0:0:
256,192,92888,1,8,0:0:0:0:
256,192,92996,1,0,0:0:0:0:
256,192,93103,1,0,0:0:0:0:
256,192,93210,1,8,0:0:0:0:
256,192,93424,1,0,0:0:0:0:
256,192,93531,1,8,0:0:0:0:
256,192,93638,1,0,0:0:0:0:
256,192,93746,1,8,0:0:0:0:
256,192,93853,1,8,0:0:0:0:
256,192,93960,1,0,0:0:0:0:
256,192,94067,1,8,0:0:0:0:
256,192,94281,1,8,0:0:0:0:
256,192,94388,1,0,0:0:0:0:
256,192,94496,1,0,0:0:0:0:
256,192,94603,1,8,0:0:0:0:
256,192,94710,1,8,0:0:0:0:
256,192,94817,1,0,0:0:0:0:
256,192,94924,1,8,0:0:0:0:
256,192,95138,1,8,0:0:0:0:
256,192,95246,1,0,0:0:0:0:
256,192,95353,1,0,0:0:0:0:
256,192,95460,1,8,0:0:0:0:
256,192,95567,1,0,0:0:0:0:
256,192,95674,1,0,0:0:0:0:
256,192,95781,1,8,0:0:0:0:
256,192,95888,1,8,0:0:0:0:
256,192,95996,1,8,0:0:0:0:
256,192,96103,1,0,0:0:0:0:
256,192,96210,1,0,0:0:0:0:
256,192,96317,1,8,0:0:0:0:
256,192,96531,1,0,0:0:0:0:
256,192,96638,1,8,0:0:0:0:
256,192,96746,1,0,0:0:0:0:
256,192,96853,1,8,0:0:0:0:
256,192,96960,1,8,0:0:0:0:
256,192,97067,1,0,0:0:0:0:
256,192,97174,1,8,0:0:0:0:
256,192,97388,1,0,0:0:0:0:
256,192,97496,1,0,0:0:0:0:
256,192,97603,1,0,0:0:0:0:
256,192,97710,1,8,0:0:0:0:
256,192,97817,1,8,0:0:0:0:
256,192,97924,1,0,0:0:0:0:
256,192,98031,1,8,0:0:0:0:
256,192,98138,1,0,0:0:0:0:
256,192,98353,1,8,0:0:0:0:
256,192,98460,1,0,0:0:0:0:
256,192,98567,1,8,0:0:0:0:
256,192,98674,1,8,0:0:0:0:
256,192,98781,1,0,0:0:0:0:
256,192,98888,1,8,0:0:0:0:
256,192,99103,1,0,0:0:0:0:
256,192,99210,1,8,0:0:0:0:
256,192,99317,1,8,0:0:0:0:
256,192,99424,1,8,0:0:0:0:
256,192,99531,1,0,0:0:0:0:
256,192,99638,1,0,0:0:0:0:
256,192,99746,1,8,0:0:0:0:
256,192,99960,1,0,0:0:0:0:
256,192,100067,1,8,0:0:0:0:
256,192,100174,1,0,0:0:0:0:
256,192,100281,1,8,0:0:0:0:
256,192,100388,1,0,0:0:0:0:
256,192,100496,1,0,0:0:0:0:
256,192,100603,1,8,0:0:0:0:
256,192,100710,1,0,0:0:0:0:
256,192,100924,1,8,0:0:0:0:
256,192,101031,1,0,0:0:0:0:
256,192,101138,1,8,0:0:0:0:
256,192,101246,1,8,0:0:0:0:
256,192,101353,1,0,0:0:0:0:
256,192,101460,1,8,0:0:0:0:
256,192,101567,1,0,0:0:0:0:
256,192,101674,1,0,0:0:0:0:
256,192,101781,1,8,0:0:0:0:
256,192,101996,1,8,0:0:0:0:
256,192,102103,1,0,0:0:0:0:
256,192,102210,1,0,0:0:0:0:
256,192,102317,1,8,0:0:0:0:
256,192,102424,1,0,0:0:0:0:
256,192,102531,1,0,0:0:0:0:
256,192,102638,1,8,0:0:0:0:
256,192,102746,1,0,0:0:0:0:
256,192,102853,1,8,0:0:0:0:
256,192,102906,1,8,0:0:0:0:
256,192,102960,1,0,0:0:0:0:
256,192,103067,1,0,0:0:0:0:
256,192,103174,1,8,0:0:0:0:
256,192,103228,1,8,0:0:0:0:
256,192,103281,1,0,0:0:0:0:
256,192,103388,1,0,0:0:0:0:
256,192,103496,1,8,0:0:0:0:
256,192,103549,1,8,0:0:0:0:
256,192,103603,1,0,0:0:0:0:
256,192,103656,1,0,0:0:0:0:
256,192,103710,1,8,0:0:0:0:
256,192,103817,1,0,0:0:0:0:
256,192,103924,1,8,0:0:0:0:
256,192,104031,1,0,0:0:0:0:
256,192,104138,1,8,0:0:0:0:
256,192,104192,1,8,0:0:0:0:
256,192,104246,1,0,0:0:0:0:
256,192,104353,1,8,0:0:0:0:
256,192,104460,1,0,0:0:0:0:
256,192,104513,1,0,0:0:0:0:
256,192,104567,1,8,0:0:0:0:
256,192,104674,1,0,0:0:0:0:
256,192,104781,1,0,0:0:0:0:
256,192,104888,1,8,0:0:0:0:
256,192,104996,1,0,0:0:0:0:
256,192,105103,1,0,0:0:0:0:
256,192,105210,1,8,0:0:0:0:
256,192,105317,1,0,0:0:0:0:
256,192,105424,1,8,0:0:0:0:
256,192,105531,1,0,0:0:0:0:
256,192,105638,1,8,0:0:0:0:
256,192,105746,1,8,0:0:0:0:
256,192,105853,1,8,0:0:0:0:
256,192,105960,1,0,0:0:0:0:
256,192,106067,1,8,0:0:0:0:
256,192,106174,1,0,0:0:0:0:
256,192,106281,1,8,0:0:0:0:
256,192,106388,1,0,0:0:0:0:
256,192,106495,1,0,0:0:0:0:
256,192,106602,1,8,0:0:0:0:
256,192,106709,1,0,0:0:0:0:
256,192,106816,1,0,0:0:0:0:
256,192,106923,1,8,0:0:0:0:
256,192,107031,1,0,0:0:0:0:
256,192,107138,1,8,0:0:0:0:
256,192,107245,1,8,0:0:0:0:
256,192,107352,1,0,0:0:0:0:
256,192,107459,1,8,0:0:0:0:
256,192,107566,1,8,0:0:0:0:
256,192,107673,1,0,0:0:0:0:
256,192,107781,1,8,0:0:0:0:
256,192,107888,1,0,0:0:0:0:
256,192,107995,1,8,0:0:0:0:
256,192,108102,1,0,0:0:0:0:
256,192,108209,1,0,0:0:0:0:
256,192,108316,1,8,0:0:0:0:
256,192,108423,1,0,0:0:0:0:
256,192,108531,1,0,0:0:0:0:
256,192,108638,1,8,0:0:0:0:
256,192,108745,1,0,0:0:0:0:
256,192,108852,1,8,0:0:0:0:
256,192,108959,1,8,0:0:0:0:
256,192,109066,1,0,0:0:0:0:
256,192,109173,1,8,0:0:0:0:
256,192,109281,1,8,0:0:0:0:
256,192,109388,1,0,0:0:0:0:
256,192,109495,1,8,0:0:0:0:
256,192,109549,1,8,0:0:0:0:
256,192,109602,1,8,0:0:0:0:
256,192,109709,1,8,0:0:0:0:
256,192,109816,1,0,0:0:0:0:
256,192,109923,1,0,0:0:0:0:
256,192,110031,1,8,0:0:0:0:
256,192,110138,1,0,0:0:0:0:
256,192,110245,1,0,0:0:0:0:
256,192,110352,1,8,0:0:0:0:
256,192,110459,1,0,0:0:0:0:
256,192,110566,1,8,0:0:0:0:
256,192,110673,1,8,0:0:0:0:
256,192,110781,1,0,0:0:0:0:
256,192,110888,1,8,0:0:0:0:
256,192,110995,1,8,0:0:0:0:
256,192,111102,1,0,0:0:0:0:
256,192,111209,1,8,0:0:0:0:
256,192,111316,1,8,0:0:0:0:
256,192,111423,1,8,0:0:0:0:
256,192,111531,1,0,0:0:0:0:
256,192,111638,1,0,0:0:0:0:
256,192,111745,1,8,0:0:0:0:
256,192,111852,1,0,0:0:0:0:
256,192,111959,1,0,0:0:0:0:
256,192,112066,1,8,0:0:0:0:
256,192,112173,1,0,0:0:0:0:
256,192,112281,1,8,0:0:0:0:
256,192,112388,1,8,0:0:0:0:
256,192,112495,1,0,0:0:0:0:
256,192,112602,1,8,0:0:0:0:
256,192,112709,1,8,0:0:0:0:
256,192,112816,1,0,0:0:0:0:
256,192,112923,1,8,0:0:0:0:
256,192,112978,1,8,0:0:0:0:
256,192,113031,1,0,0:0:0:0:
256,192,113138,1,8,0:0:0:0:
256,192,113245,1,0,0:0:0:0:
256,192,113352,1,0,0:0:0:0:
256,192,113459,1,8,0:0:0:0:
256,192,113566,1,0,0:0:0:0:
256,192,113673,1,0,0:0:0:0:
256,192,113781,1,8,0:0:0:0:
256,192,113888,1,0,0:0:0:0:
256,192,113995,1,8,0:0:0:0:
256,192,114102,1,8,0:0:0:0:
256,192,114209,1,0,0:0:0:0:
256,192,114316,1,8,0:0:0:0:
256,192,114423,1,8,0:0:0:0:
256,192,114531,1,0,0:0:0:0:
256,192,114638,1,8,0:0:0:0:
256,192,114745,1,0,0:0:0:0:
256,192,114852,1,8,0:0:0:0:
256,192,114959,1,0,0:0:0:0:
256,192,115066,1,0,0:0:0:0:
256,192,115173,1,8,0:0:0:0:
256,192,115281,1,0,0:0:0:0:
256,192,115388,1,0,0:0:0:0:
256,192,115495,1,8,0:0:0:0:
256,192,115602,1,0,0:0:0:0:
256,192,115709,1,8,0:0:0:0:
256,192,115816,1,8,0:0:0:0:
256,192,115923,1,0,0:0:0:0:
256,192,116031,1,8,0:0:0:0:
256,192,116138,1,8,0:0:0:0:
256,192,116245,1,0,0:0:0:0:
256,192,116352,1,8,0:0:0:0:
256,192,116459,1,8,0:0:0:0:
256,192,116513,1,8,0:0:0:0:
256,192,116566,1,0,0:0:0:0:
256,192,116673,1,8,0:0:0:0:
256,192,116781,1,0,0:0:0:0:
256,192,116888,1,8,0:0:0:0:
256,192,116995,1,0,0:0:0:0:
256,192,117102,1,0,0:0:0:0:
256,192,117209,1,8,0:0:0:0:
256,192,117316,1,0,0:0:0:0:
256,192,117423,1,8,0:0:0:0:
256,192,117531,1,8,0:0:0:0:
256,192,117638,1,0,0:0:0:0:
256,192,117745,1,8,0:0:0:0:
256,192,117852,1,8,0:0:0:0:
256,192,117959,1,0,0:0:0:0:
256,192,118066,1,8,0:0:0:0:
256,192,118173,1,0,0:0:0:0:
256,192,118281,1,8,0:0:0:0:
256,192,118388,1,0,0:0:0:0:
256,192,118495,1,0,0:0:0:0:
256,192,118602,1,8,0:0:0:0:
256,192,118709,1,0,0:0:0:0:
256,192,118816,1,0,0:0:0:0:
256,192,118923,1,8,0:0:0:0:
256,192,119031,1,0,0:0:0:0:
256,192,119138,1,8,0:0:0:0:
256,192,119245,1,0,0:0:0:0:
256,192,119352,1,8,0:0:0:0:
256,192,119459,1,8,0:0:0:0:
256,192,119566,1,8,0:0:0:0:
256,192,119673,1,0,0:0:0:0:
256,192,119781,1,8,0:0:0:0:
256,192,119888,1,8,0:0:0:0:
256,192,119995,1,0,0:0:0:0:
256,192,120102,1,8,0:0:0:0:
256,192,120209,1,0,0:0:0:0:
256,192,120316,1,0,0:0:0:0:
256,192,120423,1,8,0:0:0:0:
256,192,120531,1,0,0:0:0:0:
256,192,120638,1,8,0:0:0:0:
256,192,120745,1,8,0:0:0:0:
256,192,120852,1,0,0:0:0:0:
256,192,120959,1,8,0:0:0:0:
256,192,121066,1,0,0:0:0:0:
256,192,121173,1,0,0:0:0:0:
256,192,121281,1,8,0:0:0:0:
256,192,121388,1,0,0:0:0:0:
256,192,121495,1,8,0:0:0:0:
256,192,121602,1,8,0:0:0:0:
256,192,121709,1,0,0:0:0:0:
256,192,121816,1,8,0:0:0:0:
256,192,121923,1,0,0:0:0:0:
256,192,122031,1,0,0:0:0:0:
256,192,122138,1,8,0:0:0:0:
256,192,122245,1,0,0:0:0:0:
256,192,122352,1,8,0:0:0:0:
256,192,122459,1,8,0:0:0:0:
256,192,122566,1,0,0:0:0:0:
256,192,122673,1,8,0:0:0:0:
256,192,122781,1,0,0:0:0:0:
256,192,122888,1,0,0:0:0:0:
256,192,122995,1,8,0:0:0:0:
256,192,123102,1,0,0:0:0:0:
256,192,123209,1,8,0:0:0:0:
256,192,123263,1,8,0:0:0:0:
256,192,123316,1,8,0:0:0:0:
256,192,123423,1,8,0:0:0:0:
256,192,123531,1,0,0:0:0:0:
256,192,123638,1,8,0:0:0:0:
256,192,123745,1,8,0:0:0:0:
256,192,123852,1,0,0:0:0:0:
256,192,123959,1,8,0:0:0:0:
256,192,124066,1,0,0:0:0:0:
256,192,124173,1,0,0:0:0:0:
256,192,124281,1,8,0:0:0:0:
256,192,124388,1,0,0:0:0:0:
256,192,124495,1,8,0:0:0:0:
256,192,124602,1,8,0:0:0:0:
256,192,124709,1,0,0:0:0:0:
256,192,124816,1,0,0:0:0:0:
256,192,124923,1,8,0:0:0:0:
256,192,125031,1,8,0:0:0:0:
256,192,125138,1,8,0:0:0:0:
256,192,125245,1,0,0:0:0:0:
256,192,125352,1,8,0:0:0:0:
256,192,125459,1,8,0:0:0:0:
256,192,125566,1,0,0:0:0:0:
256,192,125673,1,8,0:0:0:0:
256,192,125781,1,0,0:0:0:0:
256,192,125888,1,0,0:0:0:0:
256,192,125995,1,8,0:0:0:0:
256,192,126102,1,0,0:0:0:0:
256,192,126209,1,8,0:0:0:0:
256,192,126316,1,8,0:0:0:0:
256,192,126423,1,0,0:0:0:0:
256,192,126531,1,8,0:0:0:0:
256,192,126638,1,8,0:0:0:0:
256,192,126745,1,8,0:0:0:0:
256,192,126799,1,8,0:0:0:0:
256,192,126852,1,0,0:0:0:0:
256,192,126959,1,8,0:0:0:0:
256,192,127066,1,0,0:0:0:0:
256,192,127173,1,0,0:0:0:0:
256,192,127281,1,8,0:0:0:0:
256,192,127388,1,0,0:0:0:0:
256,192,127495,1,8,0:0:0:0:
256,192,127602,1,8,0:0:0:0:
256,192,127709,1,0,0:0:0:0:
256,192,127816,1,8,0:0:0:0:
256,192,127923,1,0,0:0:0:0:
256,192,128031,1,0,0:0:0:0:
256,192,128138,1,8,0:0:0:0:
256,192,128245,1,0,0:0:0:0:
256,192,128352,1,8,0:0:0:0:
256,192,128459,1,8,0:0:0:0:
256,192,128566,1,0,0:0:0:0:
256,192,128673,1,8,0:0:0:0:
256,192,128781,1,0,0:0:0:0:
256,192,128888,1,0,0:0:0:0:
256,192,128995,1,8,0:0:0:0:
256,192,129102,1,0,0:0:0:0:
256,192,129209,1,0,0:0:0:0:
256,192,129316,1,8,0:0:0:0:
256,192,129423,1,8,0:0:0:0:
256,192,129531,1,0,0:0:0:0:
256,192,129638,1,8,0:0:0:0:
256,192,129745,1,8,0:0:0:0:
256,192,129852,1,8,0:0:0:0:
256,192,129959,1,0,0:0:0:0:
256,192,130066,1,8,0:0:0:0:
256,192,130121,1,8,0:0:0:0:
256,192,130173,1,8,0:0:0:0:
256,192,130281,1,0,0:0:0:0:
256,192,130388,1,8,0:0:0:0:
256,192,130495,1,0,0:0:0:0:
256,192,130602,1,8,0:0:0:0:
256,192,130656,1,8,0:0:0:0:
256,192,130709,1,0,0:0:0:0:
256,192,130816,1,0,0:0:0:0:
256,192,130923,1,8,0:0:0:0:
256,192,131031,1,0,0:0:0:0:
256,192,131138,1,8,0:0:0:0:
256,192,131192,1,8,0:0:0:0:
256,192,131245,1,0,0:0:0:0:
256,192,131299,1,0,0:0:0:0:
256,192,131352,1,8,0:0:0:0:
256,192,131459,1,0,0:0:0:0:
256,192,131566,1,8,0:0:0:0:
256,192,131673,1,0,0:0:0:0:
256,192,131781,1,8,0:0:0:0:
256,192,131835,1,8,0:0:0:0:
256,192,131888,1,8,0:0:0:0:
256,192,131995,1,0,0:0:0:0:
256,192,132102,1,8,0:0:0:0:
256,192,132209,1,8,0:0:0:0:
256,192,132316,1,0,0:0:0:0:
256,192,132423,1,8,0:0:0:0:
256,192,132531,1,0,0:0:0:0:
256,192,132638,1,8,0:0:0:0:
256,192,132745,1,8,0:0:0:0:
256,192,132852,1,0,0:0:0:0:
256,192,132959,1,8,0:0:0:0:
256,192,133066,1,8,0:0:0:0:
256,192,133173,1,0,0:0:0:0:
256,192,133281,1,8,0:0:0:0:
256,192,133388,1,0,0:0:0:0:
256,192,133495,1,8,0:0:0:0:
256,192,133602,1,8,0:0:0:0:
256,192,133709,1,4,0:0:0:0:
256,192,133710,5,4,0:0:0:0:
256,192,133924,1,8,0:0:0:0:
256,192,134138,1,8,0:0:0:0:
256,192,134353,1,0,0:0:0:0:
256,192,134406,1,8,0:0:0:0:
256,192,134460,1,8,0:0:0:0:
256,192,134513,1,8,0:0:0:0:
256,192,134567,1,8,0:0:0:0:
256,192,134781,1,8,0:0:0:0:
256,192,134996,1,0,0:0:0:0:
256,192,135103,1,8,0:0:0:0:
256,192,135210,1,8,0:0:0:0:
256,192,135317,1,8,0:0:0:0:
256,192,135424,1,4,0:0:0:0:
