osu file format v14

[General]
AudioFilename: audio.mp3
AudioLeadIn: 0
PreviewTime: 55999
Countdown: 0
SampleSet: Soft
StackLeniency: 0.2
Mode: 0
LetterboxInBreaks: 0
WidescreenStoryboard: 1

[Editor]
DistanceSpacing: 2
BeatDivisor: 4
GridSize: 4
TimelineZoom: 2.3

[Metadata]
Title:unravel (TV edit)
TitleUnicode:unravel (TV edit)
Artist:TK from Ling tosite sigure
ArtistUnicode:TK from 凛として時雨
Creator:Bakugou
Version:desperation
Source:Tokyo Ghoul
Tags:東京喰種トーキョーグール opening Studio Pierrot
BeatmapID:2059789
BeatmapSetID:893755

[Difficulty]
HPDrainRate:6
CircleSize:6
OverallDifficulty:9
ApproachRate:9.2
SliderMultiplier:0.400000005960464
SliderTickRate:1

[Events]
//Background and Video events
0,0,"unravel new.jpg",0,0
//Break Periods
//Storyboard Layer 0 (Background)
//Storyboard Layer 1 (Fail)
//Storyboard Layer 2 (Pass)
//Storyboard Layer 3 (Foreground)
//Storyboard Sound Samples

[TimingPoints]
1555,444.444444444444,4,2,1,45,1,0
1555,-200,4,2,1,45,0,0
8888,444.444444444444,4,2,1,45,1,0
8888,-133.333333333333,4,2,1,45,0,0
26665,-111.111111111111,4,2,1,45,0,0
26666,-133.333333333333,4,2,1,55,0,0
28443,-133.333333333333,4,1,1,60,0,0
31999,-133.333333333333,4,1,1,60,0,0
33332,-200,4,1,1,60,0,0
33777,-133.333333333333,4,1,1,80,0,0
36443,-100,4,1,1,80,0,0
37332,-133.333333333333,4,1,1,80,0,0
40887,-133.333333333333,4,1,1,80,0,0
42443,-133.333333333333,4,2,1,55,0,0
42665,-100,4,2,1,55,0,0
49776,-80,4,2,1,55,0,0
49777,-80,4,1,1,70,0,0
55999,-66.6666666666667,4,1,1,75,0,0
56887,-66.6666666666667,4,1,1,75,0,1
56888,-66.6666666666667,4,1,1,85,0,1
71110,-66.6666666666667,4,1,1,90,0,1
79999,-100,4,1,1,90,0,0
81777,-133.333333333333,4,2,1,45,0,0

[Colours]
Combo1 : 182,182,182
Combo2 : 232,230,230
Combo3 : 248,90,82
Combo4 : 57,49,49

[HitObjects]
144,131,1332,5,0,0:0:0:0:
192,180,1555,2,0,L|192:202,1,20.0000002980232,0|0,0:0|0:0,0:0:0:0:
240,249,2443,2,0,L|240:262,1,10.0000001490116,0|0,0:0|0:0,0:0:0:0:
192,180,3110,2,0,L|192:202,1,20.0000002980232,0|0,0:0|0:0,0:0:0:0:
240,249,3999,2,0,L|240:271,1,20.0000002980232,0|0,0:0|0:0,0:0:0:0:
240,249,4888,1,0,0:0:0:0:
136,282,5110,5,0,0:0:0:0:
128,275,5777,1,0,0:0:0:0:
227,320,6000,1,0,0:0:0:0:
235,313,6443,1,0,0:0:0:0:
136,358,6666,1,0,0:0:0:0:
136,358,8666,1,2,0:0:0:0:
191,313,8888,6,0,L|206:313,2,15.000000795722,2|0|2,3:2|0:0|0:0,0:0:0:0:
136,358,9554,2,0,L|133:325,1,30.0000015914441,2|2,0:0|0:0,0:0:0:0:
76,279,10221,2,0,L|77:264,1,15.000000795722,2|0,0:0|0:0,0:0:0:0:
191,313,10665,2,0,L|206:313,2,15.000000795722,0|0|0,0:0|0:0|0:0,0:0:0:0:
136,358,11331,2,0,L|133:325,1,30.0000015914441,0|0,0:0|0:0,0:0:0:0:
76,279,11998,2,0,L|77:264,1,15.000000795722,0|2,0:0|0:0,0:0:0:0:
139,222,12443,6,0,L|124:222,2,15.000000795722,2|0|2,0:0|0:0|0:0,0:0:0:0:
194,267,13109,2,0,L|197:234,1,30.0000015914441,2|2,0:0|0:0,0:0:0:0:
254,188,13776,2,0,L|252:173,1,15.000000795722,2|0,0:0|0:0,0:0:0:0:
139,222,14220,2,0,L|120:224,1,15.000000795722,2|0,0:0|0:0,0:0:0:0:
194,267,14554,2,0,L|213:269,1,15.000000795722,2|0,0:0|0:0,0:0:0:0:
223,278,14887,1,0,0:0:0:0:
139,222,14999,2,0,L|120:224,1,15.000000795722,2|0,0:0|0:0,0:0:0:0:
194,267,15333,2,0,L|213:269,1,15.000000795722,2|0,0:0|0:0,0:0:0:0:
261,326,15776,1,2,0:0:0:0:
191,313,15999,6,0,L|206:313,2,15.000000795722,2|0|2,3:2|0:0|0:0,0:0:0:0:
136,358,16665,2,0,L|133:325,1,30.0000015914441,0|2,0:0|0:0,0:0:0:0:
76,279,17332,2,0,L|77:264,1,15.000000795722,0|2,0:0|0:0,0:0:0:0:
191,313,17776,2,0,L|206:313,2,15.000000795722,0|2|0,0:0|0:0|0:0,0:0:0:0:
136,358,18442,2,0,L|133:325,1,30.0000015914441,2|2,0:0|0:0,0:0:0:0:
76,279,19109,2,0,L|77:264,1,15.000000795722,0|2,0:0|0:0,0:0:0:0:
139,222,19554,6,0,L|124:222,2,15.000000795722,2|0|0,3:2|0:0|0:0,0:0:0:0:
194,267,20220,2,0,L|197:234,1,30.0000015914441,2|0,0:0|0:0,0:0:0:0:
254,188,20887,2,0,L|252:173,1,15.000000795722,2|2,0:0|0:0,0:0:0:0:
139,222,21331,2,0,L|120:224,1,15.000000795722,0|0,0:0|0:0,0:0:0:0:
60,283,21665,2,0,L|67:265,1,15.000000795722,0|0,0:0|0:0,0:0:0:0:
45,184,21999,2,0,L|50:191,1,7.50000039786102,0|0,0:0|0:0,0:0:0:0:
139,222,22221,2,0,L|137:244,2,22.5000011935831,0|0|2,0:0|0:0|0:0,0:0:0:0:
191,313,23110,6,0,L|206:313,2,15.000000795722,2|0|2,3:2|0:0|0:0,0:0:0:0:
136,358,23776,2,0,L|133:325,1,30.0000015914441,2|2,0:0|0:0,0:0:0:0:
76,279,24443,2,0,L|77:264,1,15.000000795722,2|0,0:0|0:0,0:0:0:0:
191,313,24887,2,0,L|206:313,2,15.000000795722,0|0|0,0:0|0:0|0:0,0:0:0:0:
136,358,25553,2,0,L|133:325,1,30.0000015914441,0|0,0:0|0:0,0:0:0:0:
76,279,26220,2,0,L|77:264,1,15.000000795722,0|2,0:0|0:0,0:0:0:0:
107,204,26665,5,2,3:2:0:0:
145,186,26776,1,8,0:0:0:0:
141,227,26887,1,8,0:0:0:0:
103,245,26999,1,8,0:0:0:0:
101,200,27110,5,10,0:0:0:0:
151,176,27221,1,8,0:0:0:0:
146,230,27332,1,10,0:0:0:0:
96,254,27444,1,8,0:0:0:0:
95,196,27554,5,8,0:0:0:0:
159,165,27665,1,8,0:0:0:0:
152,234,27776,1,10,0:0:0:0:
88,265,27888,1,8,0:0:0:0:
88,191,27999,5,10,0:0:0:0:
167,154,28110,1,8,0:0:0:0:
159,239,28221,1,8,0:0:0:0:
80,276,28333,1,8,0:0:0:0:
143,322,28443,6,0,L|156:324,1,7.50000039786102,2|0,3:1|0:0,0:0:0:0:
223,370,28776,1,0,0:0:0:0:
143,322,28999,2,0,L|156:324,1,7.50000039786102,0|0,0:0|0:0,0:0:0:0:
326,256,29332,6,0,L|313:258,1,7.50000039786102,2|0,3:1|0:0,0:0:0:0:
246,304,29665,1,0,0:0:0:0:
326,256,29776,1,8,0:0:0:0:
376,281,29888,1,0,3:0:0:0:
409,256,29999,1,0,3:0:0:0:
425,263,30110,1,0,3:0:0:0:
438,256,30221,5,0,0:0:0:0:
199,158,31999,5,10,0:0:0:0:
199,158,32110,2,0,L|199:170,1,7.50000039786101,10|0,0:0|0:0,0:0:0:0:
262,239,32332,2,0,L|262:227,1,7.50000039786101,10|0,0:0|0:0,0:0:0:0:
199,158,32554,1,10,0:0:0:0:
199,158,32665,2,0,L|199:170,1,7.50000039786101,10|0,1:0|0:0,0:0:0:0:
262,240,32887,1,10,0:0:0:0:
268,261,32962,1,10,0:0:0:0:
267,283,33036,1,10,0:0:0:0:
251,316,33110,1,10,0:0:0:0:
249,338,33184,1,10,0:0:0:0:
256,359,33258,1,10,0:0:0:0:
282,380,33332,6,0,L|299:384,1,15.0000002235174,0|0,0:0|0:0,0:0:0:0:
346,384,33776,6,0,L|345:380,1,5.0000000745058,2|2,3:1|0:0,0:0:0:0:
331,326,33999,1,8,0:0:0:0:
395,246,34110,1,10,0:0:0:0:
395,246,34332,1,8,0:0:0:0:
388,304,34443,1,10,0:0:0:0:
311,214,34554,1,8,0:0:0:0:
413,189,34665,2,0,L|426:190,1,7.50000039786101,2|2,3:1|0:0,0:0:0:0:
511,232,34887,1,8,0:0:0:0:
455,278,34999,1,10,0:0:0:0:
455,278,35221,1,10,0:0:0:0:
482,173,35332,1,10,0:0:0:0:
407,119,35443,1,10,0:0:0:0:
311,214,35554,6,0,L|322:216,1,7.50000039786101,2|2,3:1|0:0,0:0:0:0:
413,189,35776,1,8,0:0:0:0:
352,263,35887,1,10,0:0:0:0:
352,263,36110,1,8,0:0:0:0:
357,177,36221,1,10,0:0:0:0:
261,147,36332,1,8,0:0:0:0:
240,320,36443,6,0,L|256:316,1,10.0000001490116,2|2,3:1|0:0,0:0:0:0:
133,263,36665,2,0,L|117:259,1,10.0000001490116,10|10,0:0|0:0,0:0:0:0:
240,206,36887,2,0,L|256:202,1,10.0000001490116,2|2,3:1|0:0,0:0:0:0:
133,149,37110,2,0,L|117:145,1,10.0000001490116,0|10,0:0|0:0,0:0:0:0:
240,206,37332,6,0,L|252:202,1,7.50000039786101,2|2,3:1|0:0,0:0:0:0:
335,222,37554,1,8,0:0:0:0:
255,279,37665,1,10,0:0:0:0:
255,279,37887,1,8,0:0:0:0:
346,219,37999,1,10,0:0:0:0:
273,143,38110,1,8,0:0:0:0:
351,325,38221,2,0,L|355:316,1,7.50000039786101,2|2,3:1|0:0,0:0:0:0:
463,260,38443,1,10,0:0:0:0:
315,271,38554,1,10,0:0:0:0:
315,271,38776,1,10,0:0:0:0:
413,307,38887,1,10,0:0:0:0:
353,384,38999,1,10,0:0:0:0:
228,342,39110,6,0,L|241:340,1,7.50000039786101,2|2,3:1|0:0,0:0:0:0:
301,354,39332,1,8,0:0:0:0:
384,250,39443,1,10,0:0:0:0:
384,250,39665,1,8,0:0:0:0:
255,271,39776,1,10,0:0:0:0:
302,368,39887,1,8,0:0:0:0:
255,271,39999,6,0,L|253:258,1,7.50000039786101,2|2,3:1|0:0,0:0:0:0:
312,210,40221,2,0,L|314:197,1,7.50000039786101,10|10,0:0|0:0,0:0:0:0:
255,149,40443,2,0,L|253:136,1,7.50000039786101,10|10,0:0|0:0,0:0:0:0:
312,88,40665,2,0,L|314:75,1,7.50000039786101,0|10,0:0|0:0,0:0:0:0:
255,27,40887,5,0,3:1:0:0:
211,164,42443,5,2,0:0:0:0:
255,215,42665,2,0,L|289:217,2,30.0000004470348,2|2|2,3:2|0:0|3:2,0:0:0:0:
256,323,43999,1,2,0:0:0:0:
221,253,44222,1,2,0:0:0:0:
255,215,44443,2,0,L|260:184,2,30.0000004470348,2|2|2,3:2|0:0|3:2,0:0:0:0:
221,253,45554,1,0,0:0:0:0:
221,253,45999,1,2,0:0:0:0:
174,297,46221,6,0,L|140:301,2,30.0000004470348,2|2|2,3:2|0:0|3:2,0:0:0:0:
133,317,47332,2,0,L|177:319,1,40.0000005960464,2|2,0:0|0:0,0:0:0:0:
187,335,47887,1,0,0:0:0:0:
279,287,47999,5,0,0:0:0:0:
279,287,48665,2,0,L|301:288,1,20.0000002980232,2|0,0:0|0:0,0:0:0:0:
308,300,49554,1,2,1:0:0:0:
346,364,49776,6,0,L|346:346,1,12.5000001862645,2|0,3:1|0:0,0:0:0:0:
351,341,49999,1,2,0:0:0:0:
411,308,50110,2,0,L|411:290,2,12.5000001862645,2|0|0,0:0|3:1|0:0,0:0:0:0:
346,252,50443,2,0,L|346:234,1,12.5000001862645,2|0,0:0|0:0,0:0:0:0:
346,364,50665,2,0,L|346:346,1,12.5000001862645,2|0,3:1|0:0,0:0:0:0:
351,341,50888,1,2,0:0:0:0:
411,308,50999,2,0,L|411:290,2,12.5000001862645,0|0|0,0:0|3:1|0:0,0:0:0:0:
346,252,51332,2,0,L|346:234,1,12.5000001862645,2|0,0:0|0:0,0:0:0:0:
411,196,51554,6,0,L|411:178,1,12.5000001862645,2|0,3:1|0:0,0:0:0:0:
406,173,51777,1,2,0:0:0:0:
346,140,51888,2,0,L|346:122,2,12.5000001862645,0|0|0,0:0|3:1|0:0,0:0:0:0:
411,84,52221,2,0,L|411:66,1,12.5000001862645,2|0,0:0|0:0,0:0:0:0:
411,196,52443,2,0,L|411:178,1,12.5000001862645,2|0,3:1|0:0,0:0:0:0:
406,173,52666,1,2,0:0:0:0:
346,140,52776,2,0,L|346:122,2,12.5000001862645,2|0|0,0:0|3:0|0:0,0:0:0:0:
411,84,53110,2,0,L|411:66,1,12.5000001862645,2|0,0:0|0:0,0:0:0:0:
346,140,53332,6,0,L|346:158,1,12.5000001862645,2|0,3:1|0:0,0:0:0:0:
341,163,53555,1,2,0:0:0:0:
281,196,53666,2,0,L|281:214,2,12.5000001862645,2|0|0,0:0|3:0|0:0,0:0:0:0:
346,252,53999,2,0,L|346:270,1,12.5000001862645,2|0,0:0|0:0,0:0:0:0:
266,322,54221,2,0,L|296:320,1,25.000000372529,2|0,3:1|0:0,0:0:0:0:
303,334,54554,1,2,0:0:0:0:
418,243,54665,5,8,0:0:0:0:
435,196,54739,1,0,0:0:0:0:
485,198,54813,1,0,0:0:0:0:
498,247,54887,1,0,0:0:0:0:
456,274,54999,1,8,0:0:0:0:
418,243,55110,5,0,3:1:0:0:
418,243,55776,5,0,0:0:0:0:
351,169,55999,1,8,0:0:0:0:
299,204,56110,1,0,3:1:0:0:
260,182,56221,1,0,3:1:0:0:
244,190,56332,1,0,3:1:0:0:
236,186,56443,1,8,0:0:0:0:
236,186,56665,1,0,0:0:0:0:
165,238,56887,6,0,L|157:282,2,45.0000023871661,2|2|2,3:1|3:1|3:1,0:0:0:0:
236,186,57776,2,0,L|228:142,1,45.0000023871661,10|10,0:0|0:0,0:0:0:0:
121,65,58221,1,8,0:0:0:0:
172,94,58332,1,8,0:0:0:0:
231,98,58443,1,10,0:0:0:0:
287,76,58554,1,8,0:0:0:0:
357,44,58665,6,0,L|365:0,2,45.0000023871661,0|0|2,3:1|3:1|3:1,0:0:0:0:
287,97,59554,2,0,L|295:141,1,45.0000023871661,8|8,0:0|0:0,0:0:0:0:
401,217,59999,1,8,0:0:0:0:
349,187,60110,1,8,0:0:0:0:
290,183,60221,1,10,0:0:0:0:
234,205,60332,1,8,0:0:0:0:
198,271,60443,6,0,L|154:279,2,45.0000023871661,2|2|2,3:1|3:1|3:1,0:0:0:0:
250,200,61332,2,0,L|294:208,1,45.0000023871661,8|8,0:0|0:0,0:0:0:0:
371,315,61777,1,8,0:0:0:0:
342,263,61888,1,8,0:0:0:0:
338,204,61999,1,10,0:0:0:0:
360,148,62110,1,8,0:0:0:0:
392,79,62221,6,0,L|436:71,2,45.0000023871661,2|2|2,3:1|3:1|3:1,0:0:0:0:
339,149,63110,2,0,L|295:141,1,45.0000023871661,8|8,0:0|0:0,0:0:0:0:
219,35,63555,1,8,0:0:0:0:
249,87,63666,1,8,0:0:0:0:
253,146,63777,1,10,0:0:0:0:
231,202,63888,1,8,0:0:0:0:
198,271,63999,6,0,L|154:279,2,45.0000023871661,2|2|2,3:1|3:1|3:1,0:0:0:0:
250,200,64888,2,0,L|294:208,1,45.0000023871661,8|8,0:0|0:0,0:0:0:0:
371,315,65333,1,8,0:0:0:0:
341,264,65444,1,8,0:0:0:0:
337,205,65555,1,10,0:0:0:0:
359,149,65666,1,8,0:0:0:0:
392,79,65777,6,0,L|436:71,2,45.0000023871661,2|2|2,3:1|3:1|3:1,0:0:0:0:
339,149,66666,2,0,L|295:141,1,45.0000023871661,8|8,0:0|0:0,0:0:0:0:
219,35,67111,1,8,0:0:0:0:
249,87,67222,1,8,0:0:0:0:
253,146,67333,1,10,0:0:0:0:
231,202,67444,1,8,0:0:0:0:
195,259,67554,6,0,L|187:303,2,45.0000023871661,0|0|0,3:1|3:1|3:1,0:0:0:0:
266,207,68443,2,0,L|258:163,1,45.0000023871661,8|8,0:0|0:0,0:0:0:0:
151,86,68888,1,8,0:0:0:0:
203,116,68999,1,8,0:0:0:0:
262,120,69110,1,10,0:0:0:0:
317,98,69221,1,8,0:0:0:0:
387,65,69332,6,0,L|395:21,2,45.0000023871661,2|2|2,3:1|3:1|3:1,0:0:0:0:
317,118,70221,2,0,L|321:144,1,15.000000795722,8|0,0:0|0:0,0:0:0:0:
393,207,70443,1,8,0:0:0:0:
392,152,70554,1,8,0:0:0:0:
254,257,70665,1,8,0:0:0:0:
339,300,70776,1,8,0:0:0:0:
421,257,70887,1,10,0:0:0:0:
336,318,70999,1,8,0:0:0:0:
262,244,71110,6,0,L|242:238,1,15.000000795722,2|0,3:1|0:0,0:0:0:0:
138,308,71332,2,0,L|158:302,1,15.000000795722,0|2,0:0|0:0,0:0:0:0:
255,172,71554,6,0,L|235:166,1,15.000000795722,8|0,0:0|0:0,0:0:0:0:
131,236,71776,2,0,L|151:230,1,15.000000795722,2|0,0:0|0:0,0:0:0:0:
247,100,71999,6,0,L|227:94,1,15.000000795722,2|0,3:1|0:0,0:0:0:0:
123,164,72221,2,0,L|143:158,1,15.000000795722,0|2,0:0|0:0,0:0:0:0:
282,18,72443,1,8,0:0:0:0:
149,92,72554,1,8,0:0:0:0:
293,26,72665,1,10,0:0:0:0:
255,172,72776,1,8,0:0:0:0:
198,28,72887,6,0,L|217:30,1,15.000000795722,2|0,3:1|0:0,0:0:0:0:
358,94,73110,2,0,L|339:96,1,15.000000795722,0|2,0:0|0:0,0:0:0:0:
149,92,73332,6,0,L|168:94,1,15.000000795722,8|0,0:0|0:0,0:0:0:0:
309,158,73555,2,0,L|290:160,1,15.000000795722,2|0,0:0|0:0,0:0:0:0:
100,156,73776,6,0,L|119:158,1,15.000000795722,0|0,3:1|0:0,0:0:0:0:
260,222,73999,1,10,0:0:0:0:
190,257,74110,1,8,0:0:0:0:
311,290,74221,1,8,0:0:0:0:
183,183,74332,1,8,0:0:0:0:
226,344,74443,1,10,0:0:0:0:
294,159,74554,1,8,0:0:0:0:
145,331,74665,6,0,L|143:355,1,15.000000795722,2|0,3:1|0:0,0:0:0:0:
261,236,74887,2,0,L|259:221,1,15.000000795722,2|2,0:0|0:0,0:0:0:0:
67,278,75110,6,0,L|65:302,1,15.000000795722,8|0,0:0|0:0,0:0:0:0:
183,183,75332,2,0,L|181:168,1,15.000000795722,2|0,0:0|0:0,0:0:0:0:
145,331,75554,6,0,L|143:355,1,15.000000795722,2|0,3:1|0:0,0:0:0:0:
261,236,75776,2,0,L|259:221,1,15.000000795722,0|2,0:0|0:0,0:0:0:0:
93,131,75999,1,8,0:0:0:0:
190,263,76110,1,8,0:0:0:0:
190,100,76221,1,10,0:0:0:0:
95,232,76332,1,8,0:0:0:0:
250,182,76443,6,0,L|272:180,1,15.000000795722,2|0,3:1|0:0,0:0:0:0:
410,253,76665,2,0,L|388:251,1,15.000000795722,0|0,0:0|0:0,0:0:0:0:
190,263,76887,6,0,L|212:261,1,15.000000795722,8|0,0:0|0:0,0:0:0:0:
350,334,77109,2,0,L|328:332,1,15.000000795722,10|8,0:0|0:0,0:0:0:0:
332,155,77332,1,8,0:0:0:0:
320,273,77443,1,8,0:0:0:0:
336,137,77554,1,10,0:0:0:0:
410,253,77665,1,8,0:0:0:0:
250,182,77776,1,8,0:0:0:0:
451,124,77887,1,8,0:0:0:0:
357,207,77999,1,10,0:0:0:0:
397,67,78110,1,8,0:0:0:0:
424,254,78221,6,0,L|398:252,1,15.000000795722,2|0,3:1|0:0,0:0:0:0:
235,183,78443,2,0,L|261:181,1,15.000000795722,0|0,3:1|0:0,0:0:0:0:
424,254,78665,2,0,L|398:252,1,15.000000795722,2|0,3:1|0:0,0:0:0:0:
235,183,78887,2,0,L|261:181,1,15.000000795722,2|0,3:1|0:0,0:0:0:0:
424,254,79110,2,0,L|398:252,1,15.000000795722,2|0,3:1|0:0,0:0:0:0:
235,183,79332,2,0,L|261:181,1,15.000000795722,0|0,3:1|0:0,0:0:0:0:
424,254,79554,2,0,L|398:252,1,15.000000795722,0|0,3:1|0:0,0:0:0:0:
235,183,79776,2,0,L|261:181,1,15.000000795722,2|0,3:1|0:0,0:0:0:0:
337,214,79999,5,0,0:0:0:0:
337,214,80887,5,0,3:0:0:0:
337,214,81776,5,0,3:0:0:0:
