osu file format v14

[General]
AudioFilename: audio.mp3
AudioLeadIn: 0
PreviewTime: 70888
Countdown: 1
SampleSet: Soft
StackLeniency: 0.2
Mode: 0
LetterboxInBreaks: 0
WidescreenStoryboard: 0

[Editor]
Bookmarks: 9222,9333,9444,9555,9666,10444,10555,10666,10777,10888,11333,12000,12444,12555,12666,12888,13111,13333,14000,14111,14222,14333,14444,14777,14888,15000,15555,16000,16111,16222,16444,16666,17111,17444,17555,17666,17777,17888,18000,18111,18444,18888,19222,19333,19444,19555,20222,20444,21000,21111,21222,21333,21444,21555,21666,21888,22000,22333,22444,22777,22888,23000,23111,23222,23333,23444,23777,23888,24222,24333,24555,24666,24777,24888,25111,25222,25444,25555,25888,26000,26222,26333,26444,26555,26666,28444,29333,29777,30222,40888,42666,55111,56888,70000
DistanceSpacing: 1.4
BeatDivisor: 8
GridSize: 8
TimelineZoom: 1.8

[Metadata]
Title:unravel (TV Size)
TitleUnicode:unravel (TV Size)
Artist:TK from Ling tosite sigure
ArtistUnicode:TK from Ling tosite sigure
Creator:Otaku_Gamer_45
Version:stupid
Source:tokyo ghoul
Tags:anime
BeatmapID:1987534
BeatmapSetID:951747

[Difficulty]
HPDrainRate:0
CircleSize:5
OverallDifficulty:9
ApproachRate:10
SliderMultiplier:3.59999990463257
SliderTickRate:1

[Events]
//Background and Video events
0,0,"Untitled.png",0,0
//Break Periods
//Storyboard Layer 0 (Background)
//Storyboard Layer 1 (Fail)
//Storyboard Layer 2 (Pass)
//Storyboard Layer 3 (Foreground)
//Storyboard Sound Samples

[TimingPoints]
8889,444.444444444444,4,2,0,50,1,0
8889,-333.333333333333,4,2,0,50,0,0
10222,-200,4,2,0,50,0,0
12444,-50,4,2,0,50,0,0
12500,-50,4,2,0,5,0,0
12555,-50,4,2,0,50,0,0
15555,-200,4,2,0,50,0,0
16000,-50,4,2,0,50,0,0
16055,-50,4,2,0,5,0,0
16111,-50,4,2,0,50,0,0
17833,-50,4,2,0,5,0,0
17888,-50,4,2,0,50,0,0
19166,-50,4,2,0,5,0,0
19222,-50,4,2,0,50,0,0
19611,-50,4,2,0,5,0,0
20222,-50,4,2,0,50,0,0
21388,-50,4,2,0,5,0,0
21444,-50,4,2,0,50,0,0
22722,-50,4,2,0,5,0,0
22777,-50,4,2,0,50,0,0
23166,-50,4,2,0,5,0,0
23222,-50,4,2,0,50,0,0
24944,-50,4,2,0,5,0,0
25000,-50,4,2,0,50,0,0
26277,-50,4,2,0,5,0,0
26333,-50,4,2,0,50,0,0
26666,-40,4,2,0,50,0,0
26722,-50,4,2,0,5,0,0
26777,-40,4,2,0,50,0,0
28444,-33.3333333333333,4,2,0,50,0,0
28500,-50,4,2,0,5,0,0
29333,-33.3333333333333,4,2,0,50,0,0
29388,-50,4,2,0,5,0,0
29777,-25,4,2,0,50,0,0
29833,-50,4,2,0,5,0,0
29888,-25,4,2,0,50,0,0
30222,-33.3333333333333,4,2,0,50,0,0
30277,-50,4,2,0,5,0,0
30333,-33.3333333333333,4,2,0,50,0,0
32000,-20,4,2,0,50,0,0
32055,-50,4,2,0,5,0,0
32111,-20,4,2,0,50,0,0
32166,-50,4,2,0,5,0,0
32333,-20,4,2,0,50,0,0
32388,-50,4,2,0,5,0,0
32555,-20,4,2,0,50,0,0
32611,-50,4,2,0,5,0,0
32666,-20,4,2,0,50,0,0
32722,-50,4,2,0,5,0,0
32888,-26.6666666666667,4,2,0,50,0,0
33333,-133.333333333333,4,2,0,50,0,0
33777,-30.7692307692308,4,2,0,50,0,0
33833,-50,4,2,0,5,0,0
33888,-30.7692307692308,4,2,0,50,0,0
34000,-25,4,2,0,50,0,0
34055,-50,4,2,0,5,0,0
34111,-25,4,2,0,50,0,0
34666,-30.7692307692308,4,2,0,50,0,0
34722,-50,4,2,0,5,0,0
34777,-30.7692307692308,4,2,0,50,0,0
35611,-50,4,2,0,5,0,0
35666,-30.7692307692308,4,2,0,50,0,0
35777,-25,4,2,0,50,0,0
35833,-50,4,2,0,5,0,0
35888,-25,4,2,0,50,0,0
36444,-22.2222222222222,4,2,0,50,0,0
36500,-50,4,2,0,5,0,0
36555,-22.2222222222222,4,2,0,50,0,0
36944,-50,4,2,0,5,0,0
37000,-22.2222222222222,4,2,0,50,0,0
37333,-30.7692307692308,4,2,0,50,0,0
37388,-50,4,2,0,5,0,0
37444,-30.7692307692308,4,2,0,50,0,0
37555,-25,4,2,0,50,0,0
37611,-50,4,2,0,5,0,0
37666,-25,4,2,0,50,0,0
38222,-30.7692307692308,4,2,0,50,0,0
38277,-50,4,2,0,5,0,0
38333,-30.7692307692308,4,2,0,50,0,0
39166,-50,4,2,0,5,0,0
39222,-30.7692307692308,4,2,0,50,0,0
39333,-25,4,2,0,50,0,0
39388,-50,4,2,0,5,0,0
39444,-25,4,2,0,50,0,0
40000,-22.2222222222222,4,2,0,50,0,0
40055,-50,4,2,0,5,0,0
40111,-22.2222222222222,4,2,0,50,0,0
40888,-50,4,2,0,50,0,0
40944,-50,4,2,0,5,0,0
42666,-50,4,2,0,50,0,0
42722,-50,4,2,0,5,0,0
42888,-50,4,2,0,50,0,0
43000,-400,4,2,0,50,0,0
43333,-50,4,2,0,50,0,0
43388,-50,4,2,0,5,0,0
44000,-50,4,2,0,50,0,0
44500,-50,4,2,0,5,0,0
45111,-50,4,2,0,50,0,0
45166,-50,4,2,0,5,0,0
45555,-50,4,2,0,50,0,0
46000,-400,4,2,0,50,0,0
46222,-50,4,2,0,50,0,0
46277,-50,4,2,0,5,0,0
46444,-50,4,2,0,50,0,0
46944,-50,4,2,0,5,0,0
47333,-50,4,2,0,50,0,0
48055,-50,4,2,0,5,0,0
48888,-50,4,2,0,50,0,0
49333,-80,4,2,0,50,0,0
49388,-50,4,2,0,5,0,0
49777,-44.4444444444445,4,2,0,50,0,0
49833,-50,4,2,0,5,0,0
50222,-44.4444444444445,4,2,0,50,0,0
50277,-50,4,2,0,5,0,0
50444,-100,4,2,0,50,0,0
50500,-50,4,2,0,5,0,0
50555,-100,4,2,0,50,0,0
50611,-50,4,2,0,5,0,0
50666,-44.4444444444445,4,2,0,50,0,0
50722,-50,4,2,0,5,0,0
50888,-44.4444444444445,4,2,0,50,0,0
51111,-44.4444444444445,4,2,0,50,0,0
51166,-50,4,2,0,5,0,0
51333,-100,4,2,0,50,0,0
51388,-50,4,2,0,5,0,0
51444,-100,4,2,0,50,0,0
51500,-50,4,2,0,5,0,0
51555,-44.4444444444445,4,2,0,50,0,0
51611,-50,4,2,0,5,0,0
51777,-44.4444444444445,4,2,0,50,0,0
52055,-50,4,2,0,5,0,0
52222,-100,4,2,0,50,0,0
52277,-50,4,2,0,5,0,0
52333,-100,4,2,0,50,0,0
52388,-50,4,2,0,5,0,0
52444,-44.4444444444445,4,2,0,50,0,0
52500,-50,4,2,0,5,0,0
52666,-100,4,2,0,50,0,0
52722,-50,4,2,0,5,0,0
52777,-100,4,2,0,50,0,0
52833,-50,4,2,0,5,0,0
52888,-44.4444444444445,4,2,0,50,0,0
52944,-50,4,2,0,5,0,0
53111,-80,4,2,0,50,0,0
53166,-50,4,2,0,5,0,0
53333,-44.4444444444445,4,2,0,50,0,0
53388,-50,4,2,0,5,0,0
53555,-44.4444444444445,4,2,0,50,0,0
53833,-50,4,2,0,5,0,0
54000,-100,4,2,0,50,0,0
54055,-50,4,2,0,5,0,0
54111,-100,4,2,0,50,0,0
54166,-50,4,2,0,5,0,0
54222,-44.4444444444445,4,2,0,50,0,0
54277,-50,4,2,0,5,0,0
54444,-44.4444444444445,4,2,0,50,0,0
56000,-20,4,2,0,50,0,0
56055,-50,4,2,0,5,0,0
56111,-50,4,2,0,50,0,0
56166,-50,4,2,0,5,0,0
56222,-20,4,2,0,50,0,0
56277,-50,4,2,0,5,0,0
56333,-50,4,2,0,50,0,0
56388,-50,4,2,0,5,0,0
56444,-25,4,2,0,50,0,0
56500,-50,4,2,0,5,0,0
56888,-20,4,2,0,50,0,1
56944,-50,4,2,0,5,0,1
57222,-20,4,2,0,50,0,1
57277,-50,4,2,0,5,0,1
57555,-20,4,2,0,50,0,1
57611,-50,4,2,0,5,0,1
57777,-16,4,2,0,50,0,1
57833,-50,4,2,0,5,0,1
57888,-16,4,2,0,50,0,1
58222,-20,4,2,0,50,0,1
58277,-50,4,2,0,5,0,1
58333,-20,4,2,0,50,0,1
58722,-50,4,2,0,5,0,1
59000,-20,4,2,0,50,0,1
59055,-50,4,2,0,5,0,1
59333,-20,4,2,0,50,0,1
59388,-50,4,2,0,5,0,1
59555,-16,4,2,0,50,0,1
59611,-20,4,2,0,5,0,1
59666,-16,4,2,0,50,0,1
60000,-20,4,2,0,50,0,1
60055,-20,4,2,0,5,0,1
60111,-20,4,2,0,50,0,1
60500,-20,4,2,0,5,0,1
60777,-20,4,2,0,50,0,1
60833,-20,4,2,0,5,0,1
61111,-20,4,2,0,50,0,1
61166,-20,4,2,0,5,0,1
61333,-16,4,2,0,50,0,1
61388,-20,4,2,0,5,0,1
61444,-16,4,2,0,50,0,1
61777,-20,4,2,0,50,0,1
61833,-20,4,2,0,5,0,1
61888,-20,4,2,0,50,0,1
62277,-20,4,2,0,5,0,1
62555,-20,4,2,0,50,0,1
62611,-20,4,2,0,5,0,1
62888,-20,4,2,0,50,0,1
62944,-20,4,2,0,5,0,1
63111,-16,4,2,0,50,0,1
63166,-20,4,2,0,5,0,1
63222,-16,4,2,0,50,0,1
63555,-20,4,2,0,50,0,1
63611,-20,4,2,0,5,0,1
63666,-20,4,2,0,50,0,1
64055,-20,4,2,0,5,0,1
64333,-20,4,2,0,50,0,1
64388,-20,4,2,0,5,0,1
64666,-20,4,2,0,50,0,1
64722,-20,4,2,0,5,0,1
64888,-16,4,2,0,50,0,1
64944,-20,4,2,0,5,0,1
65000,-16,4,2,0,50,0,1
65333,-20,4,2,0,50,0,1
65388,-20,4,2,0,5,0,1
65444,-20,4,2,0,50,0,1
65833,-20,4,2,0,5,0,1
66111,-20,4,2,0,50,0,1
66166,-20,4,2,0,5,0,1
66444,-20,4,2,0,50,0,1
66500,-20,4,2,0,5,0,1
66666,-16,4,2,0,50,0,1
66722,-20,4,2,0,5,0,1
66777,-16,4,2,0,50,0,1
67111,-20,4,2,0,50,0,1
67166,-20,4,2,0,5,0,1
67222,-20,4,2,0,50,0,1
67611,-20,4,2,0,5,0,1
67888,-20,4,2,0,50,0,1
67944,-20,4,2,0,5,0,1
68222,-20,4,2,0,50,0,1
68277,-20,4,2,0,5,0,1
68444,-16,4,2,0,50,0,1
68500,-20,4,2,0,5,0,1
68555,-16,4,2,0,50,0,1
68888,-20,4,2,0,50,0,1
68944,-20,4,2,0,5,0,1
69000,-20,4,2,0,50,0,1
69388,-20,4,2,0,5,0,1
69666,-20,4,2,0,50,0,1
69722,-20,4,2,0,5,0,1
70000,-20,4,2,0,50,0,1
70055,-20,4,2,0,5,0,1
70222,-16,4,2,0,50,0,1
70277,-20,4,2,0,5,0,1
70333,-16,4,2,0,50,0,1
70666,-20,4,2,0,50,0,1
70722,-20,4,2,0,5,0,1
70777,-20,4,2,0,50,0,1
71166,-20,4,2,0,5,0,1
71333,-50,4,2,0,50,0,1
71388,-20,4,2,0,5,0,1
71555,-16,4,2,0,50,0,1
71611,-20,4,2,0,5,0,1
71777,-50,4,2,0,50,0,1
71833,-20,4,2,0,5,0,1
72000,-20,4,2,0,50,0,1
72055,-20,4,2,0,5,0,1
72222,-50,4,2,0,50,0,1
72277,-20,4,2,0,5,0,1
72444,-16,4,2,0,50,0,1
72500,-20,4,2,0,5,0,1
72555,-16,4,2,0,50,0,1
72888,-20,4,2,0,50,0,1
72944,-20,4,2,0,5,0,1
73111,-50,4,2,0,50,0,1
73166,-20,4,2,0,5,0,1
73333,-16,4,2,0,50,0,1
73388,-20,4,2,0,5,0,1
73555,-50,4,2,0,50,0,1
73611,-20,4,2,0,5,0,1
73777,-20,4,2,0,50,0,1
73833,-20,4,2,0,5,0,1
74000,-50,4,2,0,50,0,1
74055,-20,4,2,0,5,0,1
74111,-16,4,2,0,50,0,1
74166,-20,4,2,0,5,0,1
74222,-16,4,2,0,50,0,1
74277,-20,4,2,0,5,0,1
74444,-16,4,2,0,50,0,1
74500,-20,4,2,0,5,0,1
74555,-16,4,2,0,50,0,1
74611,-20,4,2,0,5,0,1
74666,-20,4,2,0,50,0,1
74722,-20,4,2,0,5,0,1
74888,-20,4,2,0,50,0,1
75111,-16,4,2,0,50,0,1
75166,-20,4,2,0,5,0,1
75333,-50,4,2,0,50,0,1
75388,-20,4,2,0,5,0,1
75555,-20,4,2,0,50,0,1
75611,-20,4,2,0,5,0,1
75777,-50,4,2,0,50,0,1
75833,-20,4,2,0,5,0,1
76000,-16,4,2,0,50,0,1
76055,-20,4,2,0,5,0,1
76222,-16,4,2,0,50,0,1
76277,-20,4,2,0,5,0,1
76333,-16,4,2,0,50,0,1
76388,-20,4,2,0,5,0,1
76444,-20,4,2,0,50,0,1
76500,-20,4,2,0,5,0,1
76666,-20,4,2,0,50,0,1
76888,-16,4,2,0,50,0,1
76944,-20,4,2,0,5,0,1
77111,-50,4,2,0,50,0,1
77166,-20,4,2,0,5,0,1
77333,-50,4,2,0,50,0,1
78166,-50,4,2,0,50,0,0
78222,-12,4,2,0,50,0,1
78277,-20,4,2,0,5,0,0
78444,-12,4,2,0,50,0,1
78500,-20,4,2,0,5,0,0
78666,-12,4,2,0,50,0,1
78722,-20,4,2,0,5,0,0
78888,-12,4,2,0,50,0,1
78944,-20,4,2,0,5,0,0
79111,-12,4,2,0,50,0,1
79166,-20,4,2,0,5,0,0
79333,-12,4,2,0,50,0,1
79388,-20,4,2,0,5,0,0
79555,-12,4,2,0,50,0,1
79611,-20,4,2,0,5,0,0
79777,-12,4,2,0,50,0,1
79833,-20,4,2,0,5,0,0
80000,-10,4,2,0,50,0,1
80055,-10,4,2,0,5,0,0
80888,-20,4,2,0,50,0,0
80944,-20,4,2,0,5,0,0
81777,-50,4,2,0,50,0,0
81833,-50,4,2,0,5,0,0

[HitObjects]
469,170,8889,6,0,P|470:210|457:248,1,80.9999953823091
451,265,9333,1,0,0:0:0:0:
414,301,9444,1,0,0:0:0:0:
359,313,9555,1,0,0:0:0:0:
296,302,9666,1,0,0:0:0:0:
199,374,10222,6,0,P|234:346|257:308,1,89.9999976158142
260,254,10555,1,0,0:0:0:0:
247,212,10666,1,0,0:0:0:0:
230,192,10777,1,0,0:0:0:0:
211,178,10888,1,0,0:0:0:0:
206,175,11333,1,0,0:0:0:0:
212,195,12000,6,0,P|199:152|214:194,1,134.999996423721
206,175,12444,6,0,L|119:211,1,89.9999976158142
117,212,12555,1,0,0:0:0:0:
112,215,12666,1,0,0:0:0:0:
233,176,12888,1,0,0:0:0:0:
166,206,13110,1,0,0:0:0:0:
97,233,13333,1,0,0:0:0:0:
72,86,14000,5,0,0:0:0:0:
53,105,14111,1,0,0:0:0:0:
24,149,14222,1,0,0:0:0:0:
31,189,14333,1,0,0:0:0:0:
49,215,14444,1,0,0:0:0:0:
117,286,14777,5,0,0:0:0:0:
110,246,14888,1,0,0:0:0:0:
92,220,14999,1,0,0:0:0:0:
50,293,15555,6,0,P|23:257|45:297,1,134.999996423721
39,277,16000,6,0,L|169:225,1,89.9999976158143
129,240,16110,1,0,0:0:0:0:
136,238,16221,1,0,0:0:0:0:
34,311,16444,1,0,0:0:0:0:
167,248,16666,1,0,0:0:0:0:
178,254,17111,1,0,0:0:0:0:
286,195,17444,5,0,0:0:0:0:
289,243,17555,1,0,0:0:0:0:
319,275,17666,1,0,0:0:0:0:
369,275,17777,6,0,L|305:212,1,89.9999976158143
298,205,17888,1,0,0:0:0:0:
292,200,18000,1,0,0:0:0:0:
286,195,18111,1,0,0:0:0:0:
365,297,18444,1,0,0:0:0:0:
299,178,18888,1,0,0:0:0:0:
481,165,19111,6,0,B|437:157|437:157|407:190,1,89.9999976158143
407,196,19222,1,0,0:0:0:0:
408,202,19333,1,0,0:0:0:0:
411,206,19444,1,0,0:0:0:0:
454,211,19555,6,0,L|422:110,1,89.9999976158143
446,110,20222,1,0,0:0:0:0:
443,230,20444,1,0,0:0:0:0:
323,58,21000,5,0,0:0:0:0:
320,101,21111,1,0,0:0:0:0:
301,137,21222,1,0,0:0:0:0:
248,133,21333,6,0,L|332:97,1,89.9999976158143
337,95,21444,1,0,0:0:0:0:
342,94,21555,1,0,0:0:0:0:
348,92,21666,1,0,0:0:0:0:
257,173,21888,1,0,0:0:0:0:
223,154,22000,1,0,0:0:0:0:
361,67,22333,1,0,0:0:0:0:
332,48,22444,1,0,0:0:0:0:
103,111,22666,6,0,B|105:64|105:64|145:45,1,89.9999976158143
151,46,22777,1,0,0:0:0:0:
157,48,22888,1,0,0:0:0:0:
160,52,22999,1,0,0:0:0:0:
155,96,23111,6,0,L|87:182,1,89.9999976158143
95,174,23222,1,0,0:0:0:0:
91,180,23333,1,0,0:0:0:0:
87,185,23444,1,0,0:0:0:0:
175,112,23777,1,0,0:0:0:0:
182,78,23888,1,0,0:0:0:0:
73,174,24222,1,0,0:0:0:0:
73,208,24333,1,0,0:0:0:0:
236,196,24555,5,0,0:0:0:0:
240,240,24666,1,0,0:0:0:0:
215,282,24777,1,0,0:0:0:0:
161,311,24888,6,0,L|272:334,1,89.9999976158143
256,331,25000,1,0,0:0:0:0:
263,333,25111,1,0,0:0:0:0:
270,336,25222,1,0,0:0:0:0:
159,273,25444,1,0,0:0:0:0:
166,246,25555,1,0,0:0:0:0:
293,204,25888,1,0,0:0:0:0:
286,240,26000,1,0,0:0:0:0:
369,327,26222,6,0,B|411:308|411:308|416:264,1,89.9999976158143
413,259,26333,1,0,0:0:0:0:
409,254,26444,1,0,0:0:0:0:
404,253,26555,1,0,0:0:0:0:
364,274,26666,6,0,L|480:359,1,112.499997019768
459,345,26777,1,0,0:0:0:0:
464,349,26888,1,0,0:0:0:0:
469,353,27000,1,0,0:0:0:0:
497,313,27111,5,0,0:0:0:0:
490,310,27222,1,0,0:0:0:0:
436,281,27333,5,0,0:0:0:0:
445,277,27444,1,0,0:0:0:0:
505,240,27555,5,0,0:0:0:0:
494,238,27666,1,0,0:0:0:0:
420,212,27777,5,0,0:0:0:0:
436,205,27888,1,0,0:0:0:0:
500,165,28000,5,0,0:0:0:0:
479,153,28111,1,0,0:0:0:0:
393,119,28222,5,0,0:0:0:0:
425,106,28333,1,0,0:0:0:0:
465,21,28444,6,0,L|448:155,1,135.000001573563
357,74,29333,6,0,L|400:223,1,135.000001573563
278,61,29777,6,0,B|295:125|295:125|262:248,1,179.999995231629
261,249,29888,1,0,0:0:0:0:
258,260,30000,1,0,0:0:0:0:
256,270,30111,1,0,0:0:0:0:
274,291,30222,6,0,L|315:133,1,135.000001573563
310,153,30333,1,0,0:0:0:0:
312,146,30444,1,0,0:0:0:0:
371,122,30555,5,0,0:0:0:0:
367,116,30666,1,0,0:0:0:0:
362,109,30777,1,0,0:0:0:0:
425,74,30888,5,0,0:0:0:0:
401,61,31000,1,0,0:0:0:0:
361,5,31111,5,0,0:0:0:0:
355,14,31222,1,0,0:0:0:0:
349,21,31333,1,0,0:0:0:0:
287,5,31444,5,0,0:0:0:0:
283,14,31555,1,0,0:0:0:0:
279,23,31666,1,0,0:0:0:0:
215,13,31777,5,0,0:0:0:0:
204,31,31888,1,0,0:0:0:0:
100,25,32000,6,0,B|119:134|119:134|65:250,1,224.999994039536
86,261,32111,2,0,B|134:157|134:157|115:48,1,224.999994039536
238,256,32333,6,0,B|157:175|157:175|137:66,1,224.999994039536
100,303,32555,6,0,B|148:199|148:199|129:90,1,224.999994039536
144,113,32666,2,0,B|163:222|163:222|115:326,1,224.999994039536
283,146,32888,6,0,B|184:204|184:204|133:318,1,224.999999403954
137,309,33037,1,0,0:0:0:0:
135,313,33111,1,0,0:0:0:0:
134,318,33185,1,0,0:0:0:0:
132,322,33259,1,0,0:0:0:0:
131,327,33333,6,0,P|217:372|306:331,1,202.500002360344
320,315,33777,6,0,L|376:171,1,146.250000309944
380,161,33888,1,0,0:0:0:0:
412,111,34000,6,0,B|358:136|358:136|314:248,1,179.999995231629
308,265,34111,1,0,0:0:0:0:
160,74,34333,5,0,0:0:0:0:
222,63,34444,1,0,0:0:0:0:
285,50,34555,1,0,0:0:0:0:
353,72,34666,6,0,L|195:103,1,146.250000309944
193,106,34777,1,0,0:0:0:0:
173,111,34888,1,0,0:0:0:0:
157,115,35000,1,0,0:0:0:0:
56,222,35222,5,0,0:0:0:0:
32,162,35333,1,0,0:0:0:0:
8,104,35444,1,0,0:0:0:0:
14,34,35555,6,0,L|74:186,1,146.250000309944
74,185,35666,1,0,0:0:0:0:
159,226,35777,6,0,B|105:200|105:200|61:88,1,179.999995231629
58,77,35888,1,0,0:0:0:0:
348,153,36111,5,0,0:0:0:0:
332,214,36222,1,0,0:0:0:0:
290,264,36333,1,0,0:0:0:0:
232,298,36444,6,0,B|259:221|259:221|312:198|312:198|336:137,1,202.500002360344
339,129,36555,1,0,0:0:0:0:
343,120,36666,1,0,0:0:0:0:
346,111,36777,1,0,0:0:0:0:
267,93,36888,6,0,B|289:152|289:152|342:174|342:174|370:251,1,202.500002360344
374,262,37000,1,0,0:0:0:0:
378,272,37111,1,0,0:0:0:0:
381,281,37222,1,0,0:0:0:0:
396,322,37333,6,0,L|467:183,1,146.250000309944
473,176,37444,1,0,0:0:0:0:
503,99,37555,6,0,B|519:156|519:156|463:262,1,179.999995231629
456,281,37666,1,0,0:0:0:0:
291,54,37888,5,0,0:0:0:0:
349,30,37999,1,0,0:0:0:0:
407,5,38110,1,0,0:0:0:0:
485,6,38222,6,0,L|334:68,1,146.250000309944
334,71,38333,1,0,0:0:0:0:
316,79,38444,1,0,0:0:0:0:
302,85,38555,1,0,0:0:0:0:
213,184,38777,5,0,0:0:0:0:
236,240,38888,1,0,0:0:0:0:
260,299,38999,1,0,0:0:0:0:
316,353,39111,6,0,L|253:201,1,146.250000309944
252,199,39222,1,0,0:0:0:0:
165,158,39333,6,0,B|219:182|219:182|265:293,1,179.999995231629
272,310,39444,1,0,0:0:0:0:
21,154,39666,5,0,0:0:0:0:
37,93,39777,1,0,0:0:0:0:
79,43,39888,1,0,0:0:0:0:
137,9,40000,6,0,B|110:86|110:86|57:109|57:109|33:170,1,202.500002360344
29,181,40110,1,0,0:0:0:0:
24,193,40221,1,0,0:0:0:0:
21,206,40332,1,0,0:0:0:0:
0,275,40444,5,0,0:0:0:0:
9,285,40555,1,0,0:0:0:0:
72,328,40666,5,0,0:0:0:0:
58,337,40777,1,0,0:0:0:0:
2,384,40888,6,0,L|45:280,1,89.9999976158143
158,178,42666,6,0,L|196:283,1,89.9999976158143
227,360,42888,1,0,0:0:0:0:
194,334,43000,6,0,P|181:315|177:293,1,44.9999988079071
187,196,43333,6,0,L|217:280,1,89.9999976158143
275,139,44000,5,0,0:0:0:0:
355,221,44222,1,0,0:0:0:0:
334,244,44333,1,0,0:0:0:0:
319,293,44444,6,0,L|394:219,1,89.9999976158143
359,288,45111,2,0,L|434:214,1,89.9999976158143
428,48,45555,5,0,0:0:0:0:
419,54,45888,1,0,0:0:0:0:
408,84,46000,6,0,P|407:100|418:118,1,33.7499991059303
477,192,46222,6,0,L|444:83,1,89.9999976158143
490,171,46888,2,0,L|457:62,1,89.9999976158143
272,82,47333,5,0,0:0:0:0:
275,91,47666,1,0,0:0:0:0:
273,124,47777,1,0,0:0:0:0:
263,150,47888,1,0,0:0:0:0:
225,177,48000,6,0,L|270:65,1,89.9999976158143
142,63,48888,5,0,0:0:0:0:
146,70,49111,1,0,0:0:0:0:
149,103,49222,1,0,0:0:0:0:
140,138,49333,6,0,P|128:162|107:182,1,56.2499985098839
40,260,49777,6,0,L|18:375,1,101.250001180172
68,244,50222,2,0,L|46:359,1,101.250001180172
185,304,50444,6,0,P|182:281|173:258,1,44.9999988079071
143,247,50555,2,0,P|146:270|155:293,1,44.9999988079071
217,356,50666,6,0,L|197:256,1,101.250001180172
194,180,50888,1,0,0:0:0:0:
245,372,51111,2,0,L|225:272,1,101.250001180172
399,185,51333,6,0,P|420:193|444:197,1,44.9999988079071
469,177,51444,2,0,P|447:168|423:164,1,44.9999988079071
337,186,51555,6,0,L|433:218,1,101.250001180172
501,254,51777,1,0,0:0:0:0:
310,202,52000,2,0,L|406:234,1,101.250001180172
313,41,52222,6,0,P|291:49|267:53,1,44.9999988079071
243,33,52333,2,0,P|264:24|288:20,1,44.9999988079071
375,42,52444,6,0,L|278:74,1,101.250001180172
450,117,52666,6,0,P|428:125|404:129,1,44.9999988079071
380,109,52777,2,0,P|401:100|425:96,1,44.9999988079071
512,118,52888,6,0,L|415:150,1,101.250001180172
279,180,53111,6,0,P|257:164|240:140,1,56.2499985098839
184,10,53333,6,0,L|133:113,1,101.250001180172
99,196,53555,1,0,0:0:0:0:
156,29,53777,2,0,L|105:132,1,101.250001180172
64,292,54000,6,0,P|54:271|40:251,1,44.9999988079071
8,248,54111,2,0,P|17:269|31:289,1,44.9999988079071
107,334,54222,6,0,L|61:243,1,101.250001180172
21,168,54444,1,0,0:0:0:0:
151,251,54666,5,0,0:0:0:0:
160,257,54740,1,0,0:0:0:0:
170,264,54814,1,0,0:0:0:0:
203,194,54888,5,0,0:0:0:0:
212,188,54962,1,0,0:0:0:0:
222,181,55036,1,0,0:0:0:0:
281,239,55111,5,0,0:0:0:0:
399,48,56000,6,0,B|355:149|355:149|247:217,1,224.999994039536
286,226,56111,6,0,L|364:180,1,89.9999976158143
456,216,56222,6,0,B|341:210|341:210|247:267,1,224.999994039536
272,281,56333,6,0,L|350:235,1,89.9999976158143
379,232,56444,6,0,B|374:276|374:276|291:327|291:327|245:309,1,179.999995231629
168,58,56888,6,0,L|72:265,1,224.999994039536
260,159,57222,6,0,L|45:237,1,224.999994039536
253,295,57555,6,0,L|45:199,1,224.999994039536
62,102,57777,6,0,B|74:157|74:157|109:190|109:190|150:213|150:213|190:221|190:221|223:250|223:250|266:260,1,281.24999254942
296,267,57888,1,0,0:0:0:0:
362,252,58000,1,0,0:0:0:0:
420,206,58111,1,0,0:0:0:0:
346,151,58222,6,0,L|426:372,1,224.999994039536
443,378,58333,1,0,0:0:0:0:
481,316,58444,1,0,0:0:0:0:
480,242,58555,1,0,0:0:0:0:
488,161,58666,6,0,L|296:277,1,224.999994039536
354,5,59000,6,0,L|470:197,1,224.999994039536
193,138,59333,6,0,L|385:22,1,224.999994039536
491,80,59555,6,0,B|452:72|452:72|430:57|430:57|394:53|394:53|359:86|359:86|319:104|319:104|277:117|277:117|217:167,1,281.24999254942
223,167,59666,1,0,0:0:0:0:
152,181,59777,1,0,0:0:0:0:
92,136,59888,1,0,0:0:0:0:
56,42,60000,6,0,L|0:269,1,224.999994039536
0,288,60111,1,0,0:0:0:0:
23,351,60222,1,0,0:0:0:0:
88,360,60333,1,0,0:0:0:0:
173,342,60444,6,0,L|294:131,1,224.999994039536
400,220,60777,6,0,L|156:220,1,224.999994039536
180,84,61111,6,0,L|302:294,1,224.999994039536
373,332,61333,6,0,B|322:307|322:307|302:251|302:251|265:213|265:213|252:156|252:156|232:141|232:141|211:89,1,281.24999254942
211,92,61444,1,0,0:0:0:0:
243,27,61555,1,0,0:0:0:0:
312,26,61666,1,0,0:0:0:0:
393,59,61777,6,0,L|149:55,1,224.999994039536
141,62,61888,1,0,0:0:0:0:
100,124,62000,1,0,0:0:0:0:
127,187,62111,1,0,0:0:0:0:
186,254,62222,6,0,L|283:26,1,224.999994039536
264,304,62555,6,0,L|361:76,1,224.999994039536
471,54,62888,6,0,L|382:261,1,224.999994039536
255,383,63111,6,0,B|279:343|279:343|286:313|286:313|314:306|314:306|336:279|336:279|361:270|361:270|367:241|367:241|390:221|390:221|389:194|389:194|413:139,1,281.24999254942
410,138,63222,1,0,0:0:0:0:
447,77,63333,1,0,0:0:0:0:
434,5,63444,1,0,0:0:0:0:
370,59,63555,6,0,L|458:266,1,224.999994039536
468,290,63666,1,0,0:0:0:0:
455,355,63777,1,0,0:0:0:0:
390,384,63888,1,0,0:0:0:0:
306,362,64000,6,0,L|104:243,1,224.999994039536
307,169,64333,6,0,L|113:283,1,224.999994039536
101,85,64666,6,0,L|294:199,1,224.999994039536
447,292,64888,6,0,B|417:286|417:286|405:277|405:277|391:250|391:250|347:223|347:223|325:202|325:202|292:187|292:187|265:173|265:173|246:152|246:152|196:124,1,281.24999254942
203,125,65000,1,0,0:0:0:0:
225,59,65111,1,0,0:0:0:0:
179,8,65222,1,0,0:0:0:0:
143,77,65333,6,0,L|127:320,1,224.999994039536
126,331,65444,1,0,0:0:0:0:
66,362,65555,1,0,0:0:0:0:
18,315,65666,1,0,0:0:0:0:
2,242,65777,6,0,L|125:54,1,224.999994039536
307,213,66111,6,0,L|119:90,1,224.999994039536
436,54,66444,6,0,L|313:242,1,224.999994039536
185,368,66666,6,0,B|221:350|221:350|233:319|233:319|246:320|246:320|261:289|261:289|263:277|263:277|286:256|286:256|296:254|296:254|301:213|301:213|308:210|308:210|347:171|347:171|354:121,1,281.24999254942
361,153,66777,1,0,0:0:0:0:
393,88,66888,1,0,0:0:0:0:
347,35,67000,1,0,0:0:0:0:
238,22,67111,6,0,L|364:251,1,224.999994039536
391,278,67222,1,0,0:0:0:0:
460,257,67333,1,0,0:0:0:0:
467,186,67444,1,0,0:0:0:0:
398,145,67555,6,0,L|466:365,1,224.999994039536
314,174,67888,6,0,L|527:288,1,224.999994039536
496,166,68222,6,0,L|329:363,1,224.999994039536
198,383,68444,6,0,B|242:378|242:378|272:358|272:358|294:342|294:342|295:332|295:332|299:324|299:324|301:327|301:327|336:309|336:309|339:303|339:303|354:295|354:295|367:285|367:285|388:278|388:278|411:248|411:248|423:214,1,281.24999254942
419,218,68555,1,0,0:0:0:0:
361,183,68666,1,0,0:0:0:0:
293,199,68777,1,0,0:0:0:0:
253,278,68888,6,0,L|31:246,1,224.999994039536
1,241,69000,1,0,0:0:0:0:
1,168,69111,1,0,0:0:0:0:
65,142,69222,1,0,0:0:0:0:
71,226,69333,6,0,L|0:13,1,224.999994039536
232,74,69666,6,0,L|83:241,1,224.999994039536
4,4,70000,6,0,L|223:49,1,224.999994039536
412,94,70222,6,0,B|377:84|377:84|356:80|356:80|340:85|340:85|300:89|300:89|296:82|296:82|287:84|287:84|258:72|258:72|239:72|239:72|211:79|211:79|191:76|191:76|176:72|176:72|167:68|167:68|152:83|152:83|129:91,1,281.24999254942
131,95,70333,1,0,0:0:0:0:
90,148,70444,1,0,0:0:0:0:
119,210,70555,1,0,0:0:0:0:
168,280,70666,6,0,L|418:270,1,224.999994039536
410,272,70777,1,0,0:0:0:0:
461,219,70888,1,0,0:0:0:0:
431,158,71000,1,0,0:0:0:0:
359,109,71111,6,0,L|403:334,1,224.999994039536
343,150,71333,6,0,P|331:197|306:244,1,89.9999976158143
253,364,71555,6,0,B|274:321|274:321|271:274|271:274|288:263|288:263|311:232|311:232|307:189|307:189|299:153|299:153|325:114|325:114|321:93,1,281.24999254942
106,106,71777,6,0,P|150:91|204:59,1,89.9999976158143
282,23,72000,6,0,L|54:102,1,224.999994039536
100,334,72222,6,0,P|82:291|77:229,1,89.9999976158143
86,122,72444,6,0,B|95:115|95:115|94:145|94:145|86:161|86:161|83:185|83:185|96:208|96:208|103:219|103:219|101:241|101:241|106:260|106:260|118:277|118:277|105:298|105:298|130:323|130:323|127:367,1,281.24999254942
144,376,72555,1,0,0:0:0:0:
212,348,72666,1,0,0:0:0:0:
241,285,72777,1,0,0:0:0:0:
244,199,72888,6,0,L|19:303,1,224.999994039536
89,163,73111,6,0,P|141:155|201:125,1,89.9999976158143
284,69,73333,6,0,B|279:63|279:63|277:86|277:86|245:94|245:94|237:102|237:102|214:103|214:103|211:111|211:111|183:123|183:123|155:125|155:125|140:141|140:141|103:143|103:143|62:160|62:160|14:151,1,281.24999254942
289,99,73555,6,0,P|298:142|320:181,1,89.9999976158143
385,278,73777,6,0,L|304:67,1,224.999994039536
507,83,74000,6,0,P|498:129|468:171,1,89.9999976158143
399,306,74111,6,0,B|418:294|418:294|421:256|421:256|439:247|439:247|434:188|434:188|458:174|458:174|459:143|459:143|464:129|464:129|480:104|480:104|477:87|477:87|498:31,1,281.24999254942
454,17,74222,6,0,B|455:48|455:48|439:76|439:76|444:102|444:102|438:104|438:104|444:139|444:139|412:159|412:159|415:184|415:184|423:199|423:199|409:228|409:228|393:255|393:255|377:248,1,281.24999254942
136,199,74444,6,0,B|135:212|135:212|180:169|180:169|184:174|184:174|198:155|198:155|228:158|228:158|252:113|252:113|280:108|280:108|303:107|303:107|308:80|308:80|334:74,1,281.24999254942
373,86,74555,6,0,B|350:103|350:103|340:132|340:132|319:148|319:148|299:141|299:141|283:155|283:155|261:158|261:158|260:185|260:185|224:191|224:191|205:209|205:209|171:217|171:217|166:239,1,281.24999254942
124,173,74666,6,0,L|404:213,1,224.999994039536
493,221,74888,1,0,0:0:0:0:
309,9,75111,6,0,B|310:29|310:29|321:34|321:34|317:52|317:52|327:65|327:65|334:81|334:81|324:91|324:91|314:116|314:116|331:132|331:132|330:170|330:170|355:184|355:184|349:191|349:191|344:200|344:200|360:211|360:211|351:242,1,281.24999254942
269,346,75333,6,0,P|267:295|251:241,1,89.9999976158143
209,150,75555,6,0,L|245:372,1,224.999994039536
39,239,75777,6,0,P|33:194|40:150,1,89.9999976158143
64,42,76000,6,0,B|81:31|81:31|76:65|76:65|69:76|69:76|73:82|73:82|66:103|66:103|80:120|80:120|77:136|77:136|87:147|87:147|77:171|77:171|81:184|81:184|71:209|71:209|77:213|77:213|60:240|60:240|70:247|70:247|60:309,1,281.24999254942
325,143,76222,6,0,B|303:153|303:153|282:147|282:147|261:168|261:168|244:169|244:169|225:188|225:188|199:183|199:183|181:188|181:188|170:188|170:188|158:203|158:203|141:208|141:208|127:229|127:229|119:231|119:231|106:254|106:254|77:248,1,281.24999254942
69,297,76333,6,0,B|109:289|109:289|132:295|132:295|160:272|160:272|167:254|167:254|213:251|213:251|245:228|245:228|273:224|273:224|297:201|297:201|345:205,1,281.24999254942
373,160,76444,6,0,L|158:239,1,224.999994039536
34,282,76666,1,0,0:0:0:0:
193,337,76888,6,0,B|190:332|190:332|225:347|225:347|246:349|246:349|266:336|266:336|287:352|287:352|315:336|315:336|334:352|334:352|352:335|352:335|370:328|370:328|378:342|378:342|396:336|396:336|412:341|412:341|466:341,1,281.24999254942
420,270,77111,6,0,P|399:226|395:177,1,89.9999976158143
466,47,77333,5,0,0:0:0:0:
455,75,77444,1,0,0:0:0:0:
405,162,77555,5,0,0:0:0:0:
400,135,77666,1,0,0:0:0:0:
328,35,77777,5,0,0:0:0:0:
325,65,77888,1,0,0:0:0:0:
279,169,78000,5,0,0:0:0:0:
264,135,78111,1,0,0:0:0:0:
167,43,78222,6,0,B|203:100|203:100|285:109|285:109|327:149|327:149|377:149|377:149|421:205|421:205|486:230,1,374.999990065893
346,321,78444,6,0,B|345:320|345:320|315:302|315:302|311:272|311:272|286:262|286:262|281:226|281:226|244:206|244:206|220:181|220:181|221:156|221:156|198:124|198:124|164:111|164:111|155:84|155:84|143:47,1,374.999990065893
36,120,78666,6,0,B|82:156|82:156|130:151|130:151|172:166|172:166|212:207|212:207|279:186|279:186|310:226|310:226|410:225,1,374.999990065893
443,134,78888,6,0,B|396:183|396:183|352:186|352:186|327:178|327:178|298:215|298:215|258:197|258:197|226:230|226:230|172:235|172:235|151:268|151:268|130:263,1,374.999990065893
219,356,79111,6,0,B|251:328|251:328|218:297|218:297|212:232|212:232|186:176|186:176|150:182|150:182|150:138|150:138|119:123|119:123|109:93|109:93|141:23,1,374.999990065893
274,44,79333,6,0,B|248:80|248:80|229:93|229:93|216:119|216:119|215:150|215:150|217:192|217:192|172:228|172:228|154:256|154:256|100:250|100:250|91:291|91:291|36:299,1,374.999990065893
6,174,79555,6,0,B|-8:186|-8:186|56:182|56:182|91:153|91:153|147:161|147:161|184:138|184:138|214:164|214:164|226:139|226:139|234:142|234:142|281:142|281:142|319:112,1,374.999990065893
418,277,79777,6,0,B|403:258|403:258|397:233|397:233|362:243|362:243|346:235|346:235|345:223|345:223|312:209|312:209|299:170|299:170|239:144|239:144|240:114|240:114|200:110|200:110|177:82|177:82|163:83,1,374.999990065893
109,355,80000,6,0,B|112:361|112:361|134:344|134:344|140:321|140:321|159:321|159:321|168:317|168:317|183:307|183:307|197:282|197:282|201:285|201:285|208:283|208:283|220:289|220:289|243:255|243:255|264:247|264:247|280:208|280:208|299:198|299:198|336:202|336:202|341:198|341:198|341:191|341:191|356:170|356:170|356:165|356:165|374:138|374:138|391:138|391:138|401:132|401:132|423:127|423:127|425:108,1,449.999988079071
440,145,80888,6,0,L|352:378,1,224.999994039536
476,315,81777,6,0,L|508:400,1,89.9999976158143
