osu file format v14

[General]
AudioFilename: audio.mp3
AudioLeadIn: 0
PreviewTime: 55643
Countdown: 0
SampleSet: Soft
StackLeniency: 0.7
Mode: 0
LetterboxInBreaks: 0
WidescreenStoryboard: 1

[Editor]
DistanceSpacing: 1.3
BeatDivisor: 7
GridSize: 32
TimelineZoom: 1.6

[Metadata]
Title:unravel (TV Size)
TitleUnicode:unravel (TV Size)
Artist:TK from Ling tosite sigure
ArtistUnicode:TK from 凛として時雨
Creator:NeKroMan4ik
Version:wanpachi's normal
Source:東京喰種トーキョーグール
Tags:djulus wenet wenect unranked schoolboy mapper komore nymphe kiyoshi guarden wanpachi cycopton kudosu soop so0p tokyo ghoul op opening japanese anime rock jrock j-rock
BeatmapID:2633478
BeatmapSetID:1266431

[Difficulty]
HPDrainRate:3
CircleSize:3.3
OverallDifficulty:4
ApproachRate:5
SliderMultiplier:1.3
SliderTickRate:1

[Events]
//Background and Video events
0,0,"djulus.jpg",0,0
//Break Periods
//Storyboard Layer 0 (Background)
//Storyboard Layer 1 (Fail)
//Storyboard Layer 2 (Pass)
//Storyboard Layer 3 (Foreground)
//Storyboard Layer 4 (Overlay)
//Storyboard Sound Samples

[TimingPoints]
1334,444.444444444444,4,2,1,40,1,0
1556,444.444444444444,4,2,1,40,1,0
3596,419.580419580419,4,2,1,40,1,0
4015,444.444444444444,4,2,1,40,1,0
4916,465.116279069767,4,2,1,40,1,0
5148,447.761194029851,4,2,1,40,1,0
8663,451.127819548872,4,2,1,40,1,0
8888,444.444444444444,4,2,1,40,1,0
8888,-111.111111111111,4,2,1,40,0,0
26665,437.956204379562,4,2,1,50,1,0
26665,-111.111111111111,4,2,1,50,0,0
26774,-111.111111111111,4,2,1,20,0,0
27102,-111.111111111111,4,2,1,40,0,0
27540,-111.111111111111,4,2,1,50,0,0
27978,-111.111111111111,4,2,1,70,0,0
28416,458.015267175572,4,2,1,70,1,0
29332,454.545454545454,4,2,1,70,1,0
29786,434.782608695652,4,2,1,70,1,0
30220,444.444444444444,4,2,1,50,1,0
31999,-100,4,2,1,60,0,0
33775,-100,4,2,1,70,0,0
40866,413.793103448275,4,2,1,50,1,0
40969,504.201680672269,4,2,1,50,1,0
41221,444.444444444444,4,2,1,50,1,0
41554,495.867768595041,4,2,1,50,1,0
41801,444.444444444444,4,2,1,50,1,0
41912,479.999999999999,4,2,1,50,1,0
42152,413.793103448275,4,2,1,50,1,0
42462,441.176470588235,4,2,1,50,1,0
42682,441.176470588235,4,2,1,40,1,0
42682,-111.111111111111,4,2,1,40,0,0
44446,441.826215022091,4,2,1,40,1,0
44446,-111.111111111111,4,2,1,40,0,0
46213,446.428571428571,4,2,1,40,1,0
46213,-111.111111111111,4,2,1,40,0,0
49784,444.444444444444,4,2,1,50,1,0
49784,-111.111111111111,4,2,1,50,0,0
54672,342.857142857143,4,2,1,60,1,0
54843,441.176470588235,4,2,1,60,1,0
55080,451.127819548872,4,2,1,60,1,0
55982,444.444444444444,4,2,1,60,1,0
56886,444.444444444444,4,2,1,70,1,0
56886,-90.9090909090909,4,2,1,70,0,0
67552,-90.9090909090909,4,2,1,65,0,0
71108,-90.9090909090909,4,2,1,75,0,0
79997,-100,4,2,1,60,0,0

[Colours]
Combo1 : 179,193,208
Combo2 : 167,207,220
Combo3 : 87,156,232
Combo4 : 245,33,33
Combo5 : 245,131,131

[HitObjects]
398,44,8888,70,0,P|444:79|446:136,1,116.999996429443,8|2,0:3|0:0,0:0:0:0:
398,194,9554,2,0,P|404:239|417:313,1,116.999996429443,2|2,0:0|0:0,0:0:0:0:
357,357,10221,1,2,0:0:0:0:
220,289,10665,2,0,P|235:202|247:115,2,175.499994644165
166,343,12221,1,2,0:0:0:0:
163,334,12443,6,0,P|118:291|35:301,1,116.999996429443,8|2,0:3|0:0,0:0:0:0:
25,222,13110,2,0,P|1:158|4:85,1,116.999996429443,2|2,0:0|0:0,0:0:0:0:
49,52,13776,1,2,0:0:0:0:
173,138,14221,2,0,P|148:261|149:323,2,175.499994644165
237,97,15776,1,2,1:2:0:0:
246,94,15999,6,0,B|301:84|298:127|357:119,1,116.999996429443,8|2,0:3|0:0,0:0:0:0:
399,264,16887,2,0,P|392:293|388:322,1,58.4999982147217,2|2,0:0|3:2,0:0:0:0:
243,370,17554,2,0,P|216:319|230:240,1,116.999996429443,2|2,3:2|0:0,0:0:0:0:
103,163,18443,2,0,P|130:112|116:33,1,116.999996429443,2|2,0:0|0:0,0:0:0:0:
272,13,19332,1,0,3:0:0:0:
275,22,19554,38,0,P|331:58|383:20,1,116.999996429443,2|0,1:2|0:0,0:0:0:0:
438,76,20221,1,2,0:0:0:0:
441,85,20443,2,0,P|451:149|456:206,1,116.999996429443,2|2,0:0|0:0,0:0:0:0:
430,272,21110,1,2,3:2:0:0:
427,281,21332,1,8,0:3:0:0:
210,304,21967,1,2,0:0:0:0:
137,256,22221,2,0,P|94:264|52:280,2,83.571426021031,2|2|2,0:0|0:0|0:0,0:0:0:0:
216,216,23110,6,0,P|254:151|219:103,1,116.999996429443,8|2,0:3|0:0,0:0:0:0:
260,45,23776,2,0,B|323:29|304:78|381:65,1,116.999996429443,2|2,0:0|0:0,0:0:0:0:
446,53,24443,1,2,0:0:0:0:
381,190,24887,2,0,P|293:180|209:158,2,175.499994644165,8|0|0,0:3|3:0|0:0,0:0:0:0:
439,239,26443,1,2,0:0:0:0:
448,242,26665,6,0,P|483:286|457:355,1,116.999996429443,4|8,1:0|0:0,0:0:0:0:
400,370,27321,1,8,0:0:0:0:
391,367,27540,2,0,P|351:355|328:351,1,58.4999982147217,8|8,0:0|0:0,0:0:0:0:
270,310,27978,2,0,P|230:321|207:325,1,58.4999982147217,8|8,0:0|0:0,0:0:0:0:
142,351,28416,37,6,1:2:0:0:
60,57,29332,1,6,1:2:0:0:
216,35,29786,2,0,P|224:70|227:116,1,65,8|8,0:0|0:3,0:0:0:0:
192,172,30221,5,4,1:0:0:0:
192,172,31997,6,0,P|137:158|83:153,2,97.5,8|8|8,0:0|0:0|0:0,0:0:0:0:
264,215,32886,2,0,P|295:206|327:202,1,65,8|0,3:2|3:2,0:0:0:0:
403,239,33331,1,12,0:2:0:0:
498,99,33774,38,0,P|496:37|437:10,1,130,14|2,1:2|0:0,0:0:0:0:
360,39,34441,1,8,0:0:0:0:
351,42,34663,2,0,P|310:51|266:48,1,65,6|8,1:2|0:0,0:0:0:0:
204,31,35108,2,0,P|163:22|119:25,1,65,2|8,0:0|0:0,0:0:0:0:
56,11,35552,2,0,P|24:85|38:145,1,130,6|2,1:2|0:0,0:0:0:0:
71,206,36219,1,8,0:0:0:0:
68,215,36441,2,0,P|40:226|1:220,2,65,6|10|6,1:2|0:0|1:2,0:0:0:0:
174,346,37330,6,0,B|239:352|227:310|298:315,1,130,4|2,1:0|0:0,0:0:0:0:
381,303,37997,1,8,0:0:0:0:
378,294,38219,2,0,P|386:256|403:227,1,65,6|8,1:2|0:0,0:0:0:0:
462,178,38663,2,0,P|454:140|437:111,1,65,2|8,0:0|0:0,0:0:0:0:
378,61,39108,2,0,P|318:89|239:97,1,130,6|2,1:2|0:0,0:0:0:0:
176,67,39774,1,8,0:0:0:0:
167,64,39997,2,0,P|160:32|158:0,2,65,6|10|6,1:2|0:0|1:2,0:0:0:0:
22,143,40866,5,4,1:0:0:0:
22,143,42682,38,0,P|48:96|64:17,1,116.999996429443,4|0,1:0|0:0,0:0:0:0:
137,16,43343,2,0,B|206:15|185:53|250:66,1,116.999996429443,2|0,1:2|0:0,0:0:0:0:
306,26,44005,1,2,3:2:0:0:
345,172,44446,2,0,P|417:148|517:178,2,175.499994644165,2|2|0,1:2|1:2|0:0,0:0:0:0:
286,312,46213,6,0,P|207:338|164:365,1,116.999996429443,2|0,1:2|0:0,0:0:0:0:
106,330,46882,2,0,P|68:271|94:219,1,116.999996429443,2|2,1:2|3:2,0:0:0:0:
28,88,47775,1,2,3:2:0:0:
37,91,47998,2,0,B|102:90|77:63|145:54,1,116.999996429443,2|0,1:2|0:0,0:0:0:0:
212,18,48668,1,2,0:0:0:0:
221,15,48891,2,0,P|275:61|254:113,1,116.999996429443,0|0,3:0|3:0,0:0:0:0:
288,249,49784,6,0,P|214:226|162:217,1,116.999996429443,4|0,1:2|1:0,0:0:0:0:
103,246,50450,1,2,0:0:0:0:
94,249,50672,2,0,P|63:312|94:360,1,116.999996429443,2|0,1:2|1:0,0:0:0:0:
231,375,51561,2,0,B|293:384|277:328|352:328,1,116.999996429443,2|0,1:2|1:0,0:0:0:0:
409,340,52228,1,2,0:0:0:0:
418,337,52450,2,0,P|442:288|398:236,1,116.999996429443,2|0,1:2|1:0,0:0:0:0:
411,88,53339,38,0,P|335:117|290:119,1,116.999996429443,6|0,1:2|1:0,0:0:0:0:
230,87,54006,1,2,0:0:0:0:
227,78,54228,2,0,P|180:62|100:83,1,116.999996429443,2|8,1:2|0:0,0:0:0:0:
75,125,54843,2,0,L|88:213,1,70,8|4,0:0|1:2,0:0:0:0:
307,313,55756,1,2,0:0:0:0:
310,304,55982,2,0,P|329:232|341:156,1,130,8|0,0:0|1:0,0:0:0:0:
363,96,56648,1,0,0:0:0:0:
366,87,56886,6,0,P|414:77|463:106,2,107.25000327301,4|2|2,1:0|1:2|1:2,0:0:0:0:
283,45,57774,2,0,P|219:31|153:70,1,143.000004364014,10|0,0:0|1:2,0:0:0:0:
88,133,58441,2,0,P|97:178|97:216,1,71.5000021820069,10|2,0:0|1:2,0:0:0:0:
177,251,58885,2,0,P|168:296|168:334,1,71.5000021820069,2|0,0:0|0:0,0:0:0:0:
249,366,59330,1,2,1:2:0:0:
434,365,59774,1,10,0:0:0:0:
471,183,60219,1,8,0:0:0:0:
468,174,60441,6,0,P|489:93|513:55,2,107.25000327301,4|2|2,1:2|1:2|1:2,0:0:0:0:
386,218,61330,1,10,0:0:0:0:
383,227,61552,2,0,P|303:212|285:142,1,143.000004364014,8|10,0:0|0:0,0:0:0:0:
210,101,62219,2,0,P|232:52|242:0,2,107.25000327301,2|0|2,1:2|1:0|1:2,0:0:0:0:
131,157,63108,1,8,0:0:0:0:
122,154,63330,1,10,0:0:0:0:
26,305,63774,1,10,0:0:0:0:
35,302,63997,38,0,P|104:316|151:336,2,107.25000327301,4|2|2,1:0|1:2|1:2,0:0:0:0:
5,214,64885,1,10,0:0:0:0:
14,211,65108,2,0,P|68:148|82:71,1,143.000004364014,8|10,0:0|0:0,0:0:0:0:
157,37,65774,1,2,1:2:0:0:
248,196,66219,1,2,1:2:0:0:
251,187,66441,2,0,P|288:174|333:168,1,71.5000021820069,2|8,1:2|0:0,0:0:0:0:
398,118,66885,2,0,P|433:124|466:136,1,71.5000021820069,10|2,0:0|1:2,0:0:0:0:
485,227,67330,6,0,B|559:292|489:421|346:388|392:267|327:280|261:298|242:318,1,357.500010910034,8|8,0:0|0:0,0:0:0:0:
89,365,68885,2,0,P|81:323|61:271,1,71.5000021820069,0|10,1:0|0:0,0:0:0:0:
98,206,69330,2,0,P|144:214|203:237,2,107.25000327301,6|2|2,1:2|1:2|1:2,0:0:0:0:
66,118,70219,1,8,0:0:0:0:
63,109,70441,1,10,0:0:0:0:
248,102,70885,1,8,0:0:0:0:
257,99,71108,6,0,P|282:51|294:0,2,107.25000327301,12|2|2,1:0|0:0|0:3,0:0:0:0:
195,169,71997,2,0,P|213:236|301:243,1,143.000004364014,2|8,1:2|0:0,0:0:0:0:
341,321,72663,1,2,0:3:0:0:
350,318,72885,2,0,B|403:312|398:352|457:342,2,107.25000327301,2|2|2,1:2|0:0|0:3,0:0:0:0:
270,367,73774,1,0,1:0:0:0:
261,370,73997,1,2,0:3:0:0:
112,257,74441,1,10,0:0:0:0:
103,254,74663,38,0,P|41:277|4:304,2,107.25000327301,8|2|2,1:0|0:0|0:3,0:0:0:0:
185,211,75552,2,0,P|208:153|140:123,1,143.000004364014,2|8,1:2|0:0,0:0:0:0:
105,36,76219,1,2,0:3:0:0:
96,33,76441,2,0,B|48:46|61:86|1:93,2,107.25000327301,2|2|2,1:2|0:0|0:3,0:0:0:0:
185,5,77330,1,8,1:2:0:0:
194,8,77552,1,2,0:3:0:0:
377,37,77997,1,10,0:0:0:0:
386,34,78219,38,2,P|418:43|430:96,1,71.5000021820069,2|2,1:0|1:0,0:0:0:0:
499,141,78663,2,2,P|506:173|466:210,1,71.5000021820069,2|2,1:0|1:0,0:0:0:0:
462,292,79108,2,2,P|437:315|385:298,1,71.5000021820069,2|2,1:0|1:0,0:0:0:0:
312,335,79552,2,2,P|279:325|267:272,1,71.5000021820069,2|2,1:0|1:0,0:0:0:0:
199,226,79997,37,12,1:0:0:0:
394,56,80885,1,12,1:2:0:0:
512,285,81774,1,0,1:0:0:0:
