osu file format v14

[General]
AudioFilename: audio.mp3
AudioLeadIn: 0
PreviewTime: 55643
Countdown: 0
SampleSet: Soft
StackLeniency: 0.6
Mode: 0
LetterboxInBreaks: 0
WidescreenStoryboard: 1

[Editor]
DistanceSpacing: 0.9
BeatDivisor: 4
GridSize: 32
TimelineZoom: 2.2

[Metadata]
Title:unravel (TV Size)
TitleUnicode:unravel (TV Size)
Artist:TK from Ling tosite sigure
ArtistUnicode:TK from 凛として時雨
Creator:NeKroMan4ik
Version:nymphe's insane
Source:東京喰種トーキョーグール
Tags:djulus wenet wenect unranked schoolboy mapper komore nymphe kiyoshi guarden wanpachi cycopton kudosu soop so0p tokyo ghoul op opening japanese anime rock jrock j-rock
BeatmapID:2633477
BeatmapSetID:1266431

[Difficulty]
HPDrainRate:5
CircleSize:4
OverallDifficulty:8.4
ApproachRate:9
SliderMultiplier:2.3
SliderTickRate:1

[Events]
//Background and Video events
0,0,"djulus.jpg",0,0
//Break Periods
//Storyboard Layer 0 (Background)
//Storyboard Layer 1 (Fail)
//Storyboard Layer 2 (Pass)
//Storyboard Layer 3 (Foreground)
//Storyboard Layer 4 (Overlay)
//Storyboard Sound Samples

[TimingPoints]
1334,444.444444444444,4,2,1,30,1,0
1556,444.444444444444,4,2,1,30,1,0
1556,-138.888888888889,4,2,1,30,0,0
2444,-238.095238095239,4,2,1,30,0,0
3111,-121.951219512195,4,2,1,30,0,0
3596,419.580419580419,4,2,1,30,1,0
3596,-138.888888888889,4,2,1,30,0,0
4015,444.444444444444,4,2,1,30,1,0
4015,-192.307692307693,4,2,1,30,0,0
4916,465.116279069767,4,2,1,30,1,0
5148,447.761194029851,4,2,1,30,1,0
5148,-192.307692307693,4,2,1,30,0,0
8663,451.127819548872,4,2,1,40,1,0
8888,444.444444444444,4,2,1,40,1,0
8888,-153.846153846154,4,2,1,40,0,0
15999,-86.9565217391305,4,2,1,40,0,0
16665,-153.846153846154,4,2,1,40,0,0
17776,-86.9565217391305,4,2,1,40,0,0
18110,-153.846153846154,4,2,1,40,0,0
19554,-86.9565217391304,4,2,1,40,0,0
20221,-153.846153846154,4,2,1,40,0,0
21332,-86.9565217391305,4,2,1,40,0,0
21967,-153.846153846154,4,2,1,40,0,0
23110,-86.9565217391305,4,2,1,40,0,0
23776,-153.846153846154,4,2,1,40,0,0
24887,-86.9565217391305,4,2,1,40,0,0
25221,-153.846153846154,4,2,1,40,0,0
26665,437.956204379562,4,2,1,50,1,0
26665,-105.263157894737,4,2,1,50,0,0
26774,-105.263157894737,4,2,1,20,0,0
27102,-125,4,2,1,40,0,0
27540,-105.263157894737,4,2,1,50,0,0
27978,-95.2380952380952,4,2,1,70,0,0
28416,458.015267175572,4,2,1,70,1,0
28416,-117.647058823529,4,2,1,70,0,0
29332,454.545454545454,4,2,1,70,1,0
29332,-117.647058823529,4,2,1,70,0,0
29786,434.782608695652,4,2,1,70,1,0
30220,444.444444444444,4,2,1,50,1,0
30220,-79.9999999999998,4,2,1,50,0,0
30442,-79.9999999999998,4,2,1,5,0,0
31997,-83.3333333333333,4,2,1,60,0,0
33331,-100,4,2,1,60,0,0
33774,-58.8235294117647,4,2,1,70,0,0
34219,-66.6666666666667,4,2,1,70,0,0
35552,-58.8235294117647,4,2,1,70,0,0
35997,-66.6666666666667,4,2,1,70,0,0
37441,-58.8235294117647,4,2,1,70,0,0
37774,-66.6666666666667,4,2,1,70,0,0
39219,-58.8235294117647,4,2,1,70,0,0
39552,-66.6666666666667,4,2,1,70,0,0
40866,413.793103448275,4,2,1,50,1,0
40969,504.201680672269,4,2,1,50,1,0
40969,-153.846153846154,4,2,1,50,0,0
41221,444.444444444444,4,2,1,50,1,0
41221,-153.846153846154,4,2,1,50,0,0
41554,495.867768595041,4,2,1,50,1,0
41554,-153.846153846154,4,2,1,50,0,0
41801,444.444444444444,4,2,1,50,1,0
41912,479.999999999999,4,2,1,50,1,0
41912,-153.846153846154,4,2,1,50,0,0
42152,413.793103448275,4,2,1,50,1,0
42152,-153.846153846154,4,2,1,50,0,0
42462,441.176470588235,4,2,1,50,1,0
42682,441.176470588235,4,2,1,40,1,0
42682,-117.647058823529,4,2,1,40,0,0
44446,441.826215022091,4,2,1,40,1,0
44446,-117.647058823529,4,2,1,40,0,0
46213,446.428571428571,4,2,1,40,1,0
46213,-117.647058823529,4,2,1,40,0,0
49784,444.444444444444,4,2,1,50,1,0
49784,-79.9999999999998,4,2,1,50,0,0
54672,342.857142857143,4,2,1,60,1,0
54843,441.176470588235,4,2,1,60,1,0
55080,451.127819548872,4,2,1,60,1,0
55982,444.444444444444,4,2,1,60,1,0
56426,-66.6666666666667,4,2,1,60,0,0
56886,444.444444444444,4,2,1,70,1,1
56886,-55.5555555555556,4,2,1,70,0,1
67552,-55.5555555555556,4,2,1,65,0,0
71108,-64.5161290322581,4,2,1,75,0,1
76441,-55.5555555555556,4,2,1,75,0,1
76885,-64.5161290322581,4,2,1,75,0,1
78108,-64.5161290322581,4,2,1,75,0,0
78219,-54.054054054054,4,2,1,75,0,1
79997,-133.333333333333,4,2,1,60,0,0

[Colours]
Combo1 : 179,193,208
Combo2 : 167,207,220
Combo3 : 87,156,232
Combo4 : 245,33,33
Combo5 : 245,131,131

[HitObjects]
48,27,1334,69,0,0:0:0:0:
137,80,1556,2,0,B|111:101|111:101|130:172,1,82.8000020214844,2|0,0:0|0:0,0:0:0:0:
5,197,2000,2,0,B|31:218|31:218|12:289,1,82.8000020214844,2|0,0:0|0:0,0:0:0:0:
132,347,2444,2,0,L|80:356,2,48.299998526001,2|0|0,0:0|0:0|0:0,0:0:0:0:
297,258,3111,6,0,P|280:216|230:201,1,94.3000014389038,2|0,0:0|0:0,0:0:0:0:
361,322,3596,2,0,P|388:286|377:239,1,82.8000020214844,2|0,0:0|0:0,0:0:0:0:
252,366,4015,2,0,B|197:356|197:356|192:360|192:360|117:345,1,119.59999927002,2|0,0:0|0:0,0:0:0:0:
10,163,4916,5,2,0:0:0:0:
131,233,5148,2,0,B|92:218|65:237|73:248|51:264|6:252,1,119.59999927002,2|0,0:0|0:0,0:0:0:0:
60,48,5819,1,2,0:0:0:0:
60,48,6043,2,0,B|106:66|106:66|88:148,1,119.59999927002,2|0,0:0|0:0,0:0:0:0:
136,305,6715,38,0,P|159:254|229:265,1,119.59999927002,2|0,0:0|0:0,0:0:0:0:
374,49,8663,5,0,0:0:0:0:
440,6,8888,2,0,B|499:24|499:24|480:137,1,149.499993156433,8|2,0:3|0:0,0:0:0:0:
413,215,9554,2,0,B|372:180|331:199|344:220|303:242|263:220,1,149.499993156433,2|2,0:0|0:0,0:0:0:0:
148,118,10221,2,0,B|175:89|175:89|229:98,1,74.7499965782167,2|0,0:0|0:0,0:0:0:0:
257,298,10665,5,0,0:0:0:0:
190,226,10887,1,0,0:0:0:0:
116,304,11110,1,0,0:0:0:0:
35,242,11332,2,0,B|76:212|118:255|97:270|122:308|179:288,1,149.499993156433
186,114,11999,2,0,P|149:139|151:191,1,74.7499965782167,0|2,0:0|0:0,0:0:0:0:
274,268,12443,38,0,B|318:272|336:233|336:233|389:233|400:277,1,149.499993156433,8|2,0:3|0:0,0:0:0:0:
501,192,13110,2,0,L|477:354,1,149.499993156433,2|2,0:0|0:0,0:0:0:0:
386,163,13776,2,0,P|378:118|401:94,1,74.7499965782167,2|0,0:0|0:0,0:0:0:0:
396,265,14221,5,2,0:0:0:0:
257,172,14554,5,2,0:0:0:0:
172,311,14887,37,2,0:0:0:0:
308,288,15332,6,0,L|216:266,1,74.7499965782167
134,175,15776,1,2,1:2:0:0:
78,376,15999,6,0,B|18:353|18:353|106:331|106:331|145:357|145:357|217:334,1,264.500005044937,8|2,0:3|0:0,0:0:0:0:
353,208,16665,2,0,L|294:224,1,37.3749982891084,0|0,3:0|3:0,0:0:0:0:
240,238,16887,1,2,0:0:0:0:
387,298,17110,2,0,L|474:273,1,74.7499965782167,2|0,0:0|0:0,0:0:0:0:
485,85,17443,37,0,3:2:0:0:
460,106,17554,1,2,3:2:0:0:
427,102,17665,1,0,3:2:0:0:
352,129,17776,2,0,L|341:63,1,66.1250012612343,8|0,0:3|0:0,0:0:0:0:
174,31,17999,5,2,0:0:0:0:
174,31,18110,2,0,B|211:35|211:35|216:38|216:38|270:45,1,74.7499965782167
299,260,18443,2,0,B|260:227|217:244|231:264|191:283|153:263,1,149.499993156433,2|2,0:0|0:0,0:0:0:0:
16,130,19110,2,0,L|101:143,1,74.7499965782167,0|0,0:0|3:0,0:0:0:0:
25,254,19443,1,0,3:0:0:0:
25,268,19554,6,0,B|17:242|-18:213|-18:213|67:226|67:226|90:256|90:256|169:267,1,264.500005044937,2|0,1:2|0:0,0:0:0:0:
280,354,20221,1,2,0:0:0:0:
269,167,20443,2,0,B|226:200|226:200|249:255,1,112.124994867325,2|0,0:0|0:0,0:0:0:0:
317,284,20887,2,0,L|407:272,1,74.7499965782167,2|2,0:0|3:2,0:0:0:0:
454,318,21221,1,0,3:2:0:0:
465,310,21332,38,0,B|481:274|481:274|465:216,1,66.1250012612343,8|0,0:3|0:0,0:0:0:0:
422,194,21554,1,0,0:0:0:0:
422,194,21665,2,0,B|408:158|408:158|431:111,1,66.1250012612343
482,48,21967,2,0,L|422:35,1,42.714283758981,2|0,0:0|0:0,0:0:0:0:
499,67,22221,2,0,L|383:43,2,106.785709397452,2|2|2,0:0|0:0|0:0,0:0:0:0:
212,23,23110,6,0,B|128:3|128:3|150:99|150:99|155:105|155:105|174:200,1,264.500005044937,8|2,0:3|0:0,0:0:0:0:
305,277,23776,2,0,B|265:258|232:278|232:278|234:285|234:285|204:312|155:299,1,149.499993156433,2|2,0:0|0:0,0:0:0:0:
47,181,24443,2,0,L|48:234,1,37.3749982891084,2|0,0:0|3:0,0:0:0:0:
141,328,24665,1,0,3:0:0:0:
159,320,24776,1,0,3:0:0:0:
172,302,24887,6,0,L|87:302,1,66.1250012612343,8|0,0:3|0:0,0:0:0:0:
192,197,25110,1,0,3:0:0:0:
192,197,25221,2,0,L|284:197,1,74.7499965782167,0|0,3:0|3:0,0:0:0:0:
403,142,25554,2,0,B|411:163|411:163|404:193,1,37.3749982891084,0|0,3:0|0:0,0:0:0:0:
374,69,25776,2,0,L|374:205,1,112.124994867325,2|0,3:2|0:0,0:0:0:0:
313,321,26221,2,0,L|404:318,1,74.7499965782167,2|0,0:0|3:0,0:0:0:0:
398,304,26554,1,0,3:0:0:0:
302,238,26665,38,0,B|257:219|226:248|226:248|225:253|225:253|195:285|133:269,1,163.874995624065,4|8,1:0|0:0,0:0:0:0:
22,208,27102,2,0,L|25:134,1,46,8|8,0:0|0:0,0:0:0:0:
116,111,27321,2,0,L|114:166,1,46,8|8,0:0|0:0,0:0:0:0:
170,331,27540,5,8,0:0:0:0:
193,308,27650,1,8,0:0:0:0:
225,297,27759,1,8,0:0:0:0:
257,302,27869,1,8,0:0:0:0:
288,331,27978,5,8,0:0:0:0:
223,380,28088,37,8,0:0:0:0:
161,308,28197,5,8,0:0:0:0:
100,372,28307,5,8,0:0:0:0:
22,305,28416,38,0,B|22:271|22:271|20:265|20:265|21:207,1,97.7500018644333,6|0,1:2|0:0,0:0:0:0:
207,124,28759,2,0,L|128:110,1,48.8750009322167,2|0,0:0|0:0,0:0:0:0:
107,201,28988,1,0,0:0:0:0:
107,201,29103,2,0,L|181:195,1,48.8750009322167,2|0,0:0|0:0,0:0:0:0:
53,41,29332,1,6,1:2:0:0:
43,54,29445,2,0,B|24:96|24:96|48:164,1,97.7500018644333
159,42,29786,5,8,0:0:0:0:
227,84,29894,1,8,0:3:0:0:
261,48,30003,1,8,0:3:0:0:
295,59,30112,1,8,0:3:0:0:
307,51,30220,6,0,B|262:39|234:70|254:90|225:126|182:108,1,143.75,4|0,1:0|0:0,0:0:0:0:
12,279,31997,37,8,0:0:0:0:
115,189,32108,2,0,L|106:269,1,68.9999978942872,8|0,0:0|0:0,0:0:0:0:
15,113,32331,2,0,L|22:190,1,68.9999978942872,8|0,0:0|0:0,0:0:0:0:
220,136,32553,5,8,0:0:0:0:
108,16,32664,2,0,L|97:118,1,68.9999978942872,8|0,0:0|0:0,0:0:0:0:
177,258,32886,5,8,0:0:0:0:
240,215,32997,1,8,0:0:0:0:
262,247,33108,1,8,0:0:0:0:
300,237,33220,1,8,0:0:0:0:
317,248,33331,2,0,B|370:284|412:245|390:222|426:178|510:228,1,172.5,12|0,0:2|0:0,0:0:0:0:
507,103,33775,37,14,1:2:0:0:
507,103,33886,2,0,B|437:89|437:89|478:250,1,195.500003728867,10|10,0:0|0:0,0:0:0:0:
511,353,34219,2,0,P|481:307|423:303,1,86.2500032901765,2|0,0:0|0:0,0:0:0:0:
298,360,34442,1,8,0:0:0:0:
298,360,34553,1,8,0:0:0:0:
298,360,34664,2,0,P|342:332|344:285,1,86.2500032901765,6|10,1:2|0:0,0:0:0:0:
207,215,34886,2,0,P|223:253|267:268,1,86.2500032901765,8|8,0:0|0:0,0:0:0:0:
410,68,35108,5,2,0:0:0:0:
393,87,35219,1,8,0:0:0:0:
411,137,35331,1,8,0:0:0:0:
368,204,35442,1,8,0:0:0:0:
412,278,35553,5,6,1:2:0:0:
412,278,35664,2,0,B|453:249|453:249|303:212,1,195.500003728867,10|10,0:0|0:0,0:0:0:0:
117,298,35997,2,0,B|159:274|193:308|193:308|194:313|194:313|228:352|285:332,1,172.500006580353,2|8,0:0|0:0,0:0:0:0:
276,119,36331,1,8,0:0:0:0:
218,70,36442,2,0,P|177:90|165:156,1,86.2500032901765,6|0,1:2|0:0,0:0:0:0:
349,323,36664,2,0,P|334:283|290:269,1,86.2500032901765,10|8,0:0|0:0,0:0:0:0:
117,298,36886,37,6,1:2:0:0:
159,294,36997,1,8,0:0:0:0:
187,218,37108,1,8,0:0:0:0:
124,163,37219,1,8,0:0:0:0:
56,216,37331,5,4,1:0:0:0:
56,216,37442,2,0,B|138:197|138:197|146:201|146:201|268:173,1,195.500003728867,10|10,0:0|0:0,0:0:0:0:
290,28,37775,2,0,B|246:30|246:30|211:67,1,86.2500032901765,2|8,0:0|0:0,0:0:0:0:
394,207,37997,1,8,0:0:0:0:
394,207,38108,1,8,0:0:0:0:
394,207,38219,2,0,B|431:181|431:181|441:114,1,86.2500032901765,6|10,1:2|0:0,0:0:0:0:
202,197,38442,2,0,B|218:239|218:239|263:252,1,86.2500032901765,8|8,0:0|0:0,0:0:0:0:
360,118,38664,5,10,0:0:0:0:
332,101,38775,1,8,0:0:0:0:
264,139,38886,1,8,0:0:0:0:
196,84,38997,1,8,0:0:0:0:
110,125,39108,37,6,1:2:0:0:
110,125,39219,2,0,B|154:150|195:111|195:111|195:106|195:106|231:62|290:98,1,195.500003728867,10|10,0:0|0:0,0:0:0:0:
395,0,39553,2,0,B|344:28|344:28|375:144,1,172.500006580353,2|8,0:0|0:0,0:0:0:0:
461,274,39886,1,8,0:0:0:0:
511,217,39997,2,0,P|481:181|411:184,1,86.2500032901765,6|8,1:2|0:0,0:0:0:0:
269,359,40219,2,0,P|316:347|332:310,1,86.2500032901765,10|8,0:0|0:0,0:0:0:0:
352,98,40442,5,6,1:2:0:0:
328,120,40553,1,8,0:0:0:0:
360,184,40664,1,8,0:0:0:0:
313,247,40775,1,8,0:0:0:0:
399,334,40866,5,4,1:0:0:0:
399,334,40969,2,0,B|393:295|393:295|389:289|389:289|378:227,1,74.7499965782167,2|2,0:0|0:0,0:0:0:0:
273,183,41332,2,0,L|225:194,1,37.3749982891084
186,232,41554,2,0,L|234:221,1,37.3749982891084,2|0,0:0|0:0,0:0:0:0:
146,148,41801,1,2,0:0:0:0:
146,148,41912,2,0,L|79:165,1,37.3749982891084,2|0,0:0|0:0,0:0:0:0:
12,151,42152,2,0,L|108:130,1,74.7499965782167,2|0,0:0|0:0,0:0:0:0:
153,38,42462,37,2,0:0:0:0:
327,187,42682,2,0,P|310:134|230:115,1,97.7500018644333,4|0,1:0|0:0,0:0:0:0:
253,293,43012,2,0,B|249:244|249:244|246:239|246:239|240:174,1,97.7500018644333
12,151,43343,2,0,B|59:176|106:139|106:139|102:133|102:133|140:101|194:127,1,195.500003728867,2|0,1:2|0:0,0:0:0:0:
357,256,44005,5,2,3:2:0:0:
296,86,44226,1,2,3:2:0:0:
267,275,44446,6,0,B|141:297,1,97.7500018644333,2|0,1:2|0:0,0:0:0:0:
42,204,44777,2,0,P|95:201|135:270,1,97.7500018644333
98,321,45108,2,0,B|67:315|39:322|24:372|24:372|43:323|21:296|-19:283,1,195.500003728867,2|0,1:2|0:0,0:0:0:0:
204,164,45881,1,0,0:0:0:0:
204,164,45992,2,0,L|196:241,1,48.8750009322167,2|0,3:2|0:0,0:0:0:0:
313,334,46213,38,0,P|302:284|227:263,1,97.7500018644333,2|0,1:2|0:0,0:0:0:0:
129,323,46547,2,0,P|184:344|244:309,1,97.7500018644333
204,164,46882,2,0,P|170:205|182:264,1,97.7500018644333,2|0,1:2|0:0,0:0:0:0:
395,184,47329,2,0,L|325:184,1,48.8750009322167,2|0,3:2|0:0,0:0:0:0:
216,57,47663,1,0,0:0:0:0:
216,57,47775,2,0,L|289:57,1,48.8750009322167,2|0,3:2|3:2,0:0:0:0:
457,15,47998,6,0,P|405:28|390:80,1,97.7500018644333,2|0,1:2|0:0,0:0:0:0:
489,205,48556,1,0,0:0:0:0:
489,205,48668,2,0,P|463:181|420:168,1,48.8750009322167,2|0,0:0|0:0,0:0:0:0:
379,288,48891,2,0,P|403:275|416:257,1,48.8750009322167,0|0,3:0|0:0,0:0:0:0:
296,167,49114,5,0,3:0:0:0:
283,179,49226,1,0,3:0:0:0:
182,176,49338,38,0,L|240:117,1,48.8750009322167,0|0,3:0|0:0,0:0:0:0:
242,75,49561,2,0,L|207:109,1,48.8750009322167,0|0,3:0|0:0,0:0:0:0:
41,64,49784,6,0,B|-4:96|-4:96|11:137|11:137|16:145|16:145|37:200,1,143.75,4|2,1:2|0:0,0:0:0:0:
163,244,50117,1,2,0:0:0:0:
163,244,50228,2,0,P|145:203|84:197,1,71.875,0|0,1:0|0:0,0:0:0:0:
23,284,50450,2,0,P|69:282|94:244,1,71.875,2|0,0:0|0:0,0:0:0:0:
189,350,50672,6,0,P|247:358|273:257,1,143.75,2|2,1:2|3:2,0:0:0:0:
255,149,51006,1,0,3:0:0:0:
255,149,51117,2,0,P|249:188|279:228,1,71.875,0|0,1:0|0:0,0:0:0:0:
388,197,51339,2,0,P|357:172|307:178,1,71.875,2|0,0:0|0:0,0:0:0:0:
276,66,51561,38,0,B|236:43|194:61|209:81|174:107|101:75,1,143.75,2|2,1:2|0:2,0:0:0:0:
58,44,51895,1,2,0:0:0:0:
58,44,52006,2,0,L|72:149,1,71.875,0|0,1:0|0:0,0:0:0:0:
0,216,52228,1,2,0:0:0:0:
14,202,52339,1,0,0:0:0:0:
34,195,52450,2,0,P|78:217|83:270,1,71.875,2|0,1:2|0:0,0:0:0:0:
196,318,52672,1,2,3:2:0:0:
182,304,52784,1,0,3:0:0:0:
162,297,52895,2,0,P|118:319|113:372,1,71.875,2|0,1:2|0:0,0:0:0:0:
253,384,53117,2,0,L|339:363,1,71.875,2|0,3:2|0:0,0:0:0:0:
502,240,53339,6,0,P|467:178|389:183,1,143.75,6|2,1:2|0:2,0:0:0:0:
308,291,53672,1,2,0:0:0:0:
308,291,53783,2,0,P|336:268|351:229,1,71.875,0|0,1:0|0:0,0:0:0:0:
208,181,54006,2,0,P|238:212|285:215,1,71.875,2|0,0:0|0:0,0:0:0:0:
267,107,54228,2,0,B|226:101|196:130|212:147|176:171|113:156,1,143.75,2|0,1:2|0:0,0:0:0:0:
78,94,54561,1,0,0:0:0:0:
34,173,54672,5,8,0:0:0:0:
34,173,54757,1,8,0:0:0:0:
34,173,54843,2,0,L|43:259,1,76.6666666666667,8|8,0:0|0:0,0:0:0:0:
97,295,55080,37,12,0:0:0:0:
126,101,55982,5,8,0:0:0:0:
147,90,56093,1,0,1:0:0:0:
214,26,56204,5,0,1:0:0:0:
228,33,56315,1,0,1:0:0:0:
277,94,56426,38,0,B|314:73|314:73|221:59|221:59|194:82|194:82|76:64,1,258.75000987053,8|0,0:0|0:0,0:0:0:0:
0,30,56886,6,0,B|96:-5|96:-5|58:215,1,310.499990524292,4|2,1:0|1:2,0:0:0:0:
2,336,57330,2,0,P|19:290|94:286,1,103.499996841431
208,357,57552,2,0,P|153:364|116:306,1,103.499996841431,2|0,1:2|0:0,0:0:0:0:
196,152,57774,6,0,B|188:200|188:200|189:204|189:204|181:258,1,103.499996841431,10|8,0:0|0:0,0:0:0:0:
315,365,57997,1,8,0:0:0:0:
365,314,58108,1,10,0:0:0:0:
406,346,58219,1,0,1:2:0:0:
430,331,58330,1,8,0:0:0:0:
441,346,58441,2,0,B|399:339|399:339|396:336|396:336|330:323,1,103.499996841431,10|8,0:0|0:0,0:0:0:0:
236,69,58663,38,0,B|302:106|302:106|268:253,1,206.999993682861,2|2,1:2|0:0,0:0:0:0:
55,264,58997,2,0,B|103:219|163:271|126:302|179:342|247:294,1,206.999993682861,0|0,1:0|0:0,0:0:0:0:
427,215,59330,2,0,B|389:175|389:175|338:179,1,103.499996841431,2|0,1:2|0:0,0:0:0:0:
439,380,59552,1,8,0:0:0:0:
452,378,59663,1,8,0:0:0:0:
468,371,59774,1,10,0:0:0:0:
482,362,59886,1,8,0:0:0:0:
487,342,59997,5,2,1:2:0:0:
448,305,60108,5,8,0:0:0:0:
388,358,60219,37,8,0:0:0:0:
318,311,60330,5,8,0:0:0:0:
272,374,60441,6,0,B|245:350|181:358|181:358|270:333|270:333|311:347|311:347|396:321,1,310.499990524292,4|2,1:2|1:2,0:0:0:0:
490,161,60885,2,0,B|524:205|524:205|507:252,1,103.499996841431
420,261,61108,2,0,B|386:217|386:217|403:170,1,103.499996841431,2|0,1:2|0:0,0:0:0:0:
420,0,61330,2,0,L|435:114,1,103.499996841431,10|8,0:0|0:0,0:0:0:0:
299,177,61552,37,8,0:0:0:0:
247,129,61663,1,10,0:0:0:0:
211,161,61774,1,0,1:2:0:0:
190,139,61885,1,8,0:0:0:0:
175,152,61997,2,0,L|297:132,1,103.499996841431,10|8,0:0|0:0,0:0:0:0:
298,364,62219,6,0,B|341:331|341:331|162:371,1,206.999993682861,2|2,1:2|0:0,0:0:0:0:
68,342,62552,2,0,B|146:318|146:318|184:341|184:341|290:316,1,206.999993682861,0|0,1:0|0:0,0:0:0:0:
357,147,62885,2,0,B|391:191|391:191|374:238,1,103.499996841431,2|0,1:2|0:0,0:0:0:0:
287,249,63108,1,8,0:0:0:0:
287,249,63219,1,8,0:0:0:0:
287,249,63330,2,0,B|253:205|253:205|270:158,1,103.499996841431,2|8,0:0|0:0,0:0:0:0:
283,0,63552,5,2,1:2:0:0:
308,27,63663,1,8,0:0:0:0:
283,73,63774,1,10,0:0:0:0:
329,126,63885,1,8,0:0:0:0:
309,149,63997,38,0,B|208:132|208:132|213:138|213:138|100:119,1,206.999993682861,4|0,1:0|0:0,0:0:0:0:
0,85,64330,2,0,B|33:55|41:28|30:12|25:-7|25:-7|33:11|31:30|66:52|126:51,1,206.999993682861,2|0,1:2|0:0,0:0:0:0:
79,300,64663,2,0,B|26:291|26:291|-7:231,1,103.499996841431,2|0,1:2|0:0,0:0:0:0:
61,177,64885,1,10,0:0:0:0:
61,177,64997,1,8,0:0:0:0:
61,177,65108,2,0,B|114:186|114:186|147:246,1,103.499996841431,2|8,1:2|0:0,0:0:0:0:
268,344,65330,5,0,1:2:0:0:
285,327,65441,1,8,0:0:0:0:
262,281,65552,1,10,0:0:0:0:
297,235,65663,1,8,0:0:0:0:
267,191,65774,6,0,B|249:166|201:172|201:172|295:144|295:144|374:169|374:169|469:129,1,310.499990524292,2|0,1:2|1:0,0:0:0:0:
512,286,66219,2,0,B|474:253|474:253|411:264,1,103.499996841431,2|0,1:2|0:0,0:0:0:0:
393,345,66441,2,0,B|433:378|433:378|496:367,1,103.499996841431,2|0,1:2|0:0,0:0:0:0:
426,146,66663,1,8,0:0:0:0:
412,157,66774,1,8,0:0:0:0:
404,172,66885,1,10,0:0:0:0:
403,188,66997,1,8,0:0:0:0:
421,215,67108,37,2,1:2:0:0:
450,178,67219,5,8,0:0:0:0:
399,115,67330,5,8,0:0:0:0:
473,60,67441,37,8,0:0:0:0:
379,6,67552,6,0,B|285:18|285:18|294:21|294:21|169:36,1,206.999993682861,2|0,1:2|0:0,0:0:0:0:
45,176,67885,2,0,B|3:151|3:151|184:114,1,206.999993682861,0|0,1:0|0:0,0:0:0:0:
265,230,68219,2,0,B|225:193|225:193|172:208,1,103.499996841431,0|0,1:0|0:0,0:0:0:0:
24,307,68441,2,0,B|76:278|117:327|117:327|115:329|115:329|149:378|214:346,1,206.999993682861,8|0,0:0|0:0,0:0:0:0:
373,287,68774,1,8,0:0:0:0:
373,287,68885,2,0,B|331:294|331:294|326:298|326:298|258:309,1,103.499996841431,0|8,1:0|0:0,0:0:0:0:
176,183,69108,1,10,0:0:0:0:
226,120,69219,1,8,0:0:0:0:
302,143,69330,6,0,L|91:180,1,206.999993682861,6|0,1:2|0:0,0:0:0:0:
1,32,69663,2,0,B|64:-8|64:-8|41:131,1,206.999993682861,2|0,1:2|0:0,0:0:0:0:
6,288,69997,2,0,B|45:252|45:252|108:258,1,103.499996841431,2|0,1:2|0:0,0:0:0:0:
253,336,70219,1,8,0:0:0:0:
196,290,70330,1,8,0:0:0:0:
147,345,70441,2,0,L|271:319,1,103.499996841431,10|8,0:0|0:0,0:0:0:0:
324,165,70663,37,0,1:0:0:0:
345,151,70774,1,8,0:0:0:0:
404,198,70885,1,8,0:0:0:0:
457,128,70997,1,8,0:0:0:0:
512,191,71108,6,0,L|392:175,1,89.1250006799698,12|0,1:0|0:0,0:0:0:0:
365,4,71330,1,2,0:3:0:0:
365,4,71441,1,2,0:0:0:0:
365,4,71552,2,0,B|381:49|381:49|353:97,1,89.1250006799698,10|0,0:0|0:0,0:0:0:0:
270,80,71774,2,0,B|254:35|254:35|282:-13,1,89.1250006799698,2|0,0:3|0:0,0:0:0:0:
341,172,71997,2,0,B|246:163|246:163|251:170|251:170|158:160,1,178.25000135994,2|2,1:2|0:3,0:0:0:0:
84,234,72330,1,2,0:2:0:0:
88,238,72441,2,0,B|124:241|124:241|128:244|128:244|180:251,1,89.1250006799698,8|8,0:0|0:0,0:0:0:0:
309,344,72663,1,2,0:3:0:0:
375,291,72774,1,8,0:0:0:0:
342,207,72885,6,0,L|322:394,1,178.25000135994,2|2,1:2|0:3,0:0:0:0:
245,224,73219,2,0,B|202:195|166:228|166:228|169:232|169:232|122:264|70:227,1,178.25000135994,2|0,0:0|0:0,0:0:0:0:
2,275,73552,1,2,0:3:0:0:
2,275,73663,1,0,1:0:0:0:
2,275,73774,2,0,L|17:158,1,89.1250006799698,0|0,1:0|0:0,0:0:0:0:
116,52,73997,1,2,0:3:0:0:
69,106,74108,1,8,0:0:0:0:
121,158,74219,2,0,L|99:33,1,89.1250006799698,8|0,0:0|0:0,0:0:0:0:
225,0,74441,1,10,0:0:0:0:
291,39,74552,1,8,0:0:0:0:
245,109,74663,38,0,B|261:211,1,89.1250006799698,8|0,1:0|0:0,0:0:0:0:
417,294,74885,1,2,0:3:0:0:
417,294,74997,1,2,0:0:0:0:
417,294,75108,2,0,B|370:281|370:281|304:306,1,89.1250006799698,10|0,0:2|0:0,0:0:0:0:
272,358,75330,2,0,B|228:371|228:371|165:348,1,89.1250006799698,2|0,0:3|0:0,0:0:0:0:
51,289,75552,2,0,B|41:253|-6:236|-6:236|82:257|82:257|95:251|95:251|183:273,1,267.375002039909,2|2,1:2|0:2,0:0:0:0:
316,179,75997,5,8,0:0:0:0:
366,120,76108,1,8,0:0:0:0:
332,84,76219,1,2,0:3:0:0:
341,56,76330,1,8,0:0:0:0:
330,49,76441,6,0,B|354:9|354:9|254:12|254:12|211:60|211:60|95:71,1,310.499990524292,2|2,1:2|0:0,0:0:0:0:
233,280,76885,2,0,B|309:263|309:263|312:267|312:267|423:236,1,178.25000135994,10|2,1:2|0:3,0:0:0:0:
433,85,77219,1,0,0:0:0:0:
437,89,77330,2,0,B|415:132|415:132|441:189,1,89.1250006799698,8|0,1:2|0:0,0:0:0:0:
492,266,77552,37,2,0:3:0:0:
477,243,77663,1,8,0:0:0:0:
434,239,77774,1,8,0:0:0:0:
379,297,77885,1,8,0:0:0:0:
309,245,77997,1,10,0:0:0:0:
258,317,78108,1,8,0:0:0:0:
175,173,78219,38,2,L|189:284,1,106.374999594212,2|0,1:0|0:0,0:2:0:0:
157,161,78441,2,2,L|171:277,1,106.374999594212,2|0,1:0|0:0,0:0:0:0:
277,35,78663,6,2,L|264:148,1,106.374999594212,2|0,1:0|0:0,0:2:0:0:
295,23,78885,2,2,L|281:134,1,106.374999594212,2|0,1:0|0:0,0:0:0:0:
340,310,79108,54,2,L|232:297,1,106.374999594212,2|0,1:0|0:0,0:2:0:0:
352,328,79330,2,2,L|237:313,1,106.374999594212,2|0,1:0|0:0,0:0:0:0:
477,157,79552,6,2,L|368:171,1,106.374999594212,2|0,1:0|0:0,0:2:0:0:
488,139,79774,2,2,L|374:155,1,106.374999594212,2|0,1:0|0:0,0:0:0:0:
155,244,79997,6,0,B|109:219|109:219|197:197|197:197|232:223|232:223|317:202,1,258.75000987053,12|2,1:0|0:0,0:0:0:0:
505,139,80885,2,0,B|460:97|460:97|511:237|511:237|463:197,1,258.75000987053,12|0,1:2|0:0,0:0:0:0:
297,81,81774,5,0,1:0:0:0:
