osu file format v14

[General]
AudioFilename: audio.mp3
AudioLeadIn: 0
PreviewTime: 55643
Countdown: 0
SampleSet: Soft
StackLeniency: 0.6
Mode: 0
LetterboxInBreaks: 0
WidescreenStoryboard: 1

[Editor]
Bookmarks: 8888,31997,49784,67552
DistanceSpacing: 0.9
BeatDivisor: 4
GridSize: 32
TimelineZoom: 2.2

[Metadata]
Title:unravel (TV Size)
TitleUnicode:unravel (TV Size)
Artist:TK from Ling tosite sigure
ArtistUnicode:TK from 凛として時雨
Creator:NeKroMan4ik
Version:kaneki collab expert
Source:東京喰種トーキョーグール
Tags:djulus wenet wenect unranked schoolboy mapper komore nymphe kiyoshi guarden wanpachi cycopton kudosu soop so0p tokyo ghoul op opening japanese anime rock jrock j-rock
BeatmapID:2632059
BeatmapSetID:1266431

[Difficulty]
HPDrainRate:6
CircleSize:4.5
OverallDifficulty:8.6
ApproachRate:9.5
SliderMultiplier:1.7
SliderTickRate:1

[Events]
//Background and Video events
0,0,"djulus.jpg",0,0
//Break Periods
//Storyboard Layer 0 (Background)
//Storyboard Layer 1 (Fail)
//Storyboard Layer 2 (Pass)
//Storyboard Layer 3 (Foreground)
//Storyboard Layer 4 (Overlay)
//Storyboard Sound Samples

[TimingPoints]
1334,444.444444444444,4,2,1,40,1,0
1556,444.444444444444,4,2,1,40,1,0
3596,419.580419580419,4,2,1,40,1,0
4015,444.444444444444,4,2,1,40,1,0
4916,465.116279069767,4,2,1,40,1,0
5148,447.761194029851,4,2,1,40,1,0
8663,451.127819548872,4,2,1,40,1,0
8888,444.444444444444,4,2,1,40,1,0
8888,-400,4,2,1,40,0,0
15999,-333.333333333333,4,2,1,40,0,0
21967,-66.6666666666667,4,2,1,40,0,0
23110,-333.333333333333,4,2,1,40,0,0
26665,437.956204379562,4,2,1,50,1,0
26665,-133.333333333334,4,2,1,50,0,0
26776,-133.333333333334,4,2,1,20,0,0
27102,-125,4,2,1,40,0,0
27540,-105.263157894737,4,2,1,50,0,0
27978,-95.2380952380952,4,2,1,70,0,0
28416,458.015267175572,4,2,1,70,1,0
28416,-57.1428571428571,4,2,1,70,0,0
28473,-57.1428571428571,4,2,1,5,0,0
29332,454.545454545454,4,2,1,70,1,0
29332,-57.1428571428571,4,2,1,70,0,0
29388,-57.1428571428571,4,2,1,5,0,0
29786,434.782608695652,4,2,1,70,1,0
29786,-40,4,2,1,70,0,0
30220,444.444444444444,4,2,1,50,1,0
30220,-40,4,2,1,50,0,0
30442,-40,4,2,1,5,0,0
31997,-43.4782608695652,4,2,1,60,0,0
33774,-43.4782608695652,4,2,1,70,0,0
35552,-43.4782608695652,4,2,1,70,0,0
40866,413.793103448275,4,2,1,50,1,0
40969,504.201680672269,4,2,1,50,1,0
41221,444.444444444444,4,2,1,50,1,0
41221,-153.846153846154,4,2,1,50,0,0
41554,495.867768595041,4,2,1,50,1,0
41801,444.444444444444,4,2,1,50,1,0
41912,479.999999999999,4,2,1,50,1,0
42152,413.793103448275,4,2,1,50,1,0
42152,-142.857142857143,4,2,1,50,0,0
42462,441.176470588235,4,2,1,50,1,0
42682,441.176470588235,4,2,1,40,1,0
42682,-153.846153846153,4,2,1,40,0,0
44446,441.826215022091,4,2,1,40,1,0
44446,-153.846153846154,4,2,1,40,0,0
46213,446.428571428571,4,2,1,40,1,0
46213,-153.846153846154,4,2,1,40,0,0
49672,-153.846153846154,4,2,1,5,0,0
49784,444.444444444444,4,2,1,50,1,0
49784,-95.238095238095,4,2,1,50,0,0
54672,342.857142857143,4,2,1,60,1,0
54672,-95.238095238095,4,2,1,60,0,0
54843,441.176470588235,4,2,1,60,1,0
55080,451.127819548872,4,2,1,60,1,0
55982,444.444444444444,4,2,1,60,1,0
55982,-66.6666666666667,4,2,1,60,0,0
56426,-200,4,2,1,60,0,0
56886,444.444444444444,4,2,1,70,1,1
56886,-30.3030303030303,4,2,1,70,0,1
67552,-32.258064516129,4,2,1,65,0,0
67885,-1000,4,2,1,65,0,0
68219,-50,4,2,1,65,0,0
69330,-1000,4,2,1,65,0,0
71108,-33.3333333333333,4,2,1,75,0,1
71774,-333.333333333333,4,2,1,75,0,1
71997,-33.3333333333333,4,2,1,75,0,1
72441,-50,4,2,1,75,0,1
72885,-40,4,2,1,75,0,1
73330,-200,4,2,1,75,0,1
73552,-40,4,2,1,75,0,1
73997,-200,4,2,1,75,0,1
74663,-31.25,4,2,1,75,0,1
75330,-500,4,2,1,75,0,1
75552,-31.25,4,2,1,75,0,1
75997,-50,4,2,1,75,0,1
76441,-40,4,2,1,75,0,1
76885,-200,4,2,1,75,0,1
77108,-40,4,2,1,75,0,1
78108,-86.9565217391304,4,2,1,75,0,0
78219,-25,4,2,1,75,0,1
79997,-100,4,2,1,60,0,0
80663,-1000,4,2,1,60,0,0

[Colours]
Combo1 : 179,193,208
Combo2 : 167,207,220
Combo3 : 87,156,232
Combo4 : 245,33,33
Combo5 : 245,131,131

[HitObjects]
489,76,8888,70,0,L|479:126,1,42.5,8|2,0:3|0:0,0:0:0:0:
406,57,9554,2,0,L|396:107,1,42.5,2|2,0:0|0:0,0:0:0:0:
323,38,10221,2,0,L|313:88,1,42.5,2|0,0:0|0:0,0:0:0:0:
23,302,12221,1,2,0:0:0:0:
23,302,12443,6,0,L|32:352,1,42.5,8|2,0:3|0:0,0:0:0:0:
106,283,13110,2,0,L|115:333,1,42.5,2|2,0:0|0:0,0:0:0:0:
189,264,13776,2,0,L|198:314,1,42.5,2|0,0:0|0:0,0:0:0:0:
26,41,15776,1,2,1:2:0:0:
26,41,15999,6,0,L|31:68,1,25.4999992218018,8|0,0:3|0:0,0:0:0:0:
100,129,16443,2,0,L|95:156,1,25.4999992218018,2|0,0:0|0:0,0:0:0:0:
27,219,16887,1,2,0:0:0:0:
100,129,17110,2,0,L|127:124,1,25.4999992218018,2|0,0:0|0:0,0:0:0:0:
272,29,17554,38,0,L|299:34,1,25.4999992218018,2|8,0:0|0:3,0:0:0:0:
360,103,17999,2,0,L|387:98,1,25.4999992218018,2|0,0:0|0:0,0:0:0:0:
453,53,18443,2,0,L|503:62,1,50.9999984436036,2|2,0:0|0:0,0:0:0:0:
357,296,19221,1,0,3:0:0:0:
352,306,19332,1,0,3:0:0:0:
347,316,19443,1,0,3:0:0:0:
342,326,19554,6,0,L|291:335,1,50.9999984436036,2|0,1:2|0:0,0:0:0:0:
308,254,20221,1,2,0:0:0:0:
220,384,20443,2,0,L|169:374,1,50.9999984436036,2|2,0:0|0:0,0:0:0:0:
125,320,20999,5,0,3:2:0:0:
120,310,21110,1,2,3:2:0:0:
115,300,21221,1,0,3:2:0:0:
110,290,21332,1,8,0:3:0:0:
110,290,21967,37,2,0:0:0:0:
110,290,22221,2,0,B|70:283|67:221|67:221|31:276|-20:265,2,182.142864091056,2|2|2,0:0|0:0|0:0,0:0:0:0:
260,203,23110,6,0,L|269:152,1,50.9999984436036,8|2,0:3|0:0,0:0:0:0:
388,61,23776,2,0,L|339:77,1,50.9999984436036,2|2,0:0|0:0,0:0:0:0:
201,21,24443,2,0,L|239:54,1,50.9999984436036,2|8,0:0|0:3,0:0:0:0:
213,114,26665,5,4,1:0:0:0:
209,119,26774,1,8,0:0:0:0:
205,124,26883,1,8,0:0:0:0:
201,129,26993,1,8,0:0:0:0:
198,135,27102,37,8,0:0:0:0:
164,134,27212,1,8,0:0:0:0:
137,114,27321,1,8,0:0:0:0:
125,83,27431,1,8,0:0:0:0:
133,50,27540,1,8,0:0:0:0:
168,12,27650,1,8,0:0:0:0:
218,0,27759,1,8,0:0:0:0:
266,19,27869,1,8,0:0:0:0:
294,62,27978,5,8,0:0:0:0:
301,110,28088,5,8,0:0:0:0:
248,184,28197,37,8,0:0:0:0:
351,272,28307,5,8,0:0:0:0:
257,348,28416,6,0,L|249:384,1,37.1875003546476,6|0,1:2|0:0,0:0:0:0:
257,348,29332,38,0,L|249:384,1,37.1875003546476,6|0,1:2|0:0,0:0:0:0:
28,159,29786,5,8,0:0:0:0:
75,216,29894,5,8,0:3:0:0:
175,142,30003,37,8,0:3:0:0:
210,184,30112,5,8,0:3:0:0:
347,77,30220,6,0,B|424:-43|311:-58|327:74,1,212.5,4|0,1:0|0:0,0:0:0:0:
18,121,31997,37,8,0:0:0:0:
62,61,32108,2,0,P|116:61|142:113,1,97.7500018644333,8|0,0:0|0:0,0:0:0:0:
194,261,32331,2,0,P|216:161|270:171,1,97.7500018644333,8|0,0:0|0:0,0:0:0:0:
314,368,32553,1,8,0:0:0:0:
252,328,32664,2,0,P|187:325|154:382,1,97.7500018644333,8|0,0:0|0:0,0:0:0:0:
391,227,32886,6,0,L|379:277,6,48.8750009322167,8|0|0|0|0|0|8,0:0|3:0|3:0|3:0|3:0|3:0|0:0,0:0:0:0:
438,362,33331,6,0,B|423:239|423:239|420:234|420:234|405:61,1,293.2500055933,12|0,0:2|0:0,0:0:0:0:
342,16,33775,38,0,B|350:22|350:22|321:141,1,97.7500018644333,14|10,1:2|0:0,0:0:0:0:
235,215,33997,1,8,0:0:0:0:
288,273,34108,1,10,0:0:0:0:
213,320,34219,6,0,B|118:332|129:265|4:293,1,195.500003728867,2|8,0:0|0:0,0:0:0:0:
127,191,34553,1,8,0:0:0:0:
63,89,34664,2,0,P|38:148|72:191,1,97.7500018644333,6|10,1:2|0:0,0:0:0:0:
218,118,34886,2,0,L|201:4,1,97.7500018644333,8|8,0:0|0:0,0:0:0:0:
461,189,35108,5,2,0:0:0:0:
384,195,35219,1,8,0:0:0:0:
321,249,35331,1,8,0:0:0:0:
317,342,35442,1,8,0:0:0:0:
417,357,35553,38,0,P|413:296|364:298,1,97.7500018644333,6|10,1:2|0:0,0:0:0:0:
147,281,35775,1,8,0:0:0:0:
154,353,35886,2,0,P|234:310|217:194,1,195.500003728867,10|8,0:0|0:0,0:0:0:0:
179,162,36219,2,0,P|146:168|172:173,1,97.7500018644333,8|8,0:0|0:0,0:0:0:0:
351,188,36442,6,0,B|395:153|449:175|449:175|458:118|538:104,1,195.500003728867,6|10,1:2|0:0,0:0:0:0:
147,281,36775,1,8,0:0:0:0:
151,288,36886,2,0,B|101:220|0:244|0:244|33:261|33:281,1,195.500003728867,6|8,1:2|0:0,0:0:0:0:
297,374,37219,1,8,0:0:0:0:
264,290,37331,5,4,1:0:0:0:
271,301,37442,2,0,B|245:197|307:218|281:91,1,195.500003728867,10|10,0:0|0:0,0:0:0:0:
199,92,37775,2,0,P|156:112|96:88,1,97.7500018644333,2|8,0:0|0:0,0:0:0:0:
354,218,37997,1,8,0:0:0:0:
417,185,38108,1,8,0:0:0:0:
429,257,38219,38,0,P|494:283|529:224,2,97.7500018644333,6|10|8,1:2|0:0|0:0,0:0:0:0:
281,21,38553,1,8,0:0:0:0:
284,27,38664,2,0,L|298:143,2,97.7500018644333,2|8|8,0:0|0:0|0:0,0:0:0:0:
385,144,38997,1,8,0:0:0:0:
204,213,39108,6,0,P|159:222|120:155,1,97.7500018644333,6|10,1:2|0:0,0:0:0:0:
36,180,39331,1,8,0:0:0:0:
1,358,39442,2,0,P|128:304|215:319,1,195.500003728867,10|8,0:0|0:0,0:0:0:0:
250,364,39775,2,0,P|262:286|239:274,1,97.7500018644333,8|8,0:0|0:0,0:0:0:0:
94,53,39997,6,0,L|104:100,7,48.8750009322167,6|0|8|0|10|0|8|0,1:2|3:0|0:0|3:0|0:0|3:0|0:0|3:0,0:0:0:0:
183,136,40442,2,0,L|211:83,3,48.8750009322167,6|0|8|0,1:2|3:0|0:0|3:0,0:0:0:0:
89,199,40664,38,0,P|95:253|80:280,2,48.8750009322167,8|0|8,0:0|3:0|0:0,0:0:0:0:
91,372,40866,5,4,1:0:0:0:
91,372,40969,1,2,0:0:0:0:
379,271,41221,2,0,P|394:223|382:188,1,82.8749962062838,2|2,0:0|0:0,0:0:0:0:
337,96,41801,1,2,0:0:0:0:
337,96,41912,2,0,L|327:154,1,42.5,2|0,0:0|0:0,0:0:0:0:
258,166,42152,2,0,P|208:145|160:154,1,89.2499972763062,2|2,0:0|0:0,0:0:0:0:
104,112,42682,6,0,L|125:-2,1,110.499994941712,4|0,1:0|0:0,0:0:0:0:
30,149,43343,2,0,P|15:208|36:253,1,110.499994941712,2|0,1:2|0:0,0:0:0:0:
142,305,44005,37,2,3:2:0:0:
141,314,44226,1,2,3:2:0:0:
259,178,44446,6,0,B|241:249|279:279|252:352,2,165.749992412568,2|2|0,1:2|1:2|0:0,0:0:0:0:
322,132,45992,2,0,P|343:145|353:148,1,27.6249987354279,2|0,3:2|0:0,0:0:0:0:
428,207,46213,6,0,L|412:38,1,165.749992412568,2|2,1:2|1:2,0:0:0:0:
181,287,47329,2,0,P|218:306|286:267,1,110.499994941712,2|2,3:2|3:2,0:0:0:0:
145,207,47887,1,0,3:2:0:0:
92,282,47998,37,2,1:2:0:0:
426,20,48668,5,2,0:0:0:0:
365,51,48779,1,0,0:0:0:0:
413,13,48891,6,0,B|382:143|382:143|409:114|438:118,1,193.374991147995,0|0,3:0|0:0,0:0:0:0:
507,257,49784,38,0,P|482:220|439:215,1,89.2499972763062,4|2,1:2|0:0,0:0:0:0:
323,354,50117,1,2,0:0:0:0:
323,354,50450,1,2,0:0:0:0:
336,147,50672,6,0,L|364:269,1,89.2499972763062,2|2,1:2|3:2,0:0:0:0:
233,384,51006,2,0,P|221:341|260:291,1,89.2499972763062,0|0,3:0|0:0,0:0:0:0:
170,242,51339,2,0,L|96:229,1,44.6249986381531,2|0,0:0|0:0,0:0:0:0:
323,353,51561,6,0,P|355:325|399:328,1,89.2499972763062,2|2,1:2|0:2,0:0:0:0:
199,162,51895,1,2,0:0:0:0:
199,162,52228,1,2,0:0:0:0:
152,99,52339,1,0,0:0:0:0:
207,31,52450,38,0,L|295:14,1,89.2499972763062,2|2,1:2|3:2,0:0:0:0:
424,146,52784,2,0,P|447:107|424:61,1,89.2499972763062,0|0,3:0|0:0,0:0:0:0:
309,180,53117,2,0,L|299:233,1,44.6249986381531,2|0,3:2|0:0,0:0:0:0:
369,316,53339,6,0,P|413:325|468:337,1,89.2499972763062,6|2,1:2|0:2,0:0:0:0:
181,219,53672,2,0,P|137:228|82:240,1,89.2499972763062,2|0,0:0|0:0,0:0:0:0:
321,131,54006,2,0,P|329:103|322:77,1,44.6249986381531,2|0,0:0|0:0,0:0:0:0:
251,25,54228,5,2,1:2:0:0:
358,242,54672,1,8,0:0:0:0:
364,237,54757,1,8,0:0:0:0:
372,239,54843,1,8,0:0:0:0:
379,234,54916,1,8,0:0:0:0:
385,232,54990,1,8,0:0:0:0:
393,234,55080,37,4,1:2:0:0:
488,184,55756,2,0,P|488:154|467:127,1,42.5,2|8,0:0|0:0,0:0:0:0:
479,25,55982,6,0,P|445:50|397:54,1,63.7500024318696,8|0,0:0|1:0,0:0:0:0:
280,273,56204,6,0,P|302:237|296:193,1,63.7500024318696,0|0,1:0|1:0,0:0:0:0:
155,24,56426,38,0,L|170:114,1,63.7500024318696,0|0,1:0|0:0,0:0:0:0:
130,215,56886,6,0,B|70:301|-53:249|-67:162|41:93|80:155|75:226,1,280.500002675057,4|0,1:0|0:0,0:0:0:0:
153,334,57219,2,0,P|272:264|410:262,1,280.500002675057,2|0,1:2|0:0,0:0:0:0:
492,306,57552,2,0,B|475:339|495:373|495:373|470:347|430:353,1,140.250001337528,2|0,1:2|0:0,0:0:0:0:
323,155,57774,6,0,P|326:85|359:24,1,140.250001337528,10|8,0:0|0:0,0:0:0:0:
443,50,57997,1,8,0:0:0:0:
443,50,58108,2,0,P|439:119|406:180,1,140.250001337528,10|0,0:0|1:2,0:0:0:0:
292,351,58330,37,8,0:0:0:0:
127,272,58441,1,10,0:0:0:0:
225,279,58552,5,8,0:0:0:0:
59,343,58663,6,0,B|38:213|38:213|36:210|36:210|13:66,1,280.500002675057,2|2,1:2|0:0,0:0:0:0:
299,193,58997,2,0,B|340:206|357:249|357:249|273:185|174:200,1,280.500002675057,0|0,1:0|0:0,0:0:0:0:
88,230,59330,2,0,P|117:302|145:246,1,140.250001337528,2|0,1:2|0:0,0:0:0:0:
326,55,59552,38,0,L|290:227,1,140.250001337528,8|8,0:0|0:0,0:0:0:0:
419,77,59774,1,10,0:0:0:0:
419,77,59886,2,0,L|383:249,1,140.250001337528,8|2,0:0|1:2,0:0:0:0:
263,332,60108,5,8,0:0:0:0:
81,308,60219,1,8,0:0:0:0:
167,355,60330,5,8,0:0:0:0:
31,222,60441,38,0,B|-8:141|43:62|115:61|115:61|72:85|67:143,1,280.500002675057,4|0,1:2|0:0,0:0:0:0:
349,370,60774,2,0,P|277:266|80:294,1,280.500002675057,2|0,1:2|0:0,0:0:0:0:
53,294,61108,2,0,B|70:327|50:361|50:361|75:335|115:341,1,140.250001337528,2|0,1:2|0:0,0:0:0:0:
225,153,61330,6,0,P|200:87|202:18,1,140.250001337528,10|8,0:0|0:0,0:0:0:0:
319,136,61552,1,8,0:0:0:0:
319,136,61663,2,0,P|321:66|296:1,1,140.250001337528,10|0,0:0|1:2,0:0:0:0:
322,349,61885,5,8,0:0:0:0:
495,315,61997,1,10,0:0:0:0:
417,374,62108,37,8,0:0:0:0:
507,217,62219,6,0,P|383:157|226:175,1,280.500002675057,2|2,1:2|0:0,0:0:0:0:
104,310,62552,2,0,B|190:250|138:127|51:113|-18:221|44:260|115:255,1,280.500002675057,0|0,1:0|0:0,0:0:0:0:
109,318,62885,2,0,B|173:329|173:329|174:331|174:331|256:346,1,140.250001337528,2|0,1:2|0:0,0:0:0:0:
390,185,63108,6,0,L|354:12,1,140.250001337528,8|8,0:0|0:0,0:0:0:0:
483,163,63330,1,10,0:0:0:0:
483,163,63441,2,0,L|447:-9,1,140.250001337528,8|2,0:0|1:2,0:0:0:0:
485,280,63663,37,8,0:0:0:0:
326,361,63774,1,10,0:0:0:0:
425,359,63885,5,8,0:0:0:0:
259,289,63997,6,0,B|236:212|134:194|89:245|89:245|134:248|151:277|151:277,1,280.500002675057,4|0,1:0|0:0,0:0:0:0:
352,384,64330,2,0,B|373:254|373:254|375:251|375:251|398:107,1,280.500002675057,2|0,1:2|0:0,0:0:0:0:
415,20,64663,2,0,B|505:-6|505:-6|439:51,1,140.250001337528,2|0,1:2|0:0,0:0:0:0:
209,173,64885,38,0,L|41:146,1,140.250001337528,10|8,0:0|0:0,0:0:0:0:
229,82,65108,1,8,0:0:0:0:
229,82,65219,2,0,L|61:55,1,140.250001337528,10|0,0:0|1:2,0:0:0:0:
201,378,65441,5,8,0:0:0:0:
365,300,65552,1,10,0:0:0:0:
268,307,65663,5,8,0:0:0:0:
450,349,65774,38,0,B|508:314|542:250|536:189|508:76|389:102|339:124|372:263|459:233,1,420.750004012585,2|0,1:2|1:0,0:0:0:0:
436,238,66219,1,2,1:2:0:0:
57,373,66441,2,0,P|125:333|252:360,1,140.250001337528,2|0,1:2|0:0,0:0:0:0:
75,19,66663,6,0,P|47:82|50:152,1,140.250001337528,8|8,0:0|0:0,0:0:0:0:
139,169,66885,1,10,0:0:0:0:
139,169,66997,2,0,P|166:105|164:35,1,140.250001337528,8|2,0:0|1:2,0:0:0:0:
57,373,67219,5,8,0:0:0:0:
201,264,67330,1,8,0:0:0:0:
106,288,67441,37,8,0:0:0:0:
285,314,67552,6,0,B|334:216|466:307|287:354|218:258,1,263.500002010346,2|0,1:2|0:0,0:0:0:0:
50,152,67885,6,0,L|53:143,1,8.5,0|0,1:0|0:0,0:0:0:0:
0,78,68219,2,0,B|4:120|4:120|11:123|11:123|6:83,1,85,0|0,1:0|0:0,0:0:0:0:
164,35,68441,37,8,0:0:0:0:
121,95,68774,1,8,0:0:0:0:
173,44,68885,1,0,1:0:0:0:
218,195,68997,1,8,0:0:0:0:
147,175,69108,1,10,0:0:0:0:
255,60,69219,1,8,0:0:0:0:
273,131,69330,6,0,L|268:138,1,8.5,6|0,1:2|0:0,0:0:0:0:
173,44,69663,6,0,L|181:44,1,8.5,2|0,1:2|0:0,0:0:0:0:
147,175,69997,38,0,L|143:167,1,8.5,2|8,1:2|0:0,0:0:0:0:
203,111,70441,5,10,0:0:0:0:
89,229,70552,1,8,0:0:0:0:
93,236,70663,5,0,1:0:0:0:
147,175,70774,37,8,0:0:0:0:
234,218,70885,5,8,0:0:0:0:
346,136,70997,5,8,0:0:0:0:
508,204,71108,38,0,B|514:240|514:240|485:259|485:259|480:228|480:228|503:212,1,127.500004863739,12|0,1:0|0:0,0:0:0:0:
453,156,71330,1,2,0:3:0:0:
311,337,71441,2,0,B|252:345|217:300|217:300|204:305|204:305|167:278|132:295|132:295|156:300|187:282,1,255.000009727478,2|0,0:0|0:0,0:0:0:0:
256,218,71774,6,0,L|252:202,1,12.7499996109009,2|0,0:3|0:0,0:0:0:0:
156,152,71997,2,0,B|247:132|247:132|187:283,1,255.000009727478,2|2,1:2|0:3,0:0:0:0:
52,349,72330,1,2,0:2:0:0:
44,345,72441,2,0,B|32:333|32:333|49:260,1,85,8|8,0:0|0:0,0:0:0:0:
346,136,72663,1,2,0:3:0:0:
253,205,72774,1,8,0:0:0:0:
104,74,72885,6,0,B|36:2|-97:49|-9:101|35:49,1,212.5,2|2,1:2|0:3,0:0:0:0:
200,0,73219,1,2,0:0:0:0:
202,9,73330,2,0,L|208:33,1,21.25,10|0,1:2|0:0,0:0:0:0:
304,69,73552,2,0,B|372:-3|505:44|417:96|373:44,1,212.5,2|0,0:3|1:0,0:0:0:0:
253,205,73885,1,0,0:0:0:0:
255,197,73997,2,0,L|260:176,2,21.25,2|8|8,0:3|0:0|0:0,0:0:0:0:
512,283,74441,1,10,0:0:0:0:
347,334,74552,1,8,0:0:0:0:
186,374,74663,38,0,B|154:369|154:369|147:340|147:340|173:323|173:323|196:341|196:341|194:355,1,136,8|0,1:0|0:0,0:0:0:0:
261,384,74885,1,2,0:3:0:0:
424,215,74997,2,0,B|439:131|505:77|505:77|490:43|420:68|439:116,1,272,2|0,0:0|0:0,0:0:0:0:
512,200,75330,6,0,L|508:210,1,8.5,2|0,0:3|0:0,0:0:0:0:
470,274,75552,2,0,B|478:165|396:213|403:129|403:129|460:157|414:233,1,272,2|2,1:2|0:3,0:0:0:0:
334,342,75885,1,2,0:2:0:0:
328,335,75997,2,0,P|293:312|251:314,1,85,8|8,0:0|0:0,0:0:0:0:
59,154,76219,1,2,0:3:0:0:
188,218,76330,1,8,0:0:0:0:
98,351,76441,6,0,B|30:423|-103:376|-15:324|29:376,1,212.5,2|2,1:2|0:3,0:0:0:0:
177,384,76774,1,2,0:0:0:0:
180,376,76885,2,0,L|186:351,1,21.25,10|0,1:2|0:0,0:0:0:0:
291,302,77108,2,0,B|359:374|492:327|404:275|360:327,1,212.5,2|8,0:3|1:2,0:0:0:0:
361,325,77441,37,0,0:0:0:0:
291,302,77552,1,2,0:3:0:0:
347,250,77663,1,8,0:0:0:0:
333,290,77774,1,8,0:0:0:0:
333,290,77997,5,10,0:0:0:0:
211,202,78108,1,8,0:0:0:0:
86,120,78219,22,2,B|97:125|97:125|148:110|148:110|151:102|151:102|197:90|197:90|163:121|170:166|170:166|159:169|159:169|184:240|121:287,6,340,2|2|2|2|2|2|2,1:0|1:0|1:0|1:0|1:0|1:0|1:0,0:2:0:0:
86,120,79774,1,2,1:0:0:0:
333,290,79997,22,0,B|320:268|320:268|266:262|266:262|240:311|276:346,1,170,12|0,1:0|0:0,0:0:0:0:
275,345,80663,6,0,L|292:340,2,17,2|2|0,0:0|0:0|0:0,0:0:0:0:
49,222,81774,5,0,1:0:0:0:
