osu file format v14

[General]
AudioFilename: audio.mp3
AudioLeadIn: 0
PreviewTime: 55643
Countdown: 0
SampleSet: Soft
StackLeniency: 0.6
Mode: 0
LetterboxInBreaks: 0
WidescreenStoryboard: 1

[Editor]
DistanceSpacing: 1.1
BeatDivisor: 8
GridSize: 32
TimelineZoom: 2.3

[Metadata]
Title:unravel (TV Size)
TitleUnicode:unravel (TV Size)
Artist:TK from Ling tosite sigure
ArtistUnicode:TK from 凛として時雨
Creator:NeKroMan4ik
Version:hard
Source:東京喰種トーキョーグール
Tags:djulus wenet wenect unranked schoolboy mapper komore nymphe kiyoshi guarden wanpachi cycopton kudosu soop so0p tokyo ghoul op opening japanese anime rock jrock j-rock
BeatmapID:2632061
BeatmapSetID:1266431

[Difficulty]
HPDrainRate:4
CircleSize:4
OverallDifficulty:6
ApproachRate:7.5
SliderMultiplier:2.2
SliderTickRate:1

[Events]
//Background and Video events
0,0,"djulus.jpg",0,0
//Break Periods
//Storyboard Layer 0 (Background)
//Storyboard Layer 1 (Fail)
//Storyboard Layer 2 (Pass)
//Storyboard Layer 3 (Foreground)
//Storyboard Layer 4 (Overlay)
//Storyboard Sound Samples

[TimingPoints]
1334,444.444444444444,4,2,1,40,1,0
1556,444.444444444444,4,2,1,40,1,0
3596,419.580419580419,4,2,1,40,1,0
4015,444.444444444444,4,2,1,40,1,0
4916,465.116279069767,4,2,1,40,1,0
5148,447.761194029851,4,2,1,40,1,0
8663,451.127819548872,4,2,1,40,1,0
8888,444.444444444444,4,2,1,40,1,0
8888,-153.846153846154,4,2,1,40,0,0
26665,437.956204379562,4,2,1,50,1,0
26665,-133.333333333334,4,2,1,50,0,0
26774,-133.333333333334,4,2,1,20,0,0
27102,-125,4,2,1,40,0,0
27540,-105.263157894737,4,2,1,50,0,0
27978,-95.2380952380952,4,2,1,70,0,0
28416,458.015267175572,4,2,1,70,1,0
29332,454.545454545454,4,2,1,70,1,0
29786,434.782608695652,4,2,1,70,1,0
30220,444.444444444444,4,2,1,50,1,0
31999,-100,4,2,1,60,0,0
33775,-100,4,2,1,70,0,0
40866,413.793103448275,4,2,1,50,1,0
40969,504.201680672269,4,2,1,50,1,0
41221,444.444444444444,4,2,1,50,1,0
41554,495.867768595041,4,2,1,50,1,0
41801,444.444444444444,4,2,1,50,1,0
41912,479.999999999999,4,2,1,50,1,0
42152,413.793103448275,4,2,1,50,1,0
42462,441.176470588235,4,2,1,50,1,0
42682,441.176470588235,4,2,1,40,1,0
42682,-153.846153846153,4,2,1,40,0,0
44446,441.826215022091,4,2,1,40,1,0
44446,-153.846153846153,4,2,1,40,0,0
46213,446.428571428571,4,2,1,40,1,0
46213,-153.846153846153,4,2,1,40,0,0
49784,444.444444444444,4,2,1,50,1,0
49784,-117.647058823529,4,2,1,50,0,0
54672,342.857142857143,4,2,1,60,1,0
54672,-117.647058823529,4,2,1,60,0,0
54843,441.176470588235,4,2,1,60,1,0
55080,451.127819548872,4,2,1,60,1,0
55982,444.444444444444,4,2,1,60,1,0
56886,444.444444444444,4,2,1,70,1,1
56886,-90.9090909090909,4,2,1,70,0,1
67552,-95.2380952380952,4,2,1,65,0,0
71108,-86.9565217391304,4,2,1,75,0,1
78108,-86.9565217391304,4,2,1,75,0,0
78219,-86.9565217391304,4,2,1,75,0,1
79997,-133.333333333333,4,2,1,60,0,0

[Colours]
Combo1 : 179,193,208
Combo2 : 167,207,220
Combo3 : 87,156,232
Combo4 : 245,33,33
Combo5 : 245,131,131

[HitObjects]
321,101,8888,70,0,P|361:45|440:58,1,142.99999345398,8|2,0:3|0:0,0:0:0:0:
486,123,9554,2,0,P|472:191|454:283,1,142.99999345398,2|2,0:0|0:0,0:0:0:0:
379,313,10221,2,0,B|307:302|318:370|222:359,1,142.99999345398,2|0,0:0|0:0,0:0:0:0:
132,0,12221,5,2,0:0:0:0:
169,70,12443,2,0,P|125:141|61:132,1,142.99999345398,8|2,0:3|0:0,0:0:0:0:
0,197,13110,2,0,L|14:278,1,71.4999967269899,2|0,0:0|0:0,0:0:0:0:
74,357,13554,1,2,0:0:0:0:
138,310,13776,2,0,P|210:323|297:337,1,142.99999345398,2|0,0:0|0:0,0:0:0:0:
430,322,15776,5,2,1:2:0:0:
481,262,15999,2,0,P|468:198|476:97,2,142.99999345398,8|2|2,0:3|0:0|0:0,0:0:0:0:
404,315,17110,2,0,L|321:296,1,71.4999967269899,2|0,0:0|0:0,0:0:0:0:
258,320,17554,1,2,0:0:0:0:
193,234,17776,37,8,0:3:0:0:
144,173,17999,2,0,P|74:180|41:244,2,142.99999345398,2|2|2,0:0|0:0|0:0,0:0:0:0:
234,35,19332,5,0,3:0:0:0:
302,74,19554,2,0,P|368:58|450:49,1,142.99999345398,2|0,1:2|0:0,0:0:0:0:
512,121,20221,1,2,0:0:0:0:
512,121,20443,2,0,L|487:269,1,142.99999345398,2|2,0:0|0:0,0:0:0:0:
428,313,21110,1,2,3:2:0:0:
354,369,21332,5,8,0:3:0:0:
354,369,21967,1,2,0:0:0:0:
261,320,22221,2,0,P|227:357|175:359,2,102.142852467128,2|2|2,0:0|0:0|0:0,0:0:0:0:
337,241,23110,38,0,P|327:169|318:95,1,142.99999345398,8|2,0:3|0:0,0:0:0:0:
256,39,23776,2,0,P|187:27|135:78,1,142.99999345398,2|2,0:0|0:0,0:0:0:0:
80,137,24443,2,0,B|107:206|62:199|94:281,1,142.99999345398,2|8,0:0|0:3,0:0:0:0:
338,288,26443,5,2,0:0:0:0:
398,231,26665,2,0,P|392:153|435:95,1,123.750004720688,4|8,1:0|0:0,0:0:0:0:
398,86,27102,6,0,L|341:74,3,44,8|8|8|8,0:0|0:0|0:0|0:0,0:0:0:0:
322,95,27540,38,0,L|265:107,3,52.2499986047745,8|8|8|8,0:0|0:0|0:0|0:0,0:0:0:0:
236,84,27978,5,8,0:0:0:0:
213,78,28088,1,8,0:0:0:0:
191,72,28197,1,8,0:0:0:0:
168,67,28307,1,8,0:0:0:0:
146,61,28416,5,6,1:2:0:0:
146,61,29332,1,6,1:2:0:0:
137,68,29786,38,0,L|81:87,3,55,8|8|8|8,0:0|0:3|0:3|0:3,0:0:0:0:
35,153,30220,5,4,1:0:0:0:
35,153,31997,5,8,0:0:0:0:
35,153,32108,1,8,0:0:0:0:
125,215,32331,1,8,0:0:0:0:
269,139,32553,37,8,0:0:0:0:
269,139,32664,1,8,0:0:0:0:
353,208,32886,1,8,0:0:0:0:
444,144,33108,2,0,L|501:134,2,55,8|8|12,0:0|0:0|0:0,0:0:0:0:
439,151,33775,6,0,L|454:95,2,55,14|10|8,1:2|0:0|0:0,0:0:0:0:
426,163,34108,1,10,0:0:0:0:
413,175,34219,2,0,L|436:308,1,110,2|8,0:0|0:0,0:0:0:0:
359,367,34664,2,0,P|332:374|307:385,2,55,6|10|8,1:2|0:0|0:0,0:0:0:0:
323,263,35108,2,0,P|296:255|271:244,2,55,2|8|8,0:0|0:0|0:0,0:0:0:0:
194,327,35553,6,0,L|205:388,2,55,6|10|8,1:2|0:0|0:0,0:0:0:0:
181,316,35886,1,10,0:0:0:0:
166,307,35997,2,0,P|103:296|40:286,1,110,2|8,0:0|0:0,0:0:0:0:
0,194,36442,38,0,P|46:105|-3:69,1,165,6|8,1:2|0:0,0:0:0:0:
0,85,36886,6,0,B|85:92|61:27|169:44,1,165,6|8,1:2|0:0,0:0:0:0:
167,53,37331,6,0,P|173:26|179:0,2,55,4|10|8,1:0|0:0|0:0,0:0:0:0:
176,67,37664,1,10,0:0:0:0:
186,83,37775,2,0,P|244:73|310:61,1,110,2|8,0:0|0:0,0:0:0:0:
368,144,38219,2,0,L|422:130,2,55,6|10|8,1:2|0:0|0:0,0:0:0:0:
289,221,38664,2,0,L|235:207,2,55,2|8|8,0:0|0:0|0:0,0:0:0:0:
360,305,39108,38,0,P|365:333|374:359,2,55,6|10|8,1:2|0:0|0:0,0:0:0:0:
346,294,39442,1,10,0:0:0:0:
335,284,39553,2,0,B|414:266|414:266|413:262|413:262|490:244,1,165,2|8,0:0|0:0,0:0:0:0:
512,256,39997,1,6,1:2:0:0:
462,144,40219,1,10,0:0:0:0:
462,144,40331,1,8,0:0:0:0:
462,144,40442,2,0,L|472:84,2,55,6|8|8,1:2|0:0|0:0,0:0:0:0:
361,174,40866,5,4,1:0:0:0:
103,92,42682,6,0,P|50:79|0:63,2,107.249995090485,4|2|2,1:0|0:0|1:2,0:0:0:0:
289,278,44005,37,2,3:2:0:0:
355,236,44226,1,2,3:2:0:0:
409,292,44446,2,0,P|462:305|512:320,2,107.249995090485,2|2|2,1:2|0:0|1:2,0:0:0:0:
410,154,45992,5,2,3:2:0:0:
466,102,46213,2,0,P|464:7|369:15,1,214.49999018097,2|2,1:2|1:2,0:0:0:0:
259,105,47329,1,2,3:2:0:0:
123,32,47775,1,2,3:2:0:0:
80,101,47998,6,0,B|52:243|52:243|16:174,1,214.49999018097,2|2,1:2|0:0,0:0:0:0:
19,181,49784,37,4,1:2:0:0:
87,230,50006,2,0,P|94:204|103:180,2,46.7500008916855,2|2|0,0:0|0:0|1:0,0:0:0:0:
172,316,50450,5,2,0:0:0:0:
219,246,50672,1,2,1:2:0:0:
287,197,50895,2,0,P|294:223|303:247,2,46.7500008916855,2|0|0,3:2|3:0|1:0,0:0:0:0:
370,122,51339,5,2,0:0:0:0:
435,174,51561,1,2,1:2:0:0:
486,107,51784,2,0,L|496:55,2,46.7500008916855,2|2|0,0:2|0:0|1:0,0:0:0:0:
370,122,52228,37,2,0:0:0:0:
305,70,52450,1,2,1:2:0:0:
254,137,52672,2,0,L|244:189,2,46.7500008916855,2|0|0,3:2|3:0|1:0,0:0:0:0:
172,59,53117,5,2,3:2:0:0:
98,104,53339,1,6,1:2:0:0:
27,58,53561,2,0,P|22:34|17:6,2,46.7500008916855,2|2|0,0:2|0:0|1:0,0:0:0:0:
2,154,54006,5,2,0:0:0:0:
59,210,54228,2,0,P|102:233|109:326,1,140.250002675057,2|0,1:2|3:2,0:0:0:0:
98,334,54672,1,8,0:0:0:0:
183,384,54843,2,0,L|314:366,1,118.5,8|4,0:0|1:2,0:0:0:0:
300,367,55982,54,0,L|312:303,4,55,8|0|0|0|0,0:0|1:0|1:0|1:0|1:0,0:0:0:0:
25,68,56886,6,0,P|119:55|214:45,1,181.500005538941,4|2,1:0|1:2,0:0:0:0:
222,53,57330,2,0,P|253:100|230:165,1,121.000003692627,0|2,0:0|1:2,0:0:0:0:
133,251,57774,38,0,B|192:261|182:297|245:309,1,121.000003692627,10|8,0:0|0:0,0:0:0:0:
248,316,58108,1,10,0:0:0:0:
256,326,58219,1,0,1:2:0:0:
389,381,58441,1,10,0:0:0:0:
398,365,58552,1,8,0:0:0:0:
407,349,58663,6,0,B|434:245|434:245|474:230|514:264,2,181.500005538941,2|0|2,1:2|1:0|1:2,0:0:0:0:
266,271,59552,2,0,L|207:286,3,60.5000018463135,8|8|10|8,0:0|0:0|0:0|0:0,0:0:0:0:
191,262,59997,6,0,P|206:187|124:111,1,181.500005538941,2|8,1:2|0:0,0:0:0:0:
75,74,60441,38,0,P|135:63|200:50,1,121.000003692627,4|0,1:2|0:0,0:0:0:0:
214,28,60774,2,0,L|339:52,1,121.000003692627,2|0,1:2|0:0,0:0:0:0:
356,71,61108,1,2,1:2:0:0:
486,45,61330,1,10,0:0:0:0:
512,184,61552,5,8,0:0:0:0:
512,184,61663,1,10,0:0:0:0:
512,184,61774,2,0,P|498:216|493:254,3,60.5000018463135,0|8|10|8,1:2|0:0|0:0|0:0,0:0:0:0:
493,261,62219,6,0,B|452:208|385:214|385:214|416:232|419:272,2,181.500005538941,2|0|2,1:2|1:0|1:2,0:0:0:0:
397,354,63108,1,8,0:0:0:0:
279,292,63330,1,10,0:0:0:0:
265,271,63441,1,8,0:0:0:0:
251,250,63552,38,0,P|264:158|282:45,1,181.500005538941,2|8,1:2|0:0,0:0:0:0:
216,26,63997,6,0,P|154:87|69:68,1,181.500005538941,4|2,1:0|1:2,0:0:0:0:
56,53,64441,1,0,0:0:0:0:
5,178,64663,6,0,L|124:201,1,121.000003692627,2|10,1:2|0:0,0:0:0:0:
135,210,64997,1,8,0:0:0:0:
144,218,65108,2,0,B|170:273|170:273|136:322,1,121.000003692627,8|0,0:0|1:2,0:0:0:0:
295,384,65552,1,10,0:0:0:0:
298,363,65663,1,8,0:0:0:0:
302,342,65774,38,0,B|319:236|319:236|355:214|390:236,1,181.500005538941,2|0,1:2|1:0,0:0:0:0:
404,256,66219,1,2,1:2:0:0:
509,175,66441,2,0,P|529:113|488:52,1,121.000003692627,2|8,1:2|0:0,0:0:0:0:
394,5,66885,5,10,0:0:0:0:
394,5,66997,1,8,0:0:0:0:
394,5,67108,2,0,P|361:14|331:21,3,60.5000018463135,2|8|8|8,1:2|0:0|0:0|0:0,0:0:0:0:
319,17,67552,6,0,P|331:94|244:134,2,173.24999471283,2|0|0,1:2|1:0|1:0,0:0:0:0:
194,0,68441,2,0,P|133:14|19:32,1,173.24999471283,8|8,0:0|0:0,0:0:0:0:
11,43,68885,2,0,L|-2:110,3,57.7499982376099,0|8|10|8,1:0|0:0|0:0|0:0,0:0:0:0:
21,126,69330,38,0,B|98:108|118:177|186:161,2,173.24999471283,6|2|2,1:2|1:2|1:2,0:0:0:0:
75,242,70219,1,8,0:0:0:0:
160,342,70441,5,10,0:0:0:0:
160,342,70552,1,8,0:0:0:0:
160,342,70663,2,0,P|189:331|221:326,3,57.7499982376099,0|8|8|8,1:0|0:0|0:0|0:0,0:0:0:0:
235,338,71108,6,0,L|359:359,1,126.500002412796,12|2,1:0|0:3,0:0:0:0:
375,355,71441,1,2,0:0:0:0:
391,348,71552,2,0,P|425:296|397:231,1,126.500002412796,8|2,1:2|0:3,0:0:0:0:
308,139,71997,38,0,P|319:75|329:14,1,126.500002412796,2|2,1:2|0:3,0:0:0:0:
341,2,72330,1,2,0:2:0:0:
357,0,72441,2,0,P|420:4|451:57,1,126.500002412796,8|2,0:0|0:3,0:0:0:0:
477,190,72885,6,0,B|546:205|540:265|540:265|497:302|517:358,2,189.750003619194,2|2|2,1:2|0:0|0:3,0:0:0:0:
462,197,73663,1,0,0:0:0:0:
449,205,73774,1,0,1:0:0:0:
326,138,73997,2,0,L|338:70,2,63.250001206398,2|8|8,0:3|0:0|0:0,0:0:0:0:
300,274,74441,1,10,0:0:0:0:
307,285,74552,1,8,0:0:0:0:
313,297,74663,6,0,P|245:319|215:378,1,126.500002412796,8|2,1:0|0:3,0:0:0:0:
209,374,74997,1,2,0:0:0:0:
199,384,75108,2,0,L|58:362,1,126.500002412796,8|2,1:2|0:3,0:0:0:0:
0,246,75552,38,0,P|59:234|124:226,1,126.500002412796,2|2,1:2|0:3,0:0:0:0:
140,217,75885,1,2,0:2:0:0:
151,209,75997,2,0,B|176:149|176:149|145:97,1,126.500002412796,8|2,0:0|0:3,0:0:0:0:
283,93,76441,6,0,B|298:-12|298:-12|340:-29|380:3,2,189.750003619194,2|2|2,1:2|0:0|0:3,0:0:0:0:
290,104,77219,1,0,0:0:0:0:
296,115,77330,1,8,1:2:0:0:
392,215,77552,2,0,L|469:198,2,63.250001206398,2|8|8,0:3|0:0|0:0,0:0:0:0:
291,312,77997,1,10,0:0:0:0:
280,328,78108,1,8,0:0:0:0:
269,342,78219,21,2,1:0:0:0:
165,384,78441,1,2,1:0:0:0:
122,278,78663,1,2,1:0:0:0:
228,237,78885,1,2,1:0:0:0:
122,278,79108,5,2,1:0:0:0:
81,172,79330,1,2,1:0:0:0:
186,132,79552,1,2,1:0:0:0:
228,237,79774,1,2,1:0:0:0:
329,301,79997,6,0,B|405:331|405:331|396:164|396:164|472:190,2,330.000012588501,12|12|0,1:0|1:2|1:0,0:0:0:0:
