osu file format v14

[General]
AudioFilename: audio.mp3
AudioLeadIn: 0
PreviewTime: 55643
Countdown: 0
SampleSet: Soft
StackLeniency: 0.7
Mode: 2
LetterboxInBreaks: 0
WidescreenStoryboard: 1

[Editor]
DistanceSpacing: 0.8
BeatDivisor: 4
GridSize: 8
TimelineZoom: 3.199999

[Metadata]
Title:unravel (TV Size)
TitleUnicode:unravel (TV Size)
Artist:TK from Ling tosite sigure
ArtistUnicode:TK from 凛として時雨
Creator:GIGACHAD
Version:Rain
Source:東京喰種トーキョーグール
Tags:jrock j-rock 北嶋 徹 Fantastic Magic anime japanese opening op Toru Kitajima ken kaneki tokyo ghoul chickenbible secre ajamez jemzuu xiila dust idu5t idust du5t dako
BeatmapID:2738197
BeatmapSetID:1140153

[Difficulty]
HPDrainRate:6
CircleSize:3.5
OverallDifficulty:8.8
ApproachRate:8.8
SliderMultiplier:2.2
SliderTickRate:2

[Events]
//Background and Video events
0,0,"dako_for_bn.jpg",0,0
//Break Periods
//Storyboard Layer 0 (Background)
//Storyboard Layer 1 (Fail)
//Storyboard Layer 2 (Pass)
//Storyboard Layer 3 (Foreground)
//Storyboard Layer 4 (Overlay)
//Storyboard Sound Samples

[TimingPoints]
1334,444.444444444444,4,2,1,40,1,0
1556,444.444444444444,4,2,1,40,1,0
3596,419.580419580419,4,2,1,40,1,0
4015,444.444444444444,4,2,1,40,1,0
4916,465.116279069767,4,2,1,40,1,0
5148,447.761194029851,4,2,1,40,1,0
8088,-100,4,2,1,40,0,0
8663,451.127819548872,4,2,1,40,1,0
8888,444.444444444444,4,2,1,40,1,0
11671,-100,4,2,1,40,0,0
16760,-95.2380952380952,4,2,1,40,0,0
16991,-100,4,2,1,40,0,0
26665,437.956204379562,4,2,1,50,1,0
27321,-100,4,2,1,60,0,0
27642,-86.9565217391304,4,2,1,60,0,0
28004,-100,4,2,1,60,0,0
28416,458.015267175572,4,2,1,70,1,0
28530,-100,4,2,1,45,0,0
29332,454.545454545454,4,2,1,70,1,0
29439,-100,4,2,1,45,0,0
29786,434.782608695652,4,2,1,70,1,0
29852,-100,4,2,1,40,0,0
30220,444.444444444444,4,2,1,50,1,0
30331,-100,4,2,1,40,0,0
31997,-100,4,2,1,65,0,0
32962,-76.9230769230769,4,2,1,65,0,0
33775,-100,4,2,1,75,0,0
34331,-100,4,2,1,75,0,0
40866,413.793103448275,4,2,1,50,1,0
40866,-111.111111111111,4,2,1,50,0,0
40969,504.201680672269,4,2,1,50,1,0
41095,-100,4,2,1,50,0,0
41221,444.444444444444,4,2,1,50,1,0
41554,495.867768595041,4,2,1,50,1,0
41801,444.444444444444,4,2,1,50,1,0
41900,-100,4,2,1,40,0,0
41912,479.999999999999,4,2,1,50,1,0
42152,413.793103448275,4,2,1,50,1,0
42462,441.176470588235,4,2,1,50,1,0
42682,441.176470588235,4,2,1,40,1,0
44446,441.826215022091,4,2,1,40,1,0
45172,-100,4,2,1,40,0,0
46213,446.428571428571,4,2,1,40,1,0
49784,444.444444444444,4,2,1,50,1,0
54672,342.857142857143,4,2,1,60,1,0
54843,441.176470588235,4,2,1,60,1,0
54962,-100,4,2,1,60,0,0
55080,451.127819548872,4,2,1,60,1,0
55184,-100,4,2,1,60,0,0
55982,444.444444444444,4,2,1,60,1,0
56886,444.444444444444,4,2,1,85,1,1
56982,-100,4,2,1,85,0,1
57311,-100,4,2,1,85,0,1
57421,-100,4,2,1,85,0,1
57645,-100,4,2,1,85,0,1
57870,-100,4,2,1,85,0,1
67330,-100,4,2,1,70,0,0
71108,-100,4,2,1,85,0,1
79997,-100,4,2,1,85,0,0
81774,-100,4,2,1,40,0,0

[Colours]
Combo1 : 105,105,105
Combo2 : 192,192,192

[HitObjects]
432,338,8663,5,0,0:0:0:0:
93,329,8888,2,0,P|101:281|237:193,1,220,0|0,3:2|0:0,0:0:0:0:
344,192,9554,2,0,L|472:192,1,110,2|0,0:0|0:0,0:0:0:0:
320,144,9999,1,0,0:0:0:0:
32,72,10221,6,0,L|272:72,1,220,2|0,0:0|0:0,0:0:0:0:
376,192,12221,1,2,0:0:0:0:
88,280,12443,6,0,L|88:160,1,110,2|0,3:2|0:0,0:0:0:0:
192,168,12887,1,0,0:0:0:0:
72,104,13110,2,0,L|208:104,1,110,2|0,0:0|0:0,0:0:0:0:
72,104,13554,1,0,0:0:0:0:
280,304,13776,2,0,L|280:184,1,110,2|0,0:0|0:0,0:0:0:0:
128,328,15776,1,2,0:0:0:0:
416,248,15999,6,0,L|184:248,1,220,2|0,3:2|0:0,0:0:0:0:
344,168,16887,1,0,0:0:0:0:
240,104,17110,2,0,L|360:104,1,110,2|0,0:0|0:0,0:0:0:0:
464,104,17554,1,0,0:0:0:0:
168,272,17776,5,2,3:2:0:0:
280,280,17999,2,0,L|280:160,1,110,2|0,0:0|0:0,0:0:0:0:
88,152,18443,2,0,L|208:152,1,110,2|0,0:0|0:0,0:0:0:0:
304,112,18887,2,0,L|432:112,1,110,2|0,0:0|0:0,0:0:0:0:
432,48,19332,1,0,0:0:0:0:
128,312,19554,6,0,L|128:176,1,110,2|0,3:2|0:0,0:0:0:0:
248,200,20221,1,0,0:0:0:0:
456,200,20443,2,0,L|320:200,1,110,2|0,0:0|0:0,0:0:0:0:
336,136,20887,1,0,0:0:0:0:
136,104,21110,1,2,0:0:0:0:
424,96,21332,5,0,3:0:0:0:
152,192,22887,1,0,0:0:0:0:
440,200,23110,6,0,L|440:72,1,110,2|0,3:2|0:0,0:0:0:0:
312,88,23554,1,2,0:0:0:0:
112,336,23776,2,0,L|232:336,1,110,0|0,0:0|0:0,0:0:0:0:
96,264,24221,1,2,0:0:0:0:
384,280,24443,2,0,L|392:168,1,110,2|0,0:0|0:0,0:0:0:0:
192,176,24887,5,0,3:0:0:0:
368,336,26443,2,0,L|368:272,1,55,2|0,0:2|0:0,0:0:0:0:
176,256,26665,6,0,L|32:256,1,110,2|8,3:2|0:0,0:0:0:0:
176,200,27102,2,0,L|176:128,1,55,8|0,0:0|0:0,0:0:0:0:
360,136,27321,2,0,L|472:136,1,110,8|8,0:0|0:0,0:0:0:0:
399,77,27650,1,0,0:0:0:0:
192,72,27759,1,8,0:0:0:0:
142,75,27869,1,8,0:0:0:0:
254,232,27978,1,8,0:0:0:0:
314,233,28088,1,8,0:0:0:0:
104,232,28197,1,8,0:0:0:0:
64,152,28307,1,8,0:0:0:0:
288,304,28416,6,0,L|464:304,1,165,4|2,3:0|0:0,0:0:0:0:
368,240,28988,2,0,L|432:240,1,55,2|2,0:0|0:0,0:0:0:0:
120,248,29332,2,0,L|120:112,1,110,4|0,3:0|0:0,0:0:0:0:
296,136,29786,2,0,L|360:136,3,55,8|8|4|4,0:0|3:0|3:0|3:0,0:0:0:0:
144,320,30220,6,0,L|136:248,1,55,4|0,3:2|0:0,0:0:0:0:
264,256,30553,2,0,L|336:256,1,55,2|2,0:0|0:0,0:0:0:0:
440,256,30886,2,0,L|432:184,1,55,2|0,0:0|0:0,0:0:0:0:
376,200,31108,1,2,0:0:0:0:
288,200,31220,1,2,0:0:0:0:
152,192,31331,2,0,L|80:192,1,55,2|0,0:0|0:0,0:0:0:0:
232,352,31553,2,0,L|232:152,1,165,8|8,0:0|0:0,0:0:0:0:
32,112,31997,5,8,0:0:0:0:
104,112,32108,1,8,0:0:0:0:
296,120,32331,1,8,0:0:0:0:
120,64,32553,1,8,0:0:0:0:
192,64,32664,1,8,0:0:0:0:
120,64,32775,1,0,0:0:0:0:
248,256,32886,1,8,0:0:0:0:
240,200,32997,1,8,0:0:0:0:
176,200,33108,1,8,0:0:0:0:
253,157,33220,1,8,0:0:0:0:
472,224,33331,2,0,P|472:184|336:96,1,214.49999018097,2|0,3:2|0:0,0:0:0:0:
112,96,33775,6,0,L|24:96,1,55,10|8,3:2|0:0,0:0:0:0:
184,56,34108,1,8,0:0:0:0:
360,320,34219,2,0,L|488:320,1,110,10|10,0:0|0:0,0:0:0:0:
160,320,34664,2,0,L|160:224,1,55,12|2,3:2|0:0,0:0:0:0:
224,208,34886,2,0,L|96:208,1,110,10|10,0:0|0:0,0:0:0:0:
56,144,35219,2,0,L|120:144,1,55,8|8,0:0|0:0,0:0:0:0:
416,152,35553,6,0,L|416:72,1,55,12|2,3:2|0:0,0:0:0:0:
416,32,35886,1,8,0:0:0:0:
232,48,35997,2,0,L|96:48,1,110,10|10,0:0|0:0,0:0:0:0:
424,280,36442,2,0,L|432:160,1,110,12|8,3:2|0:0,0:0:0:0:
112,296,36886,2,0,L|104:176,1,110,10|8,0:0|0:0,0:0:0:0:
176,192,37219,1,8,0:0:0:0:
360,128,37331,6,0,L|424:128,1,55,12|10,3:2|0:0,0:0:0:0:
496,64,37664,1,8,0:0:0:0:
312,64,37775,2,0,L|448:64,1,110,10|8,0:0|0:0,0:0:0:0:
120,80,38219,1,10,3:2:0:0:
232,32,38442,2,0,L|120:32,1,110,10|8,0:0|0:0,0:0:0:0:
184,136,38775,2,0,L|120:136,1,55,8|8,0:0|0:0,0:0:0:0:
496,352,39108,6,0,L|496:288,1,55,12|10,3:2|0:0,0:0:0:0:
392,296,39442,1,8,0:0:0:0:
208,296,39553,2,0,L|56:296,1,110,10|8,0:0|0:0,0:0:0:0:
400,144,39997,2,0,L|416:256,1,110,10|8,0:0|0:0,0:0:0:0:
104,224,40442,1,8,0:0:0:0:
32,184,40553,1,8,0:0:0:0:
40,120,40664,1,8,0:0:0:0:
120,104,40775,1,8,0:0:0:0:
316,264,40866,5,2,3:0:0:0:
316,264,40969,1,0,0:0:0:0:
417,279,41221,2,0,L|417:147,1,110,2|0,0:0|0:0,0:0:0:0:
280,144,41554,2,0,L|390:144,1,110,2|2,0:0|0:0,0:0:0:0:
334,201,41912,1,2,0:0:0:0:
438,257,42152,1,2,0:0:0:0:
188,159,42462,2,0,L|188:95,1,55,2|0,0:0|0:0,0:0:0:0:
400,160,42682,6,0,L|192:160,2,165,2|0|2,3:2|0:0|3:2,0:0:0:0:
184,240,44005,1,0,0:0:0:0:
72,240,44226,2,0,L|64:152,1,55,2|0,0:0|0:0,0:0:0:0:
197,120,44446,6,0,L|32:120,2,165,2|2|2,3:2|0:0|3:2,0:0:0:0:
408,128,45992,2,0,L|416:56,1,55,2|0,0:3|0:0,0:0:0:0:
280,80,46213,6,0,L|96:80,2,165,2|0|2,3:2|0:0|3:2,0:0:0:0:
416,192,47329,2,0,L|288:192,1,110,2|0,0:0|0:0,0:0:0:0:
192,200,47775,2,0,L|192:128,1,55,2|0,0:0|0:0,0:0:0:0:
320,96,47998,6,0,L|210:96,1,110,0|0,3:2|0:0,0:0:0:0:
496,360,48668,2,0,L|496:128,1,220,2|0,0:0|0:0,0:0:0:0:
176,328,49338,1,2,0:0:0:0:
160,216,49561,2,0,L|224:216,1,55,2|0,0:0|0:0,0:0:0:0:
408,216,49784,5,4,3:2:0:0:
296,176,50006,1,2,0:0:0:0:
368,176,50117,1,2,0:0:0:0:
120,176,50450,1,2,0:0:0:0:
232,176,50672,1,2,3:2:0:0:
88,96,50895,1,2,0:0:0:0:
160,96,51006,1,2,0:0:0:0:
416,120,51339,2,0,L|416:48,1,55,0|0,0:0|0:0,0:0:0:0:
288,328,51561,6,0,L|424:328,1,110,0|0,3:2|0:0,0:0:0:0:
344,272,51895,2,0,L|454:272,1,110,2|0,0:0|0:0,0:0:0:0:
464,208,52228,1,2,0:0:0:0:
272,200,52450,1,0,3:2:0:0:
384,136,52672,1,2,0:0:0:0:
312,136,52784,1,2,0:0:0:0:
32,144,53117,2,0,L|32:72,1,55,2|0,0:3|0:0,0:0:0:0:
256,304,53339,5,2,3:2:0:0:
144,240,53561,1,2,0:0:0:0:
216,240,53672,1,2,0:0:0:0:
392,240,54006,1,0,0:0:0:0:
280,184,54228,1,2,3:2:0:0:
352,184,54339,1,0,0:0:0:0:
152,184,54561,1,2,0:0:0:0:
336,120,54672,6,0,L|343:66,1,55,8|8,0:0|0:0,0:0:0:0:
288,80,54843,2,0,L|288:32,1,36.6666666666667,8|8,0:0|0:0,0:0:0:0:
240,40,54990,1,8,0:0:0:0:
400,40,55080,5,4,3:2:0:0:
248,296,55756,2,0,L|248:240,1,55,2|0,0:0|0:0,0:0:0:0:
432,224,55982,1,10,0:0:0:0:
488,224,56093,1,8,3:2:0:0:
408,168,56204,1,8,0:0:0:0:
352,168,56315,1,8,0:0:0:0:
224,168,56426,2,0,L|360:168,1,110,10|8,3:2|0:0,0:0:0:0:
392,104,56759,1,10,0:0:0:0:
184,360,56886,6,0,L|184:240,1,110,4|0,3:2|0:0,0:0:0:0:
304,248,57219,2,0,L|424:248,1,110,2|0,3:2|0:0,0:0:0:0:
496,248,57552,1,2,3:2:0:0:
208,160,57774,2,0,L|209:49,1,110,10|8,0:0|0:0,0:0:0:0:
317,39,58108,2,0,L|194:39,1,110,10|0,0:0|0:0,0:0:0:0:
334,167,58441,2,0,L|334:97,1,55,10|8,0:0|0:0,0:0:0:0:
160,200,58663,5,4,3:2:0:0:
272,208,58886,2,0,L|392:208,1,110,2|0,0:0|0:0,0:0:0:0:
176,336,59330,2,0,L|304:336,1,110,2|8,3:2|0:0,0:0:0:0:
88,320,59774,2,0,L|80:168,1,110,10|8,0:0|3:2,0:0:0:0:
192,208,60219,2,0,L|112:208,1,55,8|8,0:0|0:0,0:0:0:0:
328,128,60441,6,0,L|128:128,1,165,4|2,3:2|3:2,0:0:0:0:
424,64,61108,2,0,L|184:64,1,220,2|10,3:2|0:0,0:0:0:0:
320,168,61774,1,2,3:2:0:0:
120,168,61997,2,0,L|112:96,1,55,8|8,0:0|0:0,0:0:0:0:
320,288,62219,6,0,L|144:288,1,165,4|2,3:2|3:2,0:0:0:0:
400,280,62885,2,0,L|408:152,1,110,2|0,3:2|0:0,0:0:0:0:
104,160,63330,2,0,L|104:32,1,110,2|12,0:0|3:2,0:0:0:0:
216,48,63774,2,0,L|144:48,1,55,10|8,0:0|0:0,0:0:0:0:
384,320,63997,6,0,L|520:320,1,110,4|0,3:2|0:0,0:0:0:0:
376,264,64330,2,0,L|256:264,1,110,2|0,3:2|0:0,0:0:0:0:
464,224,64663,2,0,L|464:112,1,110,2|8,3:2|0:0,0:0:0:0:
264,128,65108,2,0,L|392:128,1,110,10|0,0:0|3:0,0:0:0:0:
384,72,65441,1,8,0:0:0:0:
320,48,65552,1,8,0:0:0:0:
240,48,65663,1,8,0:0:0:0:
40,312,65774,6,0,L|40:200,1,110,4|0,3:2|0:0,0:0:0:0:
152,208,66219,1,0,3:2:0:0:
360,336,66441,2,0,L|360:208,1,110,2|8,3:2|0:0,0:0:0:0:
64,128,66885,2,0,L|224:128,1,110,10|0,0:0|3:0,0:0:0:0:
472,192,67330,6,0,P|392:176|274:-47,1,330,10|0,0:0|3:2,0:0:0:0:
160,336,68219,2,0,P|101:268|247:127,1,330,0|0,3:2|3:0,0:0:0:0:
344,192,69108,1,10,0:0:0:0:
32,128,69330,6,0,L|192:72,2,165,2|2|2,3:2|3:2|3:2,0:0:0:0:
240,336,70219,2,0,L|248:264,1,55,8|8,0:0|0:0,0:0:0:0:
168,256,70441,2,0,L|32:256,1,110,10|8,0:0|3:2,0:0:0:0:
48,192,70774,1,8,0:0:0:0:
104,144,70885,1,8,0:0:0:0:
184,136,70997,1,8,0:0:0:0:
408,240,71108,6,0,L|416:120,1,110,4|2,3:2|3:2,0:0:0:0:
296,88,71441,2,0,L|144:88,1,110,2|8,0:0|0:0,0:0:0:0:
176,32,71774,1,2,0:0:0:0:
376,344,71997,1,2,3:2:0:0:
176,336,72219,2,0,L|168:224,1,110,2|10,0:0|0:0,0:0:0:0:
248,216,72552,1,8,0:0:0:0:
368,216,72663,2,0,L|376:160,1,55,10|8,0:0|0:0,0:0:0:0:
168,160,72885,6,0,L|48:160,1,110,4|0,3:2|0:0,0:0:0:0:
176,128,73219,2,0,L|176:8,1,110,2|0,0:0|0:0,0:0:0:0:
304,40,73552,2,0,L|432:40,1,110,8|0,0:0|3:2,0:0:0:0:
424,96,73885,1,0,0:0:0:0:
288,248,73997,2,0,L|168:248,1,110,10|8,0:0|3:2,0:0:0:0:
368,192,74441,1,8,0:0:0:0:
440,192,74552,1,8,0:0:0:0:
240,184,74663,5,4,3:2:0:0:
360,120,74885,1,2,0:0:0:0:
256,120,74997,1,2,0:0:0:0:
88,120,75330,1,10,0:0:0:0:
280,56,75552,2,0,L|440:56,1,110,2|8,3:2|0:0,0:0:0:0:
264,256,75885,2,0,L|120:256,1,110,2|8,0:0|0:0,0:0:0:0:
104,256,76219,1,8,0:0:0:0:
176,192,76330,1,8,0:0:0:0:
376,184,76441,6,0,L|200:184,1,165,2|2,3:2|3:2,0:0:0:0:
432,184,77108,2,0,L|432:48,1,110,2|0,0:0|3:0,0:0:0:0:
240,72,77552,2,0,L|96:72,1,110,8|8,3:2|3:2,0:0:0:0:
320,72,77997,2,0,L|328:16,1,55,8|8,0:0|0:0,0:0:0:0:
128,168,78219,6,0,L|-16:168,3,110,4|0|0|0,3:2|3:0|3:0|3:0,0:0:0:0:
320,168,79108,2,0,L|328:56,1,110,2|0,0:0|3:0,0:0:0:0:
128,328,79552,2,0,L|128:200,1,110,0|0,3:2|3:2,0:0:0:0:
432,144,79997,6,0,P|496:80|392:0,1,220,12|2,3:2|0:0,0:0:0:0:
232,32,80663,2,0,L|232:88,1,55,0|0,0:0|0:0,0:0:0:0:
440,296,80885,1,0,0:0:0:0:
328,296,81108,2,0,L|328:176,1,110,2|0,0:0|0:0,0:0:0:0:
128,176,81552,5,2,0:0:0:0:
256,192,81774,12,0,85219,0:0:0:0:
