osu file format v14

[General]
AudioFilename: audio.mp3
AudioLeadIn: 0
PreviewTime: 32883
Countdown: 0
SampleSet: None
StackLeniency: 0.2
Mode: 0
LetterboxInBreaks: 0
WidescreenStoryboard: 0

[Editor]
DistanceSpacing: 0.9
BeatDivisor: 4
GridSize: 16
TimelineZoom: 1.5

[Metadata]
Title:katharsis (TV Edit)
TitleUnicode:katharsis (TV Edit)
Artist:TK from Ling tosite sigure
ArtistUnicode:TK from Ling tosite sigure
Creator:FoxyGrandpa
Version:Immortal Original
Source:
Tags:Tokyo Ghoul Re
BeatmapID:1802907
BeatmapSetID:861856

[Difficulty]
HPDrainRate:6
CircleSize:3.3
OverallDifficulty:9
ApproachRate:9.6
SliderMultiplier:2.2
SliderTickRate:1

[Events]
//Background and Video events
0,0,"ken-kaneki-tokyo-ghoul-art.jpg",0,0
//Break Periods
//Storyboard Layer 0 (Background)
//Storyboard Layer 1 (Fail)
//Storyboard Layer 2 (Pass)
//Storyboard Layer 3 (Foreground)
//Storyboard Sound Samples

[TimingPoints]
490,416.666666666667,4,3,1,70,1,0
490,-200,4,3,1,70,0,0
8655,416.666666666667,4,3,1,70,1,0
8655,-200,4,3,1,70,0,0
10490,416.666666666667,4,3,1,70,1,0
12156,454.545454545455,4,3,1,70,1,0
12156,-200,4,3,1,70,0,0
12837,397.350993377483,4,3,1,70,1,0
13234,392.156862745098,4,3,1,70,1,0
13234,-200,4,3,1,70,0,0
13822,416.666666666667,4,3,1,70,1,0
13822,-200,4,3,1,70,0,0
15327,416.666666666667,4,3,1,70,1,0
15327,-200,4,3,1,70,0,0
17155,416.666666666667,4,3,1,70,1,0
18613,-200,4,3,1,70,0,0
19863,-400,4,3,1,70,0,0
20488,416.666666666667,4,3,1,70,1,0
20488,-133.333333333333,4,3,1,70,0,0
27154,-100,4,3,1,70,0,0
32154,-100,4,3,1,70,0,0
32258,-100,4,3,1,5,0,0
32363,-100,4,3,1,70,0,0
32467,-100,4,3,1,5,0,0
32571,-100,4,3,1,70,0,0
32675,-100,4,3,1,5,0,0
32779,-100,4,3,1,70,0,0
32883,-100,4,3,1,5,0,0
32988,-100,4,3,1,70,0,0
33196,-400,4,3,1,70,0,0
33821,-50,4,3,1,70,0,0
34654,-153.846153846154,4,3,1,70,0,0
34967,-153.846153846154,4,3,1,5,0,0
35071,-153.846153846154,4,3,1,70,0,0
35488,-50,4,3,1,70,0,0
38821,-33.3333333333333,4,3,1,70,0,0
40488,-133.333333333333,4,3,1,70,0,0
47154,-100,4,3,1,70,0,0
50488,-80,4,3,1,70,0,0
52345,416.666666666667,4,3,1,70,1,0
53178,-25,4,3,1,70,0,0
53821,416.666666666667,4,3,1,70,1,0
53821,-50,4,3,1,70,0,0
54654,-333.333333333333,4,3,1,70,0,0
55487,-50,4,3,1,70,0,0
56112,-222.222222222222,4,3,1,70,0,0
57154,-44.4444444444445,4,3,1,70,0,0
57987,-133.333333333333,4,3,1,70,0,0
60487,-40,4,3,1,70,0,1
66321,-33.3333333333333,4,3,1,70,0,1
67154,-66.6666666666667,4,3,1,70,0,0
67779,-200,4,3,1,70,0,0
68821,-66.6666666666667,4,3,1,70,0,0
69446,-200,4,3,1,70,0,0
70487,-66.6666666666667,4,3,1,70,0,0
71112,-200,4,3,1,70,0,0
72154,-200,4,3,1,70,0,1
73404,-400,4,3,1,70,0,0
73768,-400,4,3,1,5,0,0
73821,-36.3636363636364,4,3,1,70,0,1
79446,-33.3333333333333,4,3,1,70,0,1
80071,-30.7692307692308,4,3,1,70,0,0
80487,-33.3333333333333,4,3,1,70,0,1
82987,-25,4,3,1,70,0,1
83300,-33.3333333333333,4,3,1,70,0,1
83612,-50,4,3,1,70,0,1
83821,-33.3333333333333,4,3,1,70,0,1
85487,-200,4,3,1,70,0,0
86321,-36.3636363636364,4,3,1,70,0,1
87154,-25,4,3,1,70,0,1
87466,-28.5714285714286,4,3,1,70,0,1
87779,-33.3333333333333,4,3,1,70,0,1
87987,-40,4,3,1,70,0,1
88300,-50,4,3,1,70,0,1
88612,-66.6666666666667,4,3,1,70,0,1
88821,-36.3636363636364,4,3,1,70,0,0

[Colours]
Combo1 : 192,192,192
Combo2 : 255,128,128
Combo3 : 255,60,60
Combo4 : 128,0,0

[HitObjects]
71,91,490,5,0,0:0:0:0:
71,91,1531,2,0,P|129:93|174:128,1,110
169,122,2156,1,0,0:0:0:0:
441,91,3823,5,0,0:0:0:0:
441,91,4864,2,0,P|383:93|338:128,1,110
343,122,5489,1,0,0:0:0:0:
343,122,6531,1,0,0:0:0:0:
152,341,7156,5,0,0:0:0:0:
152,341,7365,1,0,0:0:0:0:
168,318,7573,1,0,0:0:0:0:
148,278,7781,1,0,0:0:0:0:
203,254,7990,1,0,0:0:0:0:
162,185,8198,1,0,0:0:0:0:
227,140,8406,1,0,0:0:0:0:
169,63,8655,6,0,P|240:48|287:67,2,110
169,63,10490,5,0,0:0:0:0:
169,63,10698,1,0,0:0:0:0:
173,73,10906,1,0,0:0:0:0:
183,92,11115,1,0,0:0:0:0:
210,109,11323,1,0,0:0:0:0:
253,110,11531,1,0,0:0:0:0:
302,85,11740,1,0,0:0:0:0:
330,25,11948,1,0,0:0:0:0:
391,95,12156,6,0,P|378:134|391:178,2,82.5
391,94,13234,2,0,B|344:112|344:112|284:96,1,110
286,96,13822,5,0,0:0:0:0:
286,96,14030,2,0,L|289:173,1,55
395,198,14447,1,0,0:0:0:0:
307,285,14655,2,0,P|346:289|377:314,1,55
307,286,15072,1,0,0:0:0:0:
307,286,15327,6,0,P|262:287|216:339,2,110
307,286,17155,5,0,0:0:0:0:
307,286,17363,1,0,0:0:0:0:
209,298,17571,1,0,0:0:0:0:
325,208,17780,1,0,0:0:0:0:
325,208,18196,1,0,0:0:0:0:
423,220,18404,1,0,0:0:0:0:
307,130,18613,6,0,P|303:104|310:71,1,55
321,71,19030,1,0,0:0:0:0:
321,71,19863,1,0,0:0:0:0:
308,75,20071,6,0,P|303:102|307:128,1,41.25
375,175,20488,6,0,L|305:260,1,82.5000031471254
376,185,20904,2,0,L|298:264,1,82.5000031471254
376,195,21321,2,0,L|292:267,1,82.5000031471254
375,205,21737,2,0,L|284:270,1,82.5000031471254
134,235,22154,6,0,P|184:253|203:281,1,82.5000031471254
219,199,22571,2,0,P|198:234|200:274,1,82.5000031471254
146,218,22988,2,0,P|189:248|200:280,1,82.5000031471254,0|0,3:0|3:0,3:0:0:0:
141,365,23404,1,0,0:0:0:0:
141,365,23613,6,0,P|97:334|86:302,1,82.5000031471254,0|0,3:0|3:0,3:0:0:0:
33,252,24029,2,0,P|76:282|87:314,1,82.5000031471254,0|0,3:0|3:0,3:0:0:0:
124,377,24446,6,0,P|90:336|87:302,1,82.5000031471254,0|0,3:0|3:0,3:0:0:0:
49,239,24862,2,0,P|83:280|86:314,1,82.5000031471254,0|0,3:0|3:0,3:0:0:0:
57,137,25279,5,0,0:0:0:0:
184,178,25488,1,0,0:0:0:0:
44,116,25696,1,0,0:0:0:0:
193,152,25904,6,0,P|224:202|231:237,1,82.5000031471254
217,151,26321,2,0,P|234:207|231:242,1,82.5000031471254
241,156,26738,2,0,P|242:214|231:248,1,82.5000031471254
87,237,27154,5,0,0:0:0:0:
124,68,27363,1,0,0:0:0:0:
124,68,27571,2,0,L|256:53,1,110
109,146,27988,2,0,L|-23:161,1,110
188,206,28404,1,0,0:0:0:0:
233,55,28613,1,0,0:0:0:0:
233,55,28717,1,0,0:0:0:0:
233,55,28821,6,0,P|279:108|289:162,1,110
233,329,29238,2,0,P|279:276|289:222,1,110
313,42,29654,2,0,P|308:112|276:157,1,110
313,342,30071,2,0,P|308:271|276:226,1,110
209,189,30383,1,0,0:0:0:0:
368,192,30488,6,0,P|417:143|431:92,1,110
368,192,30904,2,0,P|417:241|431:292,1,110
429,105,31321,2,0,P|429:35|402:-10,1,110
429,278,31738,2,0,P|429:347|402:393,1,110
331,55,32154,6,0,P|320:50|329:74,1,55
331,329,32363,2,0,P|320:334|329:310,1,55
223,103,32571,6,0,P|245:136|263:148,1,55
223,281,32779,2,0,P|245:248|263:236,1,55
143,130,32988,5,0,0:0:0:0:
143,254,33092,1,0,0:0:0:0:
48,170,33196,6,0,B|41:141|41:141|43:146|43:146|48:126|48:126|44:109,1,68.75
102,25,33821,6,0,B|140:67|142:129|142:129|155:61|201:45,1,220
309,103,34133,2,0,P|220:146|285:221,1,220
409,139,34446,2,0,P|404:79|370:19,1,110
276,220,34654,2,0,P|281:280|315:340,1,107.249995090485
195,352,35071,5,0,0:0:0:0:
140,275,35175,1,0,0:0:0:0:
177,192,35279,1,0,0:0:0:0:
146,183,35383,1,0,0:0:0:0:
136,193,35488,6,0,B|187:156|233:181|233:181|257:137|257:137|227:119|186:134,1,220
62,24,35800,2,0,B|156:100|172:7|291:68,1,220
409,139,36113,2,0,B|409:67|409:67|392:106,1,110
222,271,36321,5,0,0:0:0:0:
320,319,36425,1,0,0:0:0:0:
422,279,36529,1,0,0:0:0:0:
324,227,36633,1,0,0:0:0:0:
211,280,36738,5,0,0:0:0:0:
309,328,36842,1,0,0:0:0:0:
341,283,36946,1,0,0:0:0:0:
313,236,37050,1,0,0:0:0:0:
306,243,37154,6,0,B|324:296|408:306|441:235|441:235|425:184,1,220
281,0,37467,2,0,B|316:93|316:93|314:73|314:73|349:170,1,220
168,157,37779,2,0,B|145:144|136:119|136:119|130:118|130:118|134:114|134:114|134:101|144:63,1,110
0,273,37988,6,0,B|103:283|103:283|139:312|139:312|218:318,1,220
348,167,38300,2,0,B|277:172|277:172|241:201|241:201|138:211,1,220
38,45,38613,2,0,B|73:47|73:47|91:62|91:62|142:67,1,110
284,231,38821,6,0,P|429:183|322:89,1,330.000012588501
138,211,39133,2,0,P|107:360|241:314,1,330.000012588501
228,94,39446,2,0,P|113:-7|86:132,1,330.000012588501
253,221,39863,5,0,0:0:0:0:
284,231,40071,1,0,0:0:0:0:
263,205,40279,1,0,0:0:0:0:
234,338,40488,5,0,0:0:0:0:
234,338,40696,1,0,0:0:0:0:
234,338,40904,2,0,P|193:339|156:321,1,82.5000031471254
182,177,41321,1,0,0:0:0:0:
205,252,41529,1,0,0:0:0:0:
69,303,41738,1,0,0:0:0:0:
122,244,41946,1,0,0:0:0:0:
138,110,42154,6,0,P|167:138|181:176,1,82.5000031471254
217,106,42467,2,0,P|177:117|137:109,1,82.5000031471254
181,176,42779,2,0,P|190:136|217:105,1,82.5000031471254
217,105,43821,5,0,0:0:0:0:
217,105,44029,1,0,0:0:0:0:
260,179,44238,2,0,P|293:145|302:109,1,82.5000031471254
181,176,44654,2,0,P|193:221|220:247,2,82.5000031471254
217,105,45279,1,0,0:0:0:0:
217,105,45488,6,0,P|190:135|180:175,1,82.5000031471254
137,109,45800,2,0,P|177:116|216:105,1,82.5000031471254
181,176,46113,2,0,P|167:137|137:109,1,82.5000031471254
82,188,47154,5,0,0:0:0:0:
82,188,47363,1,0,0:0:0:0:
33,109,47571,2,0,P|85:93|137:108,1,110
130,266,47988,2,0,P|77:281|25:266,1,110
26,267,48404,1,0,0:0:0:0:
279,282,48613,5,0,0:0:0:0:
282,285,48717,1,0,0:0:0:0:
286,289,48821,1,0,0:0:0:0:
406,243,49029,5,0,0:0:0:0:
397,253,49133,1,0,0:0:0:0:
388,264,49237,1,0,0:0:0:0:
216,178,49446,5,0,0:0:0:0:
229,193,49550,1,0,0:0:0:0:
243,209,49654,1,0,0:0:0:0:
420,100,49863,5,0,0:0:0:0:
360,126,49967,1,0,0:0:0:0:
340,187,50071,1,0,0:0:0:0:
503,138,50279,1,0,0:0:0:0:
261,44,50488,1,0,0:0:0:0:
93,216,50696,5,0,0:0:0:0:
77,83,50904,1,0,0:0:0:0:
280,162,51113,2,0,P|226:206|209:280,1,137.5
281,384,51529,5,0,0:0:0:0:
333,341,51633,1,0,0:0:0:0:
352,276,51737,1,0,0:0:0:0:
280,162,51946,1,0,0:0:0:0:
227,204,52050,1,0,0:0:0:0:
208,269,52154,1,0,0:0:0:0:
443,254,52345,5,0,0:0:0:0:
415,142,52449,1,0,0:0:0:0:
334,60,52553,1,0,0:0:0:0:
222,31,52657,1,0,0:0:0:0:
112,63,52761,1,0,0:0:0:0:
112,63,53178,6,0,B|130:80|130:80|127:110|127:110|151:125|151:125|159:156,1,110
443,254,53386,2,0,B|425:271|425:271|428:301|428:301|404:316|404:316|396:347,1,110
397,341,53595,5,0,0:0:0:0:
238,305,53821,6,0,B|255:307|282:365|282:365|280:324|280:324|294:289|294:289|277:259|277:220,1,220
157,150,54133,2,0,B|74:167|60:277|161:265|202:216,1,220
346,136,54446,2,0,P|283:97|241:116,1,110
379,239,54654,6,0,B|408:226|425:226|425:226|437:220|451:182,1,98.9999969787599
377,19,55487,6,0,B|397:28|425:28|425:28|381:72|332:5|256:34,1,220
96,140,55800,2,0,B|51:128|72:43|72:43|153:59|152:104,1,220
234,223,56112,6,0,B|220:246|198:253|198:253|184:297|184:297|148:271|148:271|122:279|90:263,1,197.99999395752
312,276,57154,6,0,B|344:221|312:165|312:165|320:155|320:155|307:159|307:159|270:112|213:125,1,247.500009441376
238,321,57466,2,0,B|260:376|365:373|415:334|415:334|408:277,1,247.500009441376
434,81,57779,2,0,B|436:121|436:121|462:152|462:152|461:208,1,123.750004720688
320,155,57987,6,0,B|304:129|315:93|315:93|292:84|292:84|312:42|290:-6,1,165.000006294251
295,11,58821,5,0,0:0:0:0:
282,21,59237,5,0,0:0:0:0:
247,56,59654,5,0,0:0:0:0:
224,135,60071,5,0,0:0:0:0:
297,216,60487,6,0,P|226:225|181:281,1,137.5
375,263,60696,1,0,0:0:0:0:
303,332,60800,1,0,0:0:0:0:
204,359,60904,2,0,P|133:350|88:294,1,137.5
104,149,61112,5,0,0:0:0:0:
146,67,61216,1,0,0:0:0:0:
243,64,61320,1,0,0:0:0:0:
279,120,61424,1,0,0:0:0:0:
343,141,61528,1,0,0:0:0:0:
405,115,61632,1,0,0:0:0:0:
437,55,61737,5,0,0:0:0:0:
339,73,61841,1,0,0:0:0:0:
292,161,61945,1,0,0:0:0:0:
333,252,62049,1,0,0:0:0:0:
430,275,62154,6,0,P|342:241|296:265,1,137.5
105,271,62362,1,0,0:0:0:0:
148,200,62466,1,0,0:0:0:0:
130,118,62571,2,0,P|107:74|147:-2,1,137.5
258,344,62779,5,0,0:0:0:0:
215,273,62883,1,0,0:0:0:0:
233,191,62988,1,0,0:0:0:0:
271,138,63092,1,0,0:0:0:0:
335,148,63196,1,0,0:0:0:0:
354,211,63300,1,0,0:0:0:0:
307,255,63404,5,0,0:0:0:0:
263,166,63508,1,0,0:0:0:0:
306,76,63612,1,0,0:0:0:0:
403,54,63716,1,0,0:0:0:0:
480,117,63821,6,0,P|404:130|335:117,1,137.5
210,50,64029,1,0,0:0:0:0:
131,105,64133,1,0,0:0:0:0:
148,200,64237,2,0,P|156:130|114:75,1,137.5
64,211,64446,5,0,0:0:0:0:
121,290,64550,1,0,0:0:0:0:
215,273,64654,1,0,0:0:0:0:
257,220,64758,1,0,0:0:0:0:
322,213,64862,1,0,0:0:0:0:
375,257,64966,1,0,0:0:0:0:
380,323,65071,6,0,P|312:328|253:279,1,137.5
306,76,65279,2,0,P|374:71|433:120,1,137.5
183,336,65487,6,0,P|163:265|209:203,1,137.5
503,63,65695,2,0,P|522:133|476:195,1,137.5
229,141,65904,1,0,0:0:0:0:
159,93,66008,1,0,0:0:0:0:
189,10,66112,1,0,0:0:0:0:
207,5,66216,1,0,0:0:0:0:
224,5,66321,6,0,B|220:45|221:45|244:56|243:56|214:72|214:72|207:122|206:124|159:123,1,165.000006294251
7,225,66529,1,0,0:0:0:0:
92,40,66633,1,0,0:0:0:0:
135,241,66737,2,0,B|181:249|181:249|182:292|182:292|212:308|172:316|192:359,1,165.000006294251
303,152,66946,2,0,B|332:130|332:76|332:76|361:60|362:60|339:49|338:49|342:9,1,165.000006294251
418,225,67154,6,0,P|464:284|435:390,1,165.000006294251
469,364,67466,2,0,P|482:284|434:219,1,165.000006294251
450,213,67779,2,0,P|498:278|485:358,1,165.000006294251
331,235,68821,6,0,P|359:165|465:137,1,165.000006294251
425,121,69133,2,0,P|349:149|316:223,1,165.000006294251
304,213,69446,2,0,P|336:138|412:110,1,165.000006294251
384,306,70487,6,0,P|309:316|232:238,1,165.000006294251
238,280,70799,2,0,P|300:331|381:322,1,165.000006294251
378,339,71112,2,0,P|297:348|234:296,1,165.000006294251
211,52,72154,5,0,0:0:0:0:
221,86,72258,1,0,0:0:0:0:
249,108,72362,1,0,0:0:0:0:
284,111,72466,1,0,0:0:0:0:
328,190,72571,5,0,0:0:0:0:
238,190,72675,1,0,0:0:0:0:
163,140,72779,1,0,0:0:0:0:
128,57,72883,1,0,0:0:0:0:
43,22,72987,5,0,0:0:0:0:
55,149,73091,1,0,0:0:0:0:
137,249,73195,1,0,0:0:0:0:
261,284,73299,1,0,0:0:0:0:
381,265,73404,6,0,P|364:252|383:243,1,48.125
439,166,73821,6,0,P|476:238|450:306,1,151.250001442432
289,259,74029,1,0,0:0:0:0:
382,243,74133,1,0,0:0:0:0:
324,349,74237,2,0,P|250:344|201:290,1,151.250001442432
291,163,74446,1,0,0:0:0:0:
289,259,74550,1,0,0:0:0:0:
208,124,74654,2,0,P|302:72|350:90,1,151.250001442432,0|0,0:0|0:0,3:0:0:0:
183,211,74862,1,0,0:0:0:0:
96,149,74966,1,0,0:0:0:0:
102,34,75071,6,0,B|173:54|173:54|213:134,1,151.250001442432
512,34,75279,2,0,B|441:54|441:54|401:134,1,151.250001442432
354,256,75487,5,0,0:0:0:0:
278,334,75591,1,0,0:0:0:0:
172,310,75695,1,0,0:0:0:0:
138,207,75799,1,0,0:0:0:0:
208,123,75904,5,0,0:0:0:0:
119,58,76008,1,0,0:0:0:0:
18,101,76112,1,0,0:0:0:0:
3,208,76216,1,0,0:0:0:0:
87,279,76321,6,0,P|158:293|219:238,1,151.250001442432
425,278,76529,2,0,P|353:292|296:246,1,151.250001442432
111,71,76737,2,0,P|98:107|138:207,1,151.250001442432
400,70,76946,2,0,P|412:143|374:206,1,151.250001442432
347,341,77154,6,0,P|386:278|373:206,1,151.250001442432
276,59,77362,1,0,0:0:0:0:
208,123,77466,1,0,0:0:0:0:
325,126,77570,2,0,P|361:49|322:-5,1,151.250001442432
111,71,77779,1,0,0:0:0:0:
208,123,77883,1,0,0:0:0:0:
167,8,77987,2,0,P|82:-10|37:41,1,151.250001442432
114,181,78195,1,0,0:0:0:0:
212,226,78299,1,0,0:0:0:0:
299,197,78404,6,0,B|318:151|318:151|274:57,1,151.250001442432
90,319,78612,2,0,B|71:273|71:273|114:179,1,151.250001442432
365,334,78821,5,0,0:0:0:0:
354,311,78925,1,0,0:0:0:0:
343,288,79029,1,0,0:0:0:0:
332,265,79133,1,0,0:0:0:0:
321,243,79237,1,0,0:0:0:0:
310,220,79341,1,0,0:0:0:0:
297,194,79446,6,0,B|284:213|284:213|301:229|301:229|250:247|269:276|269:276|252:305|263:330,1,165.000006294251
418,90,79654,6,0,B|414:116|414:116|401:78|401:78|346:38|324:129|314:77|314:77|247:82|247:82|207:98|207:98|203:111|203:111|154:116,1,330.000012588501
49,151,79966,1,0,0:0:0:0:
110,369,80071,6,0,B|77:396|88:251|171:350|146:166|146:166|122:256|48:276|48:276|127:190|241:298,1,536.250015342236
295,350,80487,6,0,P|421:158|219:74,1,495.000018882752
290,206,80904,2,0,B|336:186|336:186|406:173|406:173|435:131|435:131|372:157,2,220.000008392334
89,283,81321,6,0,P|70:156|0:262,1,330.000012588501
27,356,81633,2,0,L|125:14,1,330.000012588501
234,67,81946,2,0,B|206:60|206:60|250:41|250:41|302:70|302:70|334:71,1,165.000006294251
405,156,82154,6,0,B|460:95|584:188|490:387|147:272,1,495.000018882752
122,255,82571,6,0,B|96:245|96:245|112:232|111:231|110:196|136:220|136:220|132:257,1,110.000004196167
185,329,82709,2,0,B|189:356|189:356|170:349|169:350|139:368|147:334|147:334|181:319,1,110.000004196167
209,242,82848,2,0,B|230:224|230:224|233:244|235:244|266:261|232:271|232:271|202:249,1,110.000004196167
175,234,82987,6,0,B|212:193|316:241|330:311|237:318|237:318|298:211|355:219|355:219|296:314,1,440
337,323,83300,2,0,B|299:289|299:289|284:300|284:300|295:284|295:284|263:252|263:252|270:220|270:220|260:211|260:211|276:203|276:203|277:182|277:182|410:238|311:7,1,330.000012588501
349,110,83612,2,0,B|336:144|336:144|354:142|354:142|345:172|368:174|388:196,1,110
447,72,83821,6,0,B|340:9|264:81|264:81|216:130|103:134|28:93|68:3|167:15|147:61,1,495.000018882752
161,203,84237,2,0,B|192:264|152:341|152:341|133:313|133:313|140:258,2,220.000008392334
269,167,84654,5,0,0:0:0:0:
346,192,84758,1,0,0:0:0:0:
422,164,84862,1,0,0:0:0:0:
468,145,84966,5,0,0:0:0:0:
337,228,85070,1,0,0:0:0:0:
214,133,85174,1,0,0:0:0:0:
195,227,85279,5,0,0:0:0:0:
352,127,85383,1,0,0:0:0:0:
499,241,85487,1,0,0:0:0:0:
499,241,86321,5,0,0:0:0:0:
408,303,86425,1,0,0:0:0:0:
302,274,86529,1,0,0:0:0:0:
257,174,86633,1,0,0:0:0:0:
304,75,86737,5,0,0:0:0:0:
213,12,86841,1,0,0:0:0:0:
107,41,86945,1,0,0:0:0:0:
62,141,87049,1,0,0:0:0:0:
109,239,87154,6,0,B|183:222|183:222|217:291|133:333|133:333|161:288|237:338|237:338|262:263|250:219,1,440
264,138,87466,6,0,B|242:164|184:174|184:174|193:223|250:321|264:317|311:296|265:220|347:168,1,385.000003671646
426,163,87779,6,0,B|445:184|361:212|361:212|412:256|392:286,1,165.000006294251
455,278,87987,6,0,B|417:294|417:294|413:312|413:312|401:293|401:293|298:300|298:300|238:328|292:344|161:315,1,275
184,218,88300,6,0,B|138:222|138:222|119:275|165:358|165:358|172:320,1,220
223,136,88612,6,0,B|242:144|242:144|227:205,2,82.5000031471254
