osu file format v14

[General]
AudioFilename: audio.mp3
AudioLeadIn: 0
PreviewTime: 99808
Countdown: 0
SampleSet: Soft
StackLeniency: 0.5
Mode: 0
LetterboxInBreaks: 0
EpilepsyWarning: 1
WidescreenStoryboard: 1

[Editor]
Bookmarks: 1602,23538,45456,78396,100338,133253,143519,166167,188110,199081,221024,234738
DistanceSpacing: 1
BeatDivisor: 2
GridSize: 32
TimelineZoom: 1.2

[Metadata]
Title:haze
TitleUnicode:haze
Artist:TK from Ling tosite sigure
ArtistUnicode:TK from 凛として時雨
Creator:Ametrin
Version:Normal
Source:
Tags:flowering misure
BeatmapID:1264800
BeatmapSetID:568305

[Difficulty]
HPDrainRate:3
CircleSize:3
OverallDifficulty:3
ApproachRate:4
SliderMultiplier:0.899999999999999
SliderTickRate:1

[Events]
//Background and Video events
0,0,"BG.jpg",0,0
//Break Periods
2,78557,88001
2,100663,109235
//Storyboard Layer 0 (Background)
//Storyboard Layer 1 (Fail)
//Storyboard Layer 2 (Pass)
//Storyboard Layer 3 (Foreground)
Sprite,Foreground,Centre,"SB\highlight.png",320,240 M,0,133263,133757,423,97 F,0,133263,133757,1,0 C,0,133263,133757,0,204,255 P,0,133263,133757,A
Sprite,Foreground,Centre,"SB\highlight.png",320,240 M,0,135968,136488,263,329 F,0,135968,136488,1,0 C,0,135968,136488,255,51,0 P,0,135968,136488,A
Sprite,Foreground,Centre,"SB\highlight.png",320,240 M,0,138733,139245,295,220 F,0,138733,139245,1,0 C,0,138733,139245,61,119,255 P,0,138733,139245,A
Sprite,Foreground,Centre,"SB\highlight.png",320,240 M,0,141468,141980,513,268 F,0,141468,141980,1,0 C,0,141468,141980,255,179,0 P,0,141468,141980,A
Sprite,Foreground,Centre,"SB\highlight.png",320,240 M,0,144203,144718,337,114 F,0,144203,144718,1,0 C,0,144203,144718,255,51,0 P,0,144203,144718,A
Sprite,Foreground,Centre,"SB\highlight.png",320,240 M,0,146953,147469,561,310 F,0,146953,147469,1,0 C,0,146953,147469,61,119,255 P,0,146953,147469,A
Sprite,Foreground,Centre,"SB\highlight.png",320,240 M,0,149704,150215,115,426 F,0,149704,150215,1,0 C,0,149704,150215,255,179,0 P,0,149704,150215,A
Sprite,Foreground,Centre,"SB\highlight.png",320,240 M,0,152431,152942,237,220 F,0,152431,152942,1,0 C,0,152431,152942,0,204,255 P,0,152431,152942,A
Sprite,Foreground,Centre,"SB\highlight.png",320,240 M,0,155158,155672,190,199 F,0,155158,155672,1,0 C,0,155158,155672,255,51,0 P,0,155158,155672,A
Sprite,Foreground,Centre,"SB\highlight.png",320,240 M,0,157900,158415,396,406 F,0,157900,158415,1,0 C,0,157900,158415,61,119,255 P,0,157900,158415,A
Sprite,Foreground,Centre,"SB\highlight.png",320,240 M,0,160643,161158,573,221 F,0,160643,161158,1,0 C,0,160643,161158,0,204,255 P,0,160643,161158,A
Sprite,Foreground,Centre,"SB\highlight.png",320,240 M,0,163386,163909,455,281 F,0,163386,163909,1,0 C,0,163386,163909,255,51,0 P,0,163386,163909,A
Sprite,Foreground,Centre,"SB\ring.png",320,240 M,0,166191,166705,207,214 F,0,166191,166705,1,0 S,0,166191,166705,0.5,1.5 C,0,166191,166705,255,255,255 P,0,166191,166705,A
Sprite,Foreground,Centre,"SB\ring.png",320,240 M,0,166191,166705,207,214 F,0,166191,166705,1,0 S,0,166191,166705,0.5,1.5 C,0,166191,166705,255,255,255 P,0,166191,166705,A
Sprite,Foreground,Centre,"SB\ring.png",320,240 M,0,188086,188600,278,301 F,0,188086,188600,0.8,0 S,0,188086,188600,0.5,1.5 C,0,188086,188600,255,255,255 P,0,188086,188600,A
Sprite,Foreground,Centre,"SB\ring.png",320,240 M,0,188086,188600,278,301 F,0,188086,188600,0.8,0 S,0,188086,188600,0.5,1.5 C,0,188086,188600,255,255,255 P,0,188086,188600,A
Sprite,Foreground,Centre,"SB\ring.png",320,240 M,0,190828,191343,268,132 F,0,190828,191343,0.8,0 S,0,190828,191343,0.5,1.5 C,0,190828,191343,255,255,255 P,0,190828,191343,A
Sprite,Foreground,Centre,"SB\ring.png",320,240 M,0,193628,194142,321,380 F,0,193628,194142,0.8,0 S,0,193628,194142,0.5,1.5 C,0,193628,194142,255,255,255 P,0,193628,194142,A
//Storyboard Sound Samples

[TimingPoints]
1606,342.857142857143,4,2,1,20,1,0
1606,-100,4,2,1,20,0,0
12577,340.909090909091,4,2,1,30,1,0
12577,-100,4,2,1,30,0,0
12917,-100,4,2,11,30,0,0
13088,-100,4,2,1,30,0,0
15304,344.827586206897,4,2,1,30,1,0
15648,-100,4,2,11,30,0,0
15821,-100,4,2,1,30,0,0
18062,341.880341880342,4,2,1,30,1,0
18403,-100,4,2,11,30,0,0
18574,-100,4,2,1,30,0,0
21138,-100,4,2,11,30,0,0
21309,-100,4,2,1,30,0,0
23532,342.857142857143,4,2,1,30,1,0
26617,-100,4,2,11,20,0,0
26789,-100,4,2,1,30,0,0
28332,-100,4,2,10,30,0,0
28674,-100,4,2,1,30,0,0
32103,-100,4,2,11,20,0,0
32274,-100,4,2,1,30,0,0
33474,-100,4,2,11,30,0,0
33817,-100,4,2,10,30,0,0
34160,-100,4,2,1,30,0,0
37589,-100,4,2,11,20,0,0
37760,-100,4,2,1,30,0,0
38960,-100,4,2,11,30,0,0
39303,-100,4,2,10,30,0,0
39646,-100,4,2,1,30,0,0
43074,-100,4,2,11,20,0,0
43246,-100,4,2,1,30,0,0
45474,-100,4,2,1,40,0,0
45817,-100,4,2,11,40,0,0
45989,-100,4,2,1,40,0,0
48560,-100,4,2,11,40,0,0
48732,-100,4,2,1,40,0,0
51303,-100,4,2,11,40,0,0
51474,-100,4,2,1,40,0,0
54046,-100,4,2,11,40,0,0
54217,-100,4,2,1,40,0,0
56446,340.909090909091,4,2,1,30,1,0
56446,-100,4,2,1,30,0,0
59174,342.857142857143,4,2,1,30,1,0
59516,-100,4,2,11,20,0,0
59688,-100,4,2,1,30,0,0
61231,-100,4,2,10,30,0,0
61574,-100,4,2,1,30,0,0
61916,345.821325648415,4,2,1,30,1,0
64682,342.857142857143,4,2,1,30,1,0
65024,-100,4,2,11,20,0,0
65196,-100,4,2,1,30,0,0
67424,-100,4,2,1,40,0,0
67767,-100,4,2,11,30,0,0
67938,-100,4,2,1,40,0,0
70510,-100,4,2,11,30,0,0
70681,-100,4,2,1,40,0,0
73253,-100,4,2,11,30,0,0
73424,-100,4,2,1,40,0,0
77024,333.333333333333,4,2,1,40,1,0
77024,-100,4,2,1,40,0,0
78357,344.43168771527,4,2,1,40,1,0
89377,341.880341880342,4,2,1,40,1,0
89377,-100,4,2,1,40,0,0
92453,-100,4,2,10,40,0,0
92624,-100,4,2,1,40,0,0
95188,-100,4,2,10,40,0,0
95359,-100,4,2,1,40,0,0
97924,-100,4,2,10,40,0,0
98094,-100,4,2,1,40,0,0
98949,-100,4,2,10,40,0,0
99291,-100,4,2,10,50,0,0
99633,-100,4,2,10,60,0,0
99975,-100,4,2,10,70,0,0
100321,342.857142857143,4,2,1,20,1,0
100321,-100,4,2,1,20,0,0
111292,-100,4,2,1,40,0,0
113006,-100,4,2,10,40,0,0
113692,-100,4,2,1,40,0,0
116092,-100,4,2,10,40,0,0
116263,-100,4,2,1,40,0,0
118492,-100,4,2,10,40,0,0
119177,-100,4,2,1,40,0,0
119863,-100,4,2,1,45,0,0
120206,-100,4,2,1,50,0,0
120549,-100,4,2,1,55,0,0
120892,-100,4,2,1,60,0,0
121235,-100,4,2,1,65,0,0
121578,-100,4,2,1,70,0,0
121921,-100,4,2,1,80,0,0
122263,344.827586206897,4,2,1,30,1,0
122263,-100,4,2,1,30,0,0
127780,-100,4,2,1,30,0,0
130538,337.078651685393,4,2,1,40,1,0
130538,-100,4,2,1,40,0,0
131043,-100,4,2,1,50,0,0
131549,-100,4,2,1,60,0,0
132054,-100,4,2,1,70,0,0
132560,-100,4,2,1,5,0,0
133263,329.67032967033,4,2,1,60,1,0
133263,-100,4,2,1,60,0,0
134581,346.820809248555,4,2,1,60,1,0
138733,341.880341880342,4,2,1,60,1,0
144203,343.839541547278,4,2,1,70,1,1
144203,-100,4,2,1,70,0,1
144546,-100,4,2,10,70,0,1
144718,-100,4,2,1,70,0,1
147297,-100,4,2,10,70,0,1
147469,-100,4,2,1,70,0,1
149704,340.909090909091,4,2,1,70,1,1
150556,-100,4,2,10,70,0,1
150726,-100,4,2,1,70,0,1
152772,-100,4,2,10,70,0,1
152942,-100,4,2,1,70,0,1
155158,342.857142857143,4,2,1,70,1,1
155500,-100,4,2,10,70,0,1
155672,-100,4,2,1,70,0,1
158243,-100,4,2,10,70,0,1
158415,-100,4,2,1,70,0,1
159615,-100,4,2,10,70,0,1
160300,-100,4,2,1,70,0,1
160986,-100,4,2,10,70,0,1
161158,-100,4,2,1,70,0,1
162358,-100,4,2,10,70,0,1
162529,-100,4,2,1,70,0,1
163386,348.837209302326,4,2,1,50,1,1
163386,-100,4,2,1,50,0,1
163734,-100,4,2,1,55,0,1
164083,-100,4,2,1,60,0,1
164432,-100,4,2,1,65,0,1
164781,-100,4,2,1,70,0,1
165130,-100,4,2,1,75,0,1
165479,-100,4,2,1,80,0,1
166191,342.857142857143,4,2,1,60,1,0
166191,-100,4,2,1,60,0,0
166534,-100,4,2,11,60,0,0
166705,-100,4,2,1,60,0,0
167905,-100,4,2,11,60,0,0
168077,-100,4,2,1,60,0,0
169277,-100,4,2,11,60,0,0
169448,-100,4,2,1,60,0,0
170648,-100,4,2,11,60,0,0
170819,-100,4,2,1,60,0,0
172020,-100,4,2,11,60,0,0
172191,-100,4,2,1,60,0,0
173391,-100,4,2,11,60,0,0
173562,-100,4,2,1,60,0,0
174762,-100,4,2,11,60,0,0
174934,-100,4,2,1,60,0,0
177162,-100,4,2,1,70,0,1
185390,337.078651685393,4,2,1,70,1,1
188086,342.857142857143,4,2,1,40,1,0
188086,-100,4,2,1,40,0,0
193628,342.857142857143,4,2,1,20,1,0
196370,335.195530726257,4,2,1,40,1,0
196370,-100,4,2,1,40,0,0
198381,-100,4,2,1,40,0,0
199051,342.857142857143,4,2,1,60,1,0
199051,-100,4,2,1,60,0,0
204536,344.827586206897,4,2,1,50,1,0
210053,-100,4,2,1,70,0,1
215570,337.078651685393,4,2,1,70,1,1
218266,-100,4,2,1,70,0,1
218435,-100,4,2,11,70,0,1
219277,-100,4,2,1,70,0,1
219783,-100,4,2,11,70,0,1
220626,-100,4,2,1,70,0,1
220963,-100,4,2,1,70,0,0

[Colours]
Combo1 : 255,255,255
Combo2 : 255,51,0
Combo3 : 61,119,255
Combo4 : 255,179,0
Combo5 : 0,204,255

[HitObjects]
68,191,1606,54,0,L|45:57,2,135,2|2|2,0:0|0:0|0:0,0:0:0:0:
64,326,3148,2,0,P|122:295|188:305,1,135,2|2,0:0|0:0,0:0:0:0:
262,358,4006,1,2,0:0:0:0:
348,332,4348,22,0,P|367:264|342:200,1,135,2|2,0:0|0:0,0:0:0:0:
347,206,7091,6,0,B|311:217|282:216|282:216|254:195|214:192,2,135,2|2|2,0:0|0:0|0:0,0:0:0:0:
474,251,8634,2,0,P|457:173|459:109,1,135,2|2,0:0|0:0,0:0:0:0:
496,38,9491,1,2,0:0:0:0:
406,33,9834,6,0,B|380:25|361:9|361:9|361:58|338:98,1,135,2|2,0:0|0:0,0:0:0:0:
176,138,12063,6,0,L|176:198,1,45,0|0,1:0|1:0,0:0:0:0:
156,271,12577,22,0,P|217:263|297:283,1,135,8|8,0:1|0:1,0:0:0:0:
412,331,13599,1,8,0:0:0:0:
475,211,14111,1,8,0:1:0:0:
396,97,14622,2,0,P|353:106|322:138,1,89.9999999999999,8|8,0:1|0:0,0:0:0:0:
335,226,15304,6,0,P|260:226|188:219,1,135,8|8,0:1|0:1,0:0:0:0:
157,92,16338,2,0,P|191:38|271:41,1,135,8|8,0:0|0:1,0:0:0:0:
391,18,17372,1,8,0:1:0:0:
380,107,17717,1,8,0:0:0:0:
291,124,18062,6,0,P|309:206|310:268,1,135,8|8,0:1|0:1,0:0:0:0:
238,371,19087,1,8,0:0:0:0:
103,362,19600,1,8,0:1:0:0:
45,235,20113,2,0,P|88:246|141:244,1,89.9999999999999,8|8,0:1|0:0,0:0:0:0:
223,239,20797,6,0,L|194:90,1,135,8|8,0:0|0:1,0:0:0:0:
64,79,21822,2,0,L|93:228,1,135,8|8,0:0|0:1,0:0:0:0:
77,346,22848,1,8,0:0:0:0:
166,337,23190,1,8,0:0:0:0:
242,287,23532,22,0,B|267:295|290:293|290:293|305:286|332:285,2,89.9999999999999,8|0|8,0:1|1:0|0:1,0:0:0:0:
179,221,24560,1,8,0:0:0:0:
254,172,24903,2,0,P|278:116|286:31,1,135,8|8,0:1|0:1,0:0:0:0:
387,128,25932,1,8,0:0:0:0:
341,205,26274,6,0,B|379:224|425:210|425:210|474:248,2,135,8|8|8,0:1|0:1|0:0,0:0:0:0:
285,133,27646,2,0,B|234:100|183:140|113:103|113:103|109:164|74:197,1,270,8|8,0:1|0:0,0:0:0:0:
11,246,29017,6,0,P|31:291|33:349,2,89.9999999999999,0|0|8,0:0|1:0|0:1,0:0:0:0:
0,154,30046,1,8,0:0:0:0:
82,188,30389,2,0,P|143:166|211:216,1,135,8|8,0:1|0:1,0:0:0:0:
241,321,31417,1,0,0:0:0:0:
160,361,31760,6,0,P|72:346|22:351,2,135,8|8|8,0:1|0:1|0:0,0:0:0:0:
241,321,33132,2,0,B|311:305|415:350|415:350|457:310|426:251,1,270,8|8,0:1|0:0,0:0:0:0:
364,208,34503,22,0,B|324:184|259:199,2,89.9999999999999,8|0|0,0:1|1:0|0:0,0:0:0:0:
433,267,35532,1,8,0:0:0:0:
454,179,35874,2,0,L|486:32,1,135,8|8,0:1|0:1,0:0:0:0:
348,31,36903,1,8,0:0:0:0:
288,95,37246,6,0,B|253:88|224:92|224:92|183:85|146:50,2,135,8|8|8,0:1|0:1|0:0,0:0:0:0:
377,107,38617,2,0,B|417:131|462:120|462:120|454:233|512:302,1,270,8|8,0:1|0:0,0:0:0:0:
444,360,39989,6,0,P|399:347|342:351,2,89.9999999999999,8|0|8,0:1|1:0|0:1,0:0:0:0:
504,292,41017,1,8,0:0:0:0:
456,215,41360,2,0,P|427:180|326:163,1,135,8|8,0:1|0:1,0:0:0:0:
209,177,42389,1,8,0:0:0:0:
161,252,42732,6,0,B|126:274|86:266|86:266|73:306|80:339,2,135,8|8|8,0:1|0:1|0:0,0:0:0:0:
110,177,44103,1,8,0:1:0:0:
170,110,44446,1,4,0:0:0:0:
107,46,44789,2,4,L|45:39,2,45,4|4|4,3:3|3:3|3:3,3:3:0:0:
194,24,45474,22,0,B|259:8|259:8|334:28,1,135,12|8,0:1|0:1,0:0:0:0:
381,148,46503,2,0,B|446:164|446:164|521:144,1,135,8|8,0:0|1:0,0:0:0:0:
497,280,47532,1,8,0:0:0:0:
479,369,47874,1,8,0:0:0:0:
413,307,48217,6,0,P|358:290|289:327,1,135,8|8,0:0|0:1,0:0:0:0:
171,261,49246,2,0,L|156:155,1,89.9999999999999,8|8,0:0|0:1,0:0:0:0:
90,112,49932,1,8,0:0:0:0:
168,64,50274,2,0,P|219:90|234:140,1,89.9999999999999,8|8,0:0|0:0,0:0:0:0:
202,203,50960,6,0,P|272:200|317:144,1,135,8|8,0:0|0:1,0:0:0:0:
446,130,51989,2,0,P|424:59|424:-13,1,135,8|8,0:0|0:0,0:0:0:0:
301,57,53017,1,8,0:0:0:0:
211,67,53360,1,8,0:0:0:0:
124,53,53703,6,0,B|140:193,1,135,8|8,0:1|0:1,0:0:0:0:
263,239,54732,1,8,0:0:0:0:
227,321,55074,2,0,P|182:349|120:355,1,89.9999999999999,8|8,0:0|0:0,0:0:0:0:
62,321,55760,2,0,P|57:280|51:230,1,89.9999999999999,8|8,0:0|0:0,0:0:0:0:
121,171,56446,38,0,P|118:147|165:83,2,89.9999999999999,4|0|8,0:0|1:0|0:1,0:0:0:0:
169,249,57468,1,8,0:0:0:0:
258,262,57809,2,0,P|225:321|137:334,1,135,8|8,0:1|0:1,0:0:0:0:
34,301,58832,1,8,0:0:0:0:
87,228,59174,6,0,B|138:180|215:180,2,135,8|8|8,0:1|0:1|0:0,0:0:0:0:
17,168,60545,1,8,0:1:0:0:
78,102,60888,2,0,B|99:59|99:13|99:13|130:48|178:53,1,180,0|8,1:0|0:0,0:0:0:0:
250,100,61916,6,0,L|262:202,2,89.9999999999999,8|0|8,0:1|1:0|0:1,0:0:0:0:
313,33,62953,1,8,0:0:0:0:
372,100,63299,2,0,B|420:103|460:88|460:88|483:104|494:143,1,135,8|8,0:1|0:1,0:0:0:0:
409,233,64336,1,8,0:0:0:0:
321,200,64682,22,0,L|311:341,2,135,8|8|8,0:1|0:1|0:0,0:0:0:0:
257,135,66053,22,0,B|230:133|211:124|211:124|178:130|178:130|159:123|126:120,1,135,8|8,0:0|0:0,0:0:0:0:
46,153,66910,2,0,P|39:184|37:215,1,45,8|0,0:0|1:0,0:0:0:0:
114,243,67424,6,0,P|178:227|210:294,1,135,4|0,0:0|0:0,0:0:0:0:
91,337,68452,1,8,0:0:0:0:
26,274,68796,2,0,B|14:230|27:174,1,89.9999999999999,8|0,0:1|1:0,0:0:0:0:
42,143,69310,1,8,0:1:0:0:
173,172,69824,1,8,0:0:0:0:
221,95,70167,22,0,B|285:51|357:98,1,135,8|0,0:1|0:0,0:0:0:0:
473,142,71195,1,8,0:0:0:0:
402,197,71539,2,0,P|395:259|402:301,1,89.9999999999999,8|0,0:1|1:0,0:0:0:0:
482,317,72224,2,0,P|489:255|482:213,1,89.9999999999999,8|0,0:1|1:0,0:0:0:0:
473,142,72909,6,0,B|433:162|433:162|337:151,1,135,4|8,0:0|0:1,0:0:0:0:
233,72,73938,1,8,0:0:0:0:
152,112,74281,2,0,P|140:163|150:216,1,89.9999999999999,8|0,0:1|1:0,0:0:0:0:
166,239,74796,1,8,0:1:0:0:
269,325,75310,1,8,0:0:0:0:
331,260,75653,22,0,B|376:252|376:252|419:227,1,89.9999999999999,12|10,0:0|0:0,0:0:0:0:
428,140,76339,2,0,B|383:148|383:148|345:171,1,89.9999999999999,10|10,0:0|0:0,0:0:0:0:
255,194,77024,1,10,0:0:0:0:
181,142,77357,1,2,0:0:0:0:
96,173,77690,1,2,0:0:0:0:
86,262,78024,1,2,0:0:0:0:
158,310,78357,5,4,0:0:0:0:
349,166,89377,6,0,P|348:212|325:256,1,89.9999999999999,8|8,0:1|0:1,0:0:0:0:
261,193,90060,1,8,0:1:0:0:
271,53,90573,2,0,L|368:45,1,89.9999999999999,8|8,0:0|0:0,0:0:0:0:
494,25,91428,1,8,0:1:0:0:
483,114,91770,1,8,0:1:0:0:
501,200,92112,6,0,B|469:202|435:190|435:190|392:207|392:207|356:195|315:204,1,180,8|8,0:1|0:1,0:0:0:0:
192,184,93308,2,8,P|186:247|187:287,1,89.9999999999999
100,384,94163,1,8,0:1:0:0:
92,294,94505,1,8,0:1:0:0:
28,229,94847,22,0,B|79:217|105:182|105:182|150:167|194:185,1,180,4|8,0:0|0:1,0:0:0:0:
308,249,96043,2,8,P|326:198|319:157,1,89.9999999999999
262,41,96898,1,8,0:1:0:0:
172,48,97240,1,8,0:1:0:0:
109,114,97582,22,0,P|95:222|99:309,1,180,12|8,0:0|0:1,0:0:0:0:
209,367,98778,2,0,B|263:323|381:332|381:332|336:266|392:201|456:193|503:264,1,405,8|0,0:0|0:0,0:0:0:0:
259,220,110606,38,0,B|246:258|251:310,1,89.9999999999999,2|2,0:0|0:0,0:0:0:0:
336,341,111292,22,0,L|426:352,2,89.9999999999999,8|8|0,0:1|0:1|0:0,0:0:0:0:
251,309,112321,1,8,0:1:0:0:
184,367,112663,2,0,B|111:354|91:296|107:242|107:242|68:283|7:262,1,270,8|8,0:1|0:1,0:0:0:0:
44,184,114035,6,0,P|83:161|128:161,1,89.9999999999999,8|8,0:1|0:1,0:0:0:0:
192,222,114721,2,0,P|236:221|274:198,1,89.9999999999999,8|8,0:1|0:1,0:0:0:0:
314,121,115406,1,8,0:1:0:0:
401,110,115749,2,0,P|354:39|268:43,1,180,8|8,0:1|0:1,0:0:0:0:
214,115,116778,6,0,P|212:183|223:235,1,89.9999999999999,8|8,0:1|0:1,0:0:0:0:
279,267,117463,1,8,0:1:0:0:
367,248,117806,1,8,0:1:0:0:
439,303,118149,2,0,B|453:265|489:230|489:230|453:148|453:148|490:112|505:72,1,270,8|8,0:1|0:1,0:0:0:0:
414,61,119521,6,8,L|310:38,1,89.9999999999999,8|8,0:1|0:1,0:1:0:0:
243,4,120206,2,8,L|174:75,1,89.9999999999999,8|8,0:1|0:1,0:1:0:0:
90,71,120892,1,8,0:1:0:0:
117,156,121235,1,8,0:1:0:0:
74,235,121578,1,8,0:1:0:0:
113,315,121921,1,8,0:1:0:0:
197,356,122263,6,0,P|255:312|358:340,1,180,2|2,0:0|0:0,0:0:0:0:
374,156,123642,2,0,P|316:200|213:172,1,180,2|2,0:0|0:0,0:0:0:0:
40,144,125021,2,0,P|55:225|65:340,1,180,2|2,0:0|0:0,0:0:0:0:
235,258,126400,2,0,P|243:168|259:79,1,180,2|2,0:0|0:0,0:0:0:0:
96,1,127780,5,0,0:0:0:0:
12,160,128469,1,0,0:0:0:0:
170,245,129159,1,0,0:0:0:0:
255,86,129849,1,0,0:0:0:0:
256,192,130538,12,0,132560,0:0:0:0:
356,37,133263,38,0,L|361:146,1,89.9999999999999,4|8,0:0|0:1,0:0:0:0:
430,183,133922,2,0,L|413:275,1,89.9999999999999,8|8,0:1|0:1,0:0:0:0:
457,344,134581,2,0,B|414:318|414:318|316:323,1,135,0|0,1:0|1:0,0:0:0:0:
262,204,135621,1,0,1:0:0:0:
196,269,135968,22,0,P|88:258|22:180,1,180,8|8,0:1|0:1,0:0:0:0:
1,130,137008,1,0,0:0:0:0:
2,40,137355,2,0,P|60:10|143:12,1,135,0|0,1:0|1:0,0:0:0:0:
241,73,138396,1,0,1:0:0:0:
228,160,138733,6,0,L|207:309,2,135,8|12|8,0:0|0:0|0:0,0:0:0:0:
241,73,140100,2,0,P|290:36|367:51,1,135,0|0,1:0|1:0,0:0:0:0:
470,122,141126,1,8,0:0:0:0:
446,208,141468,6,0,P|380:215|319:258,1,135,4|0,0:0|1:0,0:0:0:0:
242,359,142493,1,8,0:0:0:0:
169,306,142835,6,0,B|156:264|156:264|181:204,1,89.9999999999999,8|8,0:0|0:0,0:0:0:0:
263,229,143519,2,0,B|276:187|276:187|251:127,1,89.9999999999999,8|8,0:0|0:0,0:0:0:0:
270,54,144203,22,0,P|195:57|129:26,2,135,12|8|8,0:0|0:0|0:0,0:0:0:0:
357,31,145578,2,0,P|410:13|464:19,1,89.9999999999999,0|8,1:0|0:1,0:0:0:0:
511,73,146266,1,8,0:0:0:0:
503,162,146609,1,8,0:1:0:0:
494,250,146953,6,0,P|386:267|370:287,1,135,4|8,0:0|0:0,0:0:0:0:
308,343,147813,2,0,P|275:338|251:329,1,45,8|8,0:1|0:0,0:0:0:0:
237,248,148329,1,8,0:1:0:0:
147,258,148672,1,8,0:0:0:0:
95,184,149016,2,0,P|61:229|60:277,1,89.9999999999999,8|8,0:1|0:1,0:0:0:0:
53,352,149704,5,4,0:0:0:0:
187,364,150215,2,0,P|221:359|329:376,1,135,8|8,0:0|0:0,0:0:0:0:
397,322,151067,2,0,P|411:271|404:215,1,89.9999999999999,8|8,0:1|0:1,0:0:0:0:
339,177,151749,1,8,0:1:0:0:
251,199,152090,1,8,0:1:0:0:
170,160,152431,6,0,P|150:107|190:31,2,135,12|8|8,0:0|0:0|0:0,0:0:0:0:
113,230,153794,2,4,L|121:283,2,45,4|4|4,0:3|0:3|0:3,0:3:0:0:
40,176,154476,2,4,L|29:116,2,45,4|4|4,0:3|0:3|0:3,0:3:0:0:
122,139,155158,22,0,B|163:158|195:163|195:163|239:151|270:153,2,135,12|8|8,0:0|0:0|0:0,0:0:0:0:
50,193,156529,2,0,P|34:244|42:282,1,89.9999999999999,0|8,1:0|0:1,0:0:0:0:
120,320,157215,1,8,0:1:0:0:
209,313,157558,1,8,0:1:0:0:
292,344,157900,6,0,P|352:294|357:224,1,135,4|8,0:0|0:0,0:0:0:0:
285,190,158758,2,0,P|255:183|228:164,1,45,8|8,0:0|0:0,0:0:0:0:
243,88,159272,6,0,B|293:70|309:31|309:31|364:68|425:14|481:81,1,270,8|8,0:0|0:1,0:0:0:0:
505,161,160643,6,0,P|474:204|475:302,2,135,8|8|8,0:0|0:0|0:0,0:0:0:0:
416,143,162015,2,0,P|349:152|267:124,2,135,8|8|8,0:0|0:0|0:0,0:0:0:0:
416,231,163386,22,8,P|392:279|387:331,1,89.9999999999999,8|8,0:0|0:1,0:1:0:0:
302,347,164083,1,8,0:1:0:0:
214,325,164432,1,8,0:1:0:0:
178,245,164781,2,8,P|139:266|95:275,1,89.9999999999999,8|8,0:1|0:1,0:1:0:0:
5,275,165479,1,12,0:0:0:0:
140,154,166191,38,0,P|137:86|122:20,1,135,12|8,0:0|0:1,0:0:0:0:
255,42,167219,1,8,0:0:0:0:
344,30,167562,2,0,P|418:49|428:117,1,135,8|8,0:1|0:1,0:0:0:0:
408,185,168419,2,0,P|421:223|432:245,1,45,8|8,0:1|0:0,0:0:0:0:
488,289,168933,22,0,P|447:315|357:283,1,135,8|8,0:1|0:1,0:0:0:0:
232,289,169962,1,8,0:0:0:0:
187,367,170305,2,0,P|95:350|78:293,1,135,8|8,0:1|0:1,0:0:0:0:
35,241,171162,2,0,P|46:211|55:171,1,45,8|0,0:1|1:0,0:0:0:0:
60,109,171676,6,0,P|121:113|186:52,1,135,4|8,0:0|0:1,0:0:0:0:
212,200,172705,1,8,0:0:0:0:
297,230,173048,2,0,P|388:244|451:268,1,135
455,172,173905,2,0,P|435:153|420:123,1,45,8|8,0:1|0:0,0:0:0:0:
433,45,174419,6,0,P|363:23|303:65,1,135,8|8,0:1|0:1,0:0:0:0:
178,36,175448,1,8,0:0:0:0:
90,69,175791,2,0,P|104:133|98:168,1,89.9999999999999,0|0,1:0|1:0,0:0:0:0:
61,237,176476,2,0,P|30:255|9:258,2,45,0|8|0,1:0|0:1|1:0,0:0:0:0:
147,263,177162,6,0,P|193:254|245:262,2,89.9999999999999,4|10|8,0:0|0:0|0:1,0:0:0:0:
83,326,178191,1,10,0:0:0:0:
21,256,178533,2,0,P|11:205|19:149,1,89.9999999999999,8|10,0:1|0:0,0:0:0:0:
32,79,179219,2,0,L|-5:40,2,45,8|8|10,0:1|0:1|0:0,0:0:0:0:
119,110,179905,22,0,B|156:136|221:131,1,89.9999999999999,8|10,0:1|0:0,0:0:0:0:
251,54,180591,1,8,0:1:0:0:
338,32,180933,1,10,0:0:0:0:
426,41,181276,2,0,P|420:115|420:145,1,89.9999999999999,8|10,0:1|0:0,0:0:0:0:
346,183,181962,2,0,L|355:240,2,45,8|8|10,0:1|0:1|0:0,0:0:0:0:
269,134,182648,6,0,P|206:149|171:152,1,89.9999999999999,4|10,0:0|0:0,0:0:0:0:
97,184,183333,1,8,0:1:0:0:
76,271,183676,1,10,0:0:0:0:
112,351,184019,2,0,P|159:346|204:313,1,89.9999999999999,8|10,0:1|0:0,0:0:0:0:
276,360,184705,2,0,P|312:361|341:366,2,45,8|8|10,0:1|0:1|0:0,0:0:0:0:
312,275,185391,6,0,L|325:170,1,89.9999999999999,8|0,0:1|1:0,0:0:0:0:
278,107,186064,2,0,P|234:93|175:93,1,89.9999999999999,0|0,0:0|1:0,0:0:0:0:
124,152,186738,2,0,L|100:267,1,89.9999999999999,0|0,0:0|1:0,0:0:0:0:
149,318,187412,2,0,P|200:334|257:333,1,89.9999999999999,0|0,0:0|1:0,0:0:0:0:
211,241,188086,21,4,0:0:0:0:
200,72,190828,1,2,0:0:0:0:
261,308,193628,2,0,B|314:310|348:281|348:281|373:304|392:302,1,135,2|0,0:0|0:0,0:0:0:0:
362,242,196370,2,0,P|417:244|460:172,1,135,2|2,0:0|0:0,0:0:0:0:
391,67,197375,2,0,P|336:65|291:137,1,135,2|2,0:0|0:0,0:0:0:0:
202,226,198381,2,0,B|171:229|171:229|149:251|149:251|116:257,1,89.9999999999999
34,247,199051,6,0,P|37:195|26:103,2,135,8|8|8,0:0|0:0|0:0,0:0:0:0:
114,288,200422,2,0,P|156:269|200:238,1,89.9999999999999,8|8,0:1|0:0,0:0:0:0:
261,186,201108,1,8,0:1:0:0:
351,184,201451,1,8,0:0:0:0:
423,236,201793,6,0,P|403:295|401:377,2,135,8|8|8,0:0|0:0|0:0,0:0:0:0:
487,172,203165,2,0,P|454:141|411:131,1,89.9999999999999,0|8,0:0|0:0,0:0:0:0:
358,57,203851,1,8,0:1:0:0:
279,100,204193,1,8,0:0:0:0:
274,187,204536,6,0,B|269:219|267:260|267:260|288:290|292:332,2,135,4|8|8,0:1|0:0|0:0,0:1:0:0:
199,136,205915,2,0,P|154:139|105:193,1,89.9999999999999,8|8,0:1|0:0,0:1:0:0:
188,225,206604,1,8,0:1:0:0:
118,287,206949,1,8,0:0:0:0:
149,372,207294,6,0,P|188:359|252:364,2,89.9999999999999,8|8|8,0:1|0:0|0:0,0:1:0:0:
118,287,208329,2,0,P|79:300|15:295,2,89.9999999999999,8|8|8,0:1|0:0|0:0,0:1:0:0:
161,208,209363,1,8,0:1:0:0:
235,156,209708,1,8,0:0:0:0:
323,170,210053,22,0,L|318:275,1,89.9999999999999,4|8,0:0|0:0,0:0:0:0:
316,304,210570,1,8,0:1:0:0:
196,367,211087,1,8,0:0:0:0:
106,375,211432,2,0,P|61:343|56:294,1,89.9999999999999,8|8,0:1|0:0,0:0:0:0:
66,222,212122,2,0,P|54:193|37:172,2,45,8|8|8,0:1|0:1|0:0,0:0:0:0:
152,245,212811,6,0,L|261:233,1,89.9999999999999,8|8,0:1|0:0,0:0:0:0:
286,230,213329,1,8,0:1:0:0:
403,293,213846,1,8,0:0:0:0:
480,241,214191,2,0,P|493:189|486:133,1,89.9999999999999,8|8,0:1|0:0,0:0:0:0:
406,121,214880,2,0,P|377:129|346:127,2,45,8|8|8,0:1|0:1|0:0,0:0:0:0:
366,37,215570,6,0,P|310:29|269:48,1,89.9999999999999,8|8,0:1|0:0,0:0:0:0:
246,70,216075,1,8,0:1:0:0:
234,204,216581,1,8,0:0:0:0:
166,272,216918,2,0,L|171:336,2,45,8|8|8,0:1|0:1|0:0,0:0:0:0:
87,227,217592,2,0,L|78:167,2,45,8|8|8,0:1|0:1|0:0,0:0:0:0:
165,182,218266,6,0,B|230:157|270:192|270:192|271:140|303:104|344:95|382:112,1,270,8|8,0:0|0:0,0:0:0:0:
454,152,219614,2,0,B|496:202|479:254|479:254|467:280|473:321|473:321|425:307|378:338,1,270,8|8,0:0|0:0,0:0:0:0:
307,287,220963,5,4,0:0:0:0:
