osu file format v14

[General]
AudioFilename: audio.mp3
AudioLeadIn: 0
PreviewTime: 99808
Countdown: 0
SampleSet: Soft
StackLeniency: 0.5
Mode: 0
LetterboxInBreaks: 0
EpilepsyWarning: 1
WidescreenStoryboard: 1

[Editor]
DistanceSpacing: 1.4
BeatDivisor: 4
GridSize: 4
TimelineZoom: 1.8

[Metadata]
Title:haze
TitleUnicode:haze
Artist:TK from Ling tosite sigure
ArtistUnicode:TK from 凛として時雨
Creator:Ametrin
Version:Misure's Insane
Source:
Tags:flowering misure
BeatmapID:1301298
BeatmapSetID:568305

[Difficulty]
HPDrainRate:6
CircleSize:4
OverallDifficulty:7.5
ApproachRate:9
SliderMultiplier:1.6
SliderTickRate:1

[Events]
//Background and Video events
0,0,"BG.jpg",0,0
//Break Periods
2,5062,6492
2,10549,11463
2,78557,87401
2,100521,110007
2,122463,127180
2,188286,195770
//Storyboard Layer 0 (Background)
//Storyboard Layer 1 (Fail)
//Storyboard Layer 2 (Pass)
//Storyboard Layer 3 (Foreground)
Sprite,Foreground,Centre,"SB\highlight.png",320,240 M,0,133263,133757,267,144 F,0,133263,133757,1,0 C,0,133263,133757,0,204,255 P,0,133263,133757,A
Sprite,Foreground,Centre,"SB\highlight.png",320,240 M,0,135968,136488,407,396 F,0,135968,136488,1,0 C,0,135968,136488,61,119,255 P,0,135968,136488,A
Sprite,Foreground,Centre,"SB\highlight.png",320,240 M,0,138733,139245,572,361 F,0,138733,139245,1,0 C,0,138733,139245,0,204,255 P,0,138733,139245,A
Sprite,Foreground,Centre,"SB\highlight.png",320,240 M,0,139245,139758,320,335 F,0,139245,139758,1,0 C,0,139245,139758,0,204,255 P,0,139245,139758,A
Sprite,Foreground,Centre,"SB\highlight.png",320,240 M,0,141468,141980,107,156 F,0,141468,141980,1,0 C,0,141468,141980,61,119,255 P,0,141468,141980,A
Sprite,Foreground,Centre,"SB\highlight.png",320,240 M,0,144203,144718,508,328 F,0,144203,144718,1,0 C,0,144203,144718,0,204,255 P,0,144203,144718,A
Sprite,Foreground,Centre,"SB\highlight.png",320,240 M,0,144718,145234,223,272 F,0,144718,145234,1,0 C,0,144718,145234,0,204,255 P,0,144718,145234,A
Sprite,Foreground,Centre,"SB\highlight.png",320,240 M,0,145234,145750,206,179 F,0,145234,145750,1,0 C,0,145234,145750,0,204,255 P,0,145234,145750,A
Sprite,Foreground,Centre,"SB\highlight.png",320,240 M,0,146953,147469,299,300 F,0,146953,147469,1,0 C,0,146953,147469,61,119,255 P,0,146953,147469,A
Sprite,Foreground,Centre,"SB\highlight.png",320,240 M,0,147469,147985,139,400 F,0,147469,147985,1,0 C,0,147469,147985,61,119,255 P,0,147469,147985,A
Sprite,Foreground,Centre,"SB\highlight.png",320,240 M,0,147985,148500,163,188 F,0,147985,148500,1,0 C,0,147985,148500,255,179,0 P,0,147985,148500,A
Sprite,Foreground,Centre,"SB\highlight.png",320,240 M,0,149704,150215,467,192 F,0,149704,150215,1,0 C,0,149704,150215,255,51,0 P,0,149704,150215,A
Sprite,Foreground,Centre,"SB\highlight.png",320,240 M,0,150215,150726,543,240 F,0,150215,150726,1,0 C,0,150215,150726,255,51,0 P,0,150215,150726,A
Sprite,Foreground,Centre,"SB\highlight.png",320,240 M,0,152431,152942,223,160 F,0,152431,152942,1,0 C,0,152431,152942,255,179,0 P,0,152431,152942,A
Sprite,Foreground,Centre,"SB\highlight.png",320,240 M,0,152942,153454,279,76 F,0,152942,153454,1,0 C,0,152942,153454,255,179,0 P,0,152942,153454,A
Sprite,Foreground,Centre,"SB\highlight.png",320,240 M,0,155158,155672,356,219 F,0,155158,155672,1,0 C,0,155158,155672,61,119,255 P,0,155158,155672,A
Sprite,Foreground,Centre,"SB\highlight.png",320,240 M,0,155672,156186,148,228 F,0,155672,156186,1,0 C,0,155672,156186,61,119,255 P,0,155672,156186,A
Sprite,Foreground,Centre,"SB\highlight.png",320,240 M,0,156186,156700,169,133 F,0,156186,156700,1,0 C,0,156186,156700,61,119,255 P,0,156186,156700,A
Sprite,Foreground,Centre,"SB\highlight.png",320,240 M,0,157900,158415,435,164 F,0,157900,158415,1,0 C,0,157900,158415,0,204,255 P,0,157900,158415,A
Sprite,Foreground,Centre,"SB\highlight.png",320,240 M,0,158415,158929,347,378 F,0,158415,158929,1,0 C,0,158415,158929,0,204,255 P,0,158415,158929,A
Sprite,Foreground,Centre,"SB\highlight.png",320,240 M,0,158929,159443,159,188 F,0,158929,159443,1,0 C,0,158929,159443,255,51,0 P,0,158929,159443,A
Sprite,Foreground,Centre,"SB\highlight.png",320,240 M,0,160643,161158,383,244 F,0,160643,161158,1,0 C,0,160643,161158,255,179,0 P,0,160643,161158,A
Sprite,Foreground,Centre,"SB\highlight.png",320,240 M,0,161158,161672,259,200 F,0,161158,161672,1,0 C,0,161158,161672,255,179,0 P,0,161158,161672,A
Sprite,Foreground,Centre,"SB\highlight.png",320,240 M,0,163368,163909,335,200 F,0,163368,163909,1,0 C,0,163368,163909,255,51,0 P,0,163368,163909,A
Sprite,Foreground,Centre,"SB\ring.png",320,240 M,0,166191,166705,379,216 F,0,166191,166705,1,0 S,0,166191,166705,0.5,1.5 C,0,166191,166705,255,255,255 P,0,166191,166705,A
Sprite,Foreground,Centre,"SB\ring.png",320,240 M,0,166191,166705,379,216 F,0,166191,166705,1,0 S,0,166191,166705,0.5,1.5 C,0,166191,166705,255,255,255 P,0,166191,166705,A
Sprite,Foreground,Centre,"SB\ring.png",320,240 M,0,188086,188600,67,284 F,0,188086,188600,0.8,0 S,0,188086,188600,0.5,1.5 C,0,188086,188600,255,255,255 P,0,188086,188600,A
Sprite,Foreground,Centre,"SB\ring.png",320,240 M,0,188086,188600,67,284 F,0,188086,188600,0.8,0 S,0,188086,188600,0.5,1.5 C,0,188086,188600,255,255,255 P,0,188086,188600,A
//Storyboard Sound Samples

[TimingPoints]
1606,342.857142857143,4,2,1,40,1,0
1606,-133.333333333333,4,2,1,40,0,0
12577,340.909090909091,4,2,1,50,1,0
12577,-111.111111111111,4,2,1,50,0,0
15304,344.827586206897,4,2,1,50,1,0
15304,-111.111111111111,4,2,1,50,0,0
18062,341.880341880342,4,2,1,50,1,0
18062,-111.111111111111,4,2,1,50,0,0
23532,342.857142857143,4,2,1,50,1,0
23532,-111.111111111111,4,2,1,50,0,0
45474,-95.2380952380952,4,2,1,55,0,0
56446,340.909090909091,4,2,1,55,1,0
59174,342.857142857143,4,2,1,55,1,0
61916,345.821325648415,4,2,1,55,1,0
64682,342.857142857143,4,2,1,55,1,0
77024,333.333333333333,4,2,1,55,1,0
77024,-95.2380952380952,4,2,1,55,0,0
78357,344.43168771527,4,2,1,40,1,0
78357,-166.666666666667,4,2,1,40,0,0
89377,341.880341880342,4,2,1,55,1,0
89377,-111.111111111111,4,2,1,55,0,0
94847,-111.111111111111,4,2,1,60,0,0
97582,-111.111111111111,4,2,1,65,0,0
100321,342.857142857143,4,2,1,40,1,0
100321,-166.666666666667,4,2,1,40,0,0
111292,-111.111111111111,4,2,1,50,0,0
116778,-111.111111111111,4,2,1,55,0,0
118149,-111.111111111111,4,2,1,60,0,0
119521,-111.111111111111,4,2,1,65,0,0
120892,-111.111111111111,4,2,1,70,0,0
121235,-111.111111111111,4,2,1,75,0,0
121578,-111.111111111111,4,2,1,80,0,0
121921,-111.111111111111,4,2,1,85,0,0
122263,344.827586206897,4,2,1,40,1,0
122263,-166.666666666667,4,2,1,40,0,0
127780,-133.333333333333,4,2,1,50,0,0
130538,337.078651685393,4,2,1,65,1,0
130538,-111.111111111111,4,2,1,65,0,0
132560,-166.666666666667,4,2,1,40,0,0
133263,329.67032967033,4,2,1,60,1,0
133263,-95.2380952380952,4,2,1,60,0,0
134581,346.820809248555,4,2,1,60,1,0
134581,-95.2380952380952,4,2,1,60,0,0
138733,341.880341880342,4,2,1,60,1,0
138733,-95.2380952380952,4,2,1,60,0,0
144203,343.839541547278,4,2,1,80,1,1
144203,-83.3333333333333,4,2,1,80,0,1
149704,340.909090909091,4,2,1,80,1,1
149704,-83.3333333333333,4,2,1,80,0,1
155158,342.857142857143,4,2,1,80,1,1
155158,-83.3333333333333,4,2,1,80,0,1
163386,348.837209302326,4,2,1,80,1,1
163386,-83.3333333333333,4,2,1,80,0,1
165479,-133.333333333333,4,2,1,40,0,0
166191,342.857142857143,4,2,1,75,1,1
166191,-90.9090909090909,4,2,1,75,0,1
185390,337.078651685393,4,2,1,75,1,1
185390,-90.9090909090909,4,2,1,75,0,1
188086,342.857142857143,4,2,1,40,1,0
188086,-166.666666666667,4,2,1,40,0,0
193628,342.857142857143,4,2,1,40,1,0
193628,-166.666666666667,4,2,1,40,0,0
196370,335.195530726257,4,2,1,50,1,0
196370,-133.333333333333,4,2,1,50,0,0
198381,-133.333333333333,4,2,1,60,0,0
199051,342.857142857143,4,2,1,75,1,0
199051,-90.9090909090909,4,2,1,75,0,0
204536,344.827586206897,4,2,1,75,1,0
204536,-90.9090909090909,4,2,1,75,0,0
210053,-83.3333333333333,4,2,1,80,0,1
215570,337.078651685393,4,2,1,80,1,1
215570,-83.3333333333333,4,2,1,80,0,1
220963,-166.666666666667,4,2,1,40,0,0

[Colours]
Combo1 : 255,255,255
Combo2 : 255,51,0
Combo3 : 61,119,255
Combo4 : 255,179,0
Combo5 : 0,204,255

[HitObjects]
256,48,1606,6,0,P|246:76|250:106,2,60.0000022888184,2|0|0,0:0|0:0|0:0,0:0:0:0:
360,108,2120,2,0,P|359:137|345:164,2,60.0000022888184,2|0|0,0:0|0:0|0:0,0:0:0:0:
224,200,2634,2,0,P|234:227|256:248,2,60.0000022888184,2|0|0,0:0|0:0|0:0,0:0:0:0:
408,248,3148,2,0,P|388:270|360:282,2,60.0000022888184,2|0|0,0:0|0:0|0:0,0:0:0:0:
316,176,3663,6,0,L|374:162,1,60.0000022888184,2|0,0:0|0:0,0:0:0:0:
264,92,4006,2,0,L|206:78,1,60.0000022888184,2|0,0:0|0:0,0:0:0:0:
108,268,4348,2,0,P|192:262|210:179,1,180.000006866455,2|0,0:0|0:0,0:0:0:0:
156,336,7092,6,0,P|127:326|97:330,2,60.0000022888184,2|0|0,0:0|0:0|0:0,0:0:0:0:
216,256,7606,2,0,P|239:236|269:230,2,60.0000022888184,2|0|0,0:0|0:0|0:0,0:0:0:0:
124,204,8121,2,0,P|108:177|82:161,2,60.0000022888184,2|0|0,0:0|0:0|0:0,0:0:0:0:
208,144,8635,2,0,P|213:113|232:89,2,60.0000022888184,2|0|0,0:0|0:0|0:0,0:0:0:0:
324,216,9149,6,0,L|314:157,1,60.0000022888184,2|0,0:0|0:0,0:0:0:0:
432,140,9492,2,0,L|422:200,1,60.0000022888184,2|0,0:0|0:0,0:0:0:0:
343,347,9835,2,0,P|283:289|324:216,1,180.000006866455,2|0,0:0|0:0,0:0:0:0:
236,260,12063,21,8,0:0:0:0:
160,88,12234,1,8,0:0:0:0:
160,88,12577,6,0,P|213:82|231:76,1,71.9999978027344,8|0,0:1|0:0,0:0:0:0:
296,4,12917,1,8,0:0:0:0:
367,163,13088,2,0,P|331:160|296:149,1,71.9999978027344,8|0,0:1|0:0,0:0:0:0:
230,76,13429,1,8,0:1:0:0:
152,236,13599,2,0,P|205:230|223:224,1,71.9999978027344,8|0,0:0|0:0,0:0:0:0:
296,149,13940,1,0,0:0:0:0:
359,305,14111,2,0,P|306:299|288:293,1,71.9999978027344,8|8,0:1|0:0,0:0:0:0:
223,224,14452,1,0,0:0:0:0:
62,284,14622,5,8,0:1:0:0:
131,336,14792,1,8,0:1:0:0:
211,308,14963,1,8,0:0:0:0:
223,224,15133,1,0,0:0:0:0:
376,164,15304,6,0,P|382:216|388:234,1,71.9999978027344,8|0,0:1|0:0,0:0:0:0:
468,296,15648,1,8,0:0:0:0:
305,368,15821,2,0,P|311:315|317:297,1,71.9999978027344,8|0,0:1|0:0,0:0:0:0:
388,234,16166,1,8,0:1:0:0:
224,165,16338,2,0,P|230:217|235:235,1,71.9999978027344,8|0,0:0|0:0,0:0:0:0:
316,297,16683,1,0,0:0:0:0:
152,369,16855,2,0,P|158:316|163:298,1,71.9999978027344,8|8,0:1|0:0,0:0:0:0:
235,235,17200,1,0,0:0:0:0:
162,80,17372,21,8,0:1:0:0:
116,153,17545,1,8,0:1:0:0:
151,230,17717,1,8,0:0:0:0:
235,235,17890,1,8,0:1:0:0:
344,88,18062,6,0,P|379:90|414:99,1,71.9999978027344,8|0,0:1|0:0,0:0:0:0:
288,12,18403,1,8,0:0:0:0:
280,156,18574,2,0,P|245:165|209:167,1,71.9999978027344,8|0,0:1|0:0,0:0:0:0:
144,100,18916,1,8,0:1:0:0:
72,236,19087,2,0,P|106:245|142:247,1,71.9999978027344,8|0,0:0|0:0,0:0:0:0:
209,167,19429,1,0,0:0:0:0:
272,312,19600,2,0,P|236:314|200:324,1,71.9999978027344,8|8,0:1|0:0,0:0:0:0:
340,232,19942,1,0,0:0:0:0:
231,74,20113,5,8,0:1:0:0:
300,126,20284,1,8,0:1:0:0:
380,98,20455,1,8,0:0:0:0:
392,14,20626,1,8,0:1:0:0:
488,143,20797,6,0,P|485:178|476:213,1,71.9999978027344,8|0,0:1|0:0,0:0:0:0:
396,271,21138,1,8,0:0:0:0:
300,126,21309,2,0,P|302:161|311:196,1,71.9999978027344,8|0,0:1|0:0,0:0:0:0:
284,284,21651,1,8,0:1:0:0:
180,184,21822,2,0,P|177:219|168:254,1,71.9999978027344,8|0,0:0|0:0,0:0:0:0:
96,316,22164,1,0,0:0:0:0:
20,144,22335,2,0,P|22:179|31:214,1,71.9999978027344,8|8,0:1|0:0,0:0:0:0:
104,80,22677,1,8,0:0:0:0:
234,224,22848,21,8,0:0:0:0:
203,244,22933,1,8,0:0:0:0:
168,254,23019,1,8,0:0:0:0:
131,254,23104,1,8,0:0:0:0:
97,242,23190,1,8,0:0:0:0:
164,140,23361,2,0,L|199:134,1,35.9999989013672,8|8,0:0|0:0,0:0:0:0:
240,260,23532,6,0,L|97:242,1,143.999995605469,12|8,0:0|0:0,0:0:0:0:
97,242,24217,1,0,0:0:0:0:
60,148,24389,1,8,0:1:0:0:
28,259,24560,2,0,P|64:256|97:242,1,71.9999978027344,8|0,0:0|0:0,0:0:0:0:
200,134,24903,6,0,L|269:152,1,71.9999978027344
320,240,25246,1,8,0:0:0:0:
342,113,25417,2,0,L|199:134,1,143.999995605469,0|8,0:0|0:1,0:0:0:0:
220,12,25932,2,0,P|255:16|288:30,1,71.9999978027344,8|8,0:0|0:1,0:0:0:0:
358,238,26274,6,0,B|322:206|322:206|342:112,1,143.999995605469,8|8,0:1|0:0,0:0:0:0:
444,72,26789,2,0,L|462:214,1,143.999995605469,8|8,0:1|0:1,0:0:0:0:
421,342,27303,1,8,0:0:0:0:
421,342,27646,21,8,0:1:0:0:
324,312,27817,2,0,P|320:347|328:382,2,71.9999978027344,8|8|0,0:1|0:0|0:0,0:0:0:0:
312,212,28332,1,8,0:1:0:0:
223,263,28503,1,8,0:1:0:0:
180,112,28674,1,8,0:0:0:0:
223,263,28846,1,8,0:1:0:0:
81,240,29017,6,0,L|223:263,1,143.999995605469,8|8,0:1|0:0,0:0:0:0:
223,263,29703,2,0,P|190:277|154:280,1,71.9999978027344,0|8,0:0|0:1,0:0:0:0:
51,272,30046,2,0,P|55:307|70:340,1,71.9999978027344,8|0,0:0|0:0,0:0:0:0:
164,180,30389,6,0,L|156:104,2,71.9999978027344,0|0|8,0:0|0:0|0:0,0:0:0:0:
260,220,30903,2,0,L|274:77,1,143.999995605469,8|8,0:1|0:1,0:0:0:0:
164,180,31417,1,8,0:0:0:0:
296,144,31589,1,8,0:1:0:0:
332,300,31760,6,0,B|300:336|300:336|206:316,1,143.999995605469,8|8,0:1|0:0,0:0:0:0:
260,220,32274,2,0,L|402:202,1,143.999995605469,8|8,0:1|0:1,0:0:0:0:
488,312,32789,1,8,0:0:0:0:
488,312,33132,21,8,0:1:0:0:
396,272,33303,2,0,P|394:237|402:202,1,71.9999978027344,8|8,0:1|0:0,0:0:0:0:
476,80,33646,1,8,0:1:0:0:
476,80,33732,1,8,0:1:0:0:
476,80,33817,2,0,L|492:150,1,71.9999978027344,8|8,0:1|0:1,0:0:0:0:
496,252,34160,1,8,0:0:0:0:
360,112,34332,2,0,L|395:119,1,35.9999989013672,8|0,0:1|0:0,0:0:0:0:
402,201,34503,6,0,L|254:225,1,143.999995605469,8|8,0:1|0:0,0:0:0:0:
259,224,35189,1,0,0:0:0:0:
192,148,35360,1,8,0:1:0:0:
245,293,35532,2,0,P|257:259|259:224,1,71.9999978027344,8|0,0:0|0:0,0:0:0:0:
50,172,35874,6,0,L|40:243,1,71.9999978027344
140,256,36217,1,8,0:0:0:0:
192,148,36389,2,0,L|48:173,1,143.999995605469,8|8,0:1|0:1,0:0:0:0:
143,326,36902,2,0,P|134:291|139:255,1,71.9999978027344,8|8,0:0|0:1,0:0:0:0:
332,212,37246,6,0,B|352:306|352:306|316:338,1,143.999995605469,8|8,0:1|0:0,0:0:0:0:
224,284,37760,2,0,L|247:141,1,143.999995605469,8|8,0:1|0:1,0:0:0:0:
324,28,38274,1,8,0:0:0:0:
324,28,38617,21,8,0:1:0:0:
231,74,38788,2,0,P|231:110|247:142,1,71.9999978027344,8|8,0:1|0:0,0:0:0:0:
472,148,39131,1,8,0:1:0:0:
359,132,39302,1,8,0:1:0:0:
472,148,39474,1,0,0:0:0:0:
368,204,39645,2,0,L|359:132,1,71.9999978027344,8|8,0:0|0:1,0:0:0:0:
246,173,39989,6,0,P|220:238|249:302,1,143.999995605469,8|8,0:1|0:0,0:0:0:0:
249,302,40674,2,8,L|234:372,1,71.9999978027344,8|8,0:1|0:1,0:0:0:0:
353,292,41017,2,8,L|338:221,1,71.9999978027344,8|0,0:0|0:1,0:0:0:0:
181,284,41360,6,0,P|214:299|250:302,1,71.9999978027344
150,182,41702,1,8,0:0:0:0:
38,301,41874,2,0,L|181:284,1,143.999995605469,8|8,0:1|0:1,0:0:0:0:
128,84,42388,1,8,0:0:0:0:
64,168,42559,1,8,0:1:0:0:
240,204,42731,6,0,B|276:172|276:172|256:78,1,143.999995605469,8|8,0:1|0:0,0:0:0:0:
412,80,43246,2,0,L|386:222,1,143.999995605469,8|0,0:1|0:0,0:0:0:0:
367,351,43759,1,8,0:0:0:0:
367,351,44103,21,8,0:1:0:0:
280,260,44274,1,8,0:1:0:0:
424,200,44446,1,8,0:0:0:0:
367,351,44617,1,0,0:0:0:0:
280,260,44788,1,8,0:1:0:0:
277,227,44874,1,8,0:1:0:0:
274,194,44960,1,8,0:1:0:0:
271,161,45046,1,8,0:1:0:0:
268,128,45132,2,0,P|301:139|337:136,1,71.9999978027344,8|8,0:1|0:1,0:0:0:0:
308,55,45389,1,8,0:1:0:0:
308,55,45474,6,0,P|264:101|206:123,1,125.999996154785,12|0,0:1|0:0,0:0:0:0:
176,96,45817,1,8,0:0:0:0:
44,168,45989,2,0,P|32:208|40:249,1,83.9999974365235,8|0,0:1|0:0,0:0:0:0:
136,216,46332,1,8,0:1:0:0:
30,86,46503,2,0,L|44:168,1,83.9999974365235,8|0,0:0|0:0,0:0:0:0:
46,208,46760,6,0,L|39:249,1,41.9999987182618,8|8,0:1|0:1,0:0:0:0:
140,360,47017,1,0,0:0:0:0:
160,332,47102,1,0,0:0:0:0:
180,304,47188,2,0,L|268:312,1,83.9999974365235,8|0,0:0|0:0,0:0:0:0:
304,112,47531,1,0,0:0:0:0:
388,272,47703,2,0,L|348:258,1,41.9999987182618,8|0,0:1|0:0,0:0:0:0:
232,209,47874,1,8,0:0:0:0:
384,177,48046,1,8,0:1:0:0:
264,312,48218,5,8,0:1:0:0:
147,177,48389,2,0,P|143:218|156:257,1,83.9999974365235,0|8,0:0|0:0,0:0:0:0:
232,209,48732,1,8,0:1:0:0:
132,340,48903,2,0,P|90:343|52:327,1,83.9999974365235,0|8,0:0|0:1,0:0:0:0:
65,158,49246,2,0,L|148:177,1,83.9999974365235,8|0,0:0|0:0,0:0:0:0:
188,185,49503,22,0,L|228:175,1,41.9999987182618,8|8,0:1|0:1,0:0:0:0:
332,68,49760,1,0,0:0:0:0:
332,68,49846,1,0,0:0:0:0:
332,68,49932,1,8,0:0:0:0:
312,212,50103,1,0,0:0:0:0:
180,92,50275,2,0,P|173:50|187:11,1,83.9999974365235,8|8,0:1|0:1,0:0:0:0:
404,18,50618,2,0,P|417:57|411:98,1,83.9999974365235,8|0,0:0|0:0,0:0:0:0:
180,92,50960,5,12,0:0:0:0:
228,202,51132,1,0,0:0:0:0:
228,202,51218,1,0,0:0:0:0:
228,202,51303,2,0,L|311:211,1,83.9999974365235,8|8,0:0|0:1,0:0:0:0:
280,104,51646,1,0,0:0:0:0:
148,232,51818,1,8,0:1:0:0:
318,294,51989,2,8,L|311:210,1,83.9999974365235,8|0,0:0|0:0,0:0:0:0:
339,178,52246,6,0,L|378:191,1,41.9999987182618,8|8,0:1|0:1,0:0:0:0:
456,93,52503,1,0,0:0:0:0:
512,216,52675,2,0,P|500:256|472:286,1,83.9999974365235,8|0,0:0|0:0,0:0:0:0:
339,178,53018,1,0,0:0:0:0:
262,257,53189,2,0,L|269:298,1,41.9999987182618,8|0,0:1|0:0,0:0:0:0:
350,362,53360,1,8,0:0:0:0:
339,178,53532,1,8,0:1:0:0:
182,249,53703,6,0,P|221:263|262:258,1,83.9999974365235,8|0,0:1|0:0,0:0:0:0:
262,257,53960,1,0,0:0:0:0:
262,257,54046,1,8,0:0:0:0:
123,319,54218,2,0,P|97:286|87:245,2,83.9999974365235,8|8|8,0:1|0:1|0:1,0:0:0:0:
240,88,54732,2,0,L|233:171,1,83.9999974365235,8|0,0:0|0:0,0:0:0:0:
148,164,54989,22,0,L|142:122,1,41.9999987182618,8|8,0:1|0:1,0:0:0:0:
40,280,55246,1,8,0:1:0:0:
40,280,55332,1,0,0:0:0:0:
40,280,55417,2,0,L|121:257,1,83.9999974365235,8|0,0:0|0:0,0:0:0:0:
302,234,55760,6,0,P|300:254|295:275,1,41.9999987182618,8|0,0:0|0:0,0:0:0:0:
232,171,55932,2,0,P|227:150|226:130,1,41.9999987182618,8|8,0:0|0:1,0:0:0:0:
400,100,56103,2,0,P|368:127|328:140,1,83.9999974365235,8|8,0:1|0:1,0:0:0:0:
144,212,56446,6,0,L|306:235,1,160,12|8,0:0|0:0,0:0:0:0:
461,160,56957,1,0,0:0:0:0:
461,160,57042,1,8,0:1:0:0:
461,160,57127,2,0,P|422:143|380:138,1,80,8|0,0:1|0:0,0:0:0:0:
302,234,57468,1,8,0:0:0:0:
424,264,57639,1,8,0:1:0:0:
309,314,57809,6,0,L|302:234,1,80,8|8,0:1|0:1,0:0:0:0:
261,103,58150,1,8,0:0:0:0:
117,175,58321,1,8,0:1:0:0:
117,175,58406,1,0,0:0:0:0:
117,175,58491,2,0,L|201:189,1,80,0|8,0:0|0:1,0:0:0:0:
252,24,58832,1,8,0:0:0:0:
144,80,59002,1,0,0:0:0:0:
261,103,59174,22,0,P|263:61|251:22,1,80,8|8,0:1|0:1,0:0:0:0:
195,188,59516,1,8,0:0:0:0:
261,103,59688,2,0,B|309:107|345:79|345:79|385:83|416:101,1,160,8|8,0:1|0:1,0:0:0:0:
456,264,60202,1,8,0:0:0:0:
356,192,60374,1,8,0:1:0:0:
356,192,60459,1,0,0:0:0:0:
356,192,60545,6,0,L|349:271,1,80,0|8,0:0|0:1,0:0:0:0:
464,172,60888,1,8,0:0:0:0:
464,172,61059,1,0,0:0:0:0:
278,238,61231,1,8,0:1:0:0:
278,238,61402,1,8,0:1:0:0:
312,352,61574,1,8,0:0:0:0:
312,352,61745,1,0,0:0:0:0:
135,265,61916,6,0,P|205:223|282:241,1,160,8|8,0:1|0:0,0:0:0:0:
292,104,62434,1,0,0:0:0:0:
176,112,62607,2,0,P|167:153|178:191,1,80,8|0,0:1|0:0,0:0:0:0:
176,188,62867,1,0,0:0:0:0:
176,188,62953,1,8,0:0:0:0:
278,238,63126,1,0,0:0:0:0:
130,287,63299,6,0,L|47:267,2,80,8|8|8,0:1|0:1|0:0,0:0:0:0:
258,315,63819,1,0,0:0:0:0:
258,315,63904,1,0,0:0:0:0:
258,315,63990,2,0,L|277:238,1,80,0|0,0:0|0:0,0:0:0:0:
175,189,64336,1,8,0:0:0:0:
180,360,64509,1,0,0:0:0:0:
354,346,64682,22,0,P|358:304|348:268,1,80,8|8,0:1|0:1,0:0:0:0:
258,315,65024,1,8,0:0:0:0:
326,163,65196,2,0,B|374:159|410:187|410:187|450:183|481:166,1,160,8|8,0:1|0:1,0:0:0:0:
430,87,65710,1,8,0:0:0:0:
348,268,65882,1,8,0:1:0:0:
348,268,65967,1,8,0:1:0:0:
348,268,66053,5,8,0:0:0:0:
264,200,66224,2,0,L|282:121,2,80,0|0|0,0:0|0:0|0:0,0:0:0:0:
384,172,66739,1,0,0:0:0:0:
312,36,66910,1,8,0:0:0:0:
183,129,67082,1,0,0:1:0:0:
55,32,67253,2,0,L|93:16,1,40,0|0,0:1|0:1,0:0:0:0:
82,116,67424,6,0,P|42:120|5:105,1,80,4|0,0:0|0:0,0:0:0:0:
6,105,67681,1,8,0:1:0:0:
6,105,67766,1,8,0:0:0:0:
63,221,67938,1,8,0:1:0:0:
183,129,68110,2,0,P|196:168|193:207,1,80,0|8,0:0|0:1,0:0:0:0:
160,328,68452,2,0,L|237:306,1,80,8|0,0:0|0:0,0:0:0:0:
284,317,68710,1,0,0:0:0:0:
284,317,68796,5,8,0:1:0:0:
344,224,68967,2,0,P|341:182|353:141,2,80,0|8|8,0:0|0:0|0:1,0:0:0:0:
452,352,69481,1,8,0:1:0:0:
284,317,69652,1,8,0:1:0:0:
444,248,69824,1,8,0:0:0:0:
356,384,69995,1,0,0:0:0:0:
256,224,70167,21,8,0:1:0:0:
172,288,70339,2,0,P|165:327|170:366,2,80,0|8|0,0:0|0:0|0:0,0:0:0:0:
168,128,70852,1,8,0:1:0:0:
20,216,71024,1,8,0:1:0:0:
20,216,71109,1,0,0:0:0:0:
20,216,71195,2,0,L|99:204,1,80,8|0,0:0|0:0,0:0:0:0:
128,236,71453,6,0,L|118:276,1,40,8|8,0:1|0:1,0:0:0:0:
240,252,71709,1,0,0:0:0:0:
168,128,71881,2,0,P|169:84|186:50,1,80,8|8,0:0|0:1,0:0:0:0:
400,144,72224,1,8,0:1:0:0:
264,110,72395,1,8,0:1:0:0:
400,144,72566,1,8,0:0:0:0:
268,92,72738,1,8,0:1:0:0:
380,240,72910,6,0,P|421:241|458:226,2,80,4|0|8,0:0|0:0|0:0,0:0:0:0:
160,288,73424,1,0,0:0:0:0:
257,259,73595,1,8,0:1:0:0:
324,344,73766,1,8,0:1:0:0:
257,259,73938,2,8,L|247:178,1,80,8|0,0:0|0:0,0:0:0:0:
163,154,74196,6,0,L|157:193,1,40,8|8,0:1|0:1,0:0:0:0:
248,363,74452,2,0,P|288:361|324:344,1,80,0|8,0:0|0:0,0:0:0:0:
336,184,74795,1,8,0:1:0:0:
257,259,74966,1,8,0:1:0:0:
240,96,75138,1,8,0:1:0:0:
336,184,75309,1,8,0:0:0:0:
156,193,75481,1,8,0:1:0:0:
156,193,75566,1,8,0:1:0:0:
156,193,75653,22,0,L|140:273,1,80,12|0,0:1|0:0,0:0:0:0:
88,104,75995,1,8,0:0:0:0:
227,17,76167,2,0,L|240:96,1,80,0|0,0:0|0:0,0:0:0:0:
156,193,76509,1,8,0:1:0:0:
240,96,76681,2,0,L|315:127,1,80,8|0,0:0|0:0,0:0:0:0:
320,168,76939,1,0,0:0:0:0:
320,168,77024,6,0,L|314:209,1,41.9999987182618,8|8,0:1|0:1,0:0:0:0:
252,332,77191,2,0,L|293:326,1,41.9999987182618,8|8,0:1|0:1,0:0:0:0:
396,284,77358,1,8,0:1:0:0:
212,208,77524,1,8,0:1:0:0:
396,112,77690,2,0,P|412:150|408:191,2,83.9999974365235,8|8|8,0:1|0:1|0:1,0:0:0:0:
124,120,78191,1,8,0:1:0:0:
120,132,78274,1,8,0:1:0:0:
116,144,78357,5,4,0:0:0:0:
212,176,88001,6,0,P|242:212|288:221,1,95.9999970703126,0|0,0:0|0:0,0:0:0:0:
387,99,88517,2,0,L|410:93,2,23.9999992675781,0|0|0,0:0|0:0|0:0,0:0:0:0:
251,31,88862,1,0,0:0:0:0:
286,138,89034,1,0,0:0:0:0:
286,138,89206,1,0,0:0:0:0:
156,268,89377,22,0,P|141:235|138:199,1,71.9999978027344,8|0,0:1|0:0,0:0:0:0:
315,247,89719,2,0,P|293:275|264:296,1,71.9999978027344,8|0,0:1|0:0,0:0:0:0:
218,119,90061,2,0,P|253:122|286:138,1,71.9999978027344,8|0,0:1|0:0,0:0:0:0:
231,211,90403,1,8,0:1:0:0:
120,80,90573,6,0,B|82:75|82:75|53:91,1,71.9999978027344,8|8,0:0|0:1,0:0:0:0:
68,209,90916,2,0,B|105:213|105:213|136:198,1,71.9999978027344,8|8,0:0|0:1,0:0:0:0:
220,12,91258,1,8,0:1:0:0:
220,12,91343,1,8,0:1:0:0:
220,12,91429,1,8,0:1:0:0:
286,138,91599,1,8,0:1:0:0:
368,80,91770,1,8,0:1:0:0:
440,152,91941,1,8,0:1:0:0:
360,292,92112,5,8,0:0:0:0:
266,264,92283,2,0,P|263:299|274:333,2,71.9999978027344,0|8|0,0:0|0:1|0:0,0:0:0:0:
168,328,92796,2,0,L|97:314,1,71.9999978027344,8|0,0:1|0:0,0:0:0:0:
36,240,93138,1,8,0:1:0:0:
216,124,93309,6,0,B|223:156|223:156|209:191,1,71.9999978027344,8|8,0:0|0:1,0:0:0:0:
87,179,93651,2,0,B|78:145|78:145|93:110,1,71.9999978027344,8|8,0:0|0:1,0:0:0:0:
312,172,93993,1,8,0:1:0:0:
336,66,94164,1,8,0:1:0:0:
236,12,94335,1,8,0:1:0:0:
312,172,94505,1,8,0:1:0:0:
450,65,94676,1,8,0:1:0:0:
450,65,94762,1,0,0:0:0:0:
450,65,94847,22,0,P|472:92|484:126,1,71.9999978027344,8|0,0:0|0:0,0:0:0:0:
301,127,95189,2,0,P|313:94|336:67,1,71.9999978027344,8|0,0:1|0:0,0:0:0:0:
428,224,95531,2,0,P|392:230|357:224,1,71.9999978027344,8|0,0:1|0:0,0:0:0:0:
393,140,95873,1,8,0:1:0:0:
183,57,96043,6,0,B|171:91|171:91|179:124,1,71.9999978027344,8|8,0:0|0:1,0:0:0:0:
301,127,96386,2,0,B|311:89|311:89|303:58,1,71.9999978027344,0|8,0:0|0:0,0:0:0:0:
80,112,96728,1,8,0:1:0:0:
164,232,96898,1,8,0:1:0:0:
24,272,97069,2,0,L|31:237,2,35.9999989013672,0|0|8,0:0|0:0|0:1,0:0:0:0:
227,304,97411,1,0,0:0:0:0:
227,304,97497,1,0,0:0:0:0:
227,304,97582,6,0,P|196:323|161:325,1,71.9999978027344,8|0,0:0|0:0,0:0:0:0:
119,180,97924,2,0,P|133:212|163:231,1,71.9999978027344,8|0,0:1|0:0,0:0:0:0:
228,76,98266,2,0,P|228:111|212:143,1,71.9999978027344,8|0,0:1|0:0,0:0:0:0:
227,304,98608,1,8,0:1:0:0:
316,160,98779,6,0,L|387:150,1,71.9999978027344,8|0,0:0|0:0,0:0:0:0:
228,76,99121,1,8,0:1:0:0:
288,248,99292,1,8,0:1:0:0:
387,149,99463,1,8,0:1:0:0:
484,260,99633,2,0,P|450:272|414:273,1,71.9999978027344,8|8,0:1|0:1,0:0:0:0:
380,300,99890,1,8,0:1:0:0:
380,300,99976,2,0,L|371:334,3,35.9999989013672,8|8|8|8,0:1|0:1|0:1|0:1,0:0:0:0:
392,376,100321,21,2,0:0:0:0:
232,300,110607,22,0,P|244:320|261:337,1,47.9999985351563,0|0,0:0|0:0,0:0:0:0:
335,190,110950,2,0,P|334:213|328:237,1,47.9999985351563,0|0,0:0|0:0,0:0:0:0:
244,204,111293,5,8,0:1:0:0:
218,113,111464,1,0,0:0:0:0:
123,110,111636,1,8,0:1:0:0:
91,198,111807,1,0,0:0:0:0:
166,256,111978,1,8,0:1:0:0:
170,260,112150,1,0,0:0:0:0:
174,264,112321,1,8,0:1:0:0:
178,268,112493,1,0,0:0:0:0:
182,272,112663,22,0,L|195:342,1,71.9999978027344,8|0,0:1|0:1,0:0:0:0:
309,325,113007,2,0,L|377:348,1,71.9999978027344,8|0,0:1|0:1,0:0:0:0:
276,216,113350,2,0,L|346:202,1,71.9999978027344,8|0,0:1|0:0,0:0:0:0:
453,276,113693,2,0,L|476:207,1,71.9999978027344,8|0,0:1|0:0,0:0:0:0:
372,84,114035,5,8,0:1:0:0:
276,115,114207,1,0,0:0:0:0:
276,216,114378,1,8,0:1:0:0:
372,247,114550,1,0,0:0:0:0:
432,166,114721,1,8,0:1:0:0:
436,170,114893,1,0,0:0:0:0:
440,174,115064,1,8,0:1:0:0:
444,178,115236,1,0,0:0:0:0:
448,182,115406,6,0,P|415:167|379:164,1,71.9999978027344,8|0,0:1|0:0,0:0:0:0:
267,279,115750,2,0,P|302:276|335:261,1,71.9999978027344,8|0,0:1|0:0,0:0:0:0:
292,107,116093,2,0,P|256:110|223:125,1,71.9999978027344,8|0,0:1|0:0,0:0:0:0:
102,201,116436,2,0,P|134:216|170:219,1,71.9999978027344,8|0,0:1|0:0,0:0:0:0:
103,27,116778,5,8,0:1:0:0:
0,60,116950,1,8,0:1:0:0:
0,168,117121,1,8,0:1:0:0:
102,201,117293,1,0,0:0:0:0:
166,114,117464,1,8,0:1:0:0:
170,118,117636,1,0,0:0:0:0:
174,122,117807,1,8,0:1:0:0:
178,126,117978,1,0,0:0:0:0:
182,130,118149,22,8,B|176:171|176:171|184:200,1,71.9999978027344,8|0,0:1|0:0,0:0:0:0:
362,172,118493,2,0,B|330:161|330:161|293:164,1,71.9999978027344,8|0,0:1|0:0,0:0:0:0:
462,213,118836,2,0,B|472:184|472:184|470:142,1,71.9999978027344,8|0,0:1|0:0,0:0:0:0:
363,44,119178,2,0,B|330:55|330:55|293:52,1,71.9999978027344,8|0,0:1|0:0,0:0:0:0:
184,200,119521,5,8,0:1:0:0:
183,315,119693,1,0,0:0:0:0:
293,350,119864,1,0,0:0:0:0:
361,257,120036,1,8,0:1:0:0:
293,164,120207,1,0,0:0:0:0:
297,168,120378,1,8,0:1:0:0:
301,172,120550,1,8,0:1:0:0:
305,176,120721,1,0,0:0:0:0:
309,180,120892,5,8,0:1:0:0:
377,87,121064,1,8,0:1:0:0:
486,123,121236,1,8,0:1:0:0:
487,238,121407,1,8,0:1:0:0:
377,273,121578,1,8,0:1:0:0:
377,87,121750,1,8,0:1:0:0:
487,238,121921,1,8,0:1:0:0:
309,180,122093,1,8,0:1:0:0:
486,123,122263,5,2,0:0:0:0:
52,60,127780,22,0,P|101:94|157:113,1,120.000004577637,8|8,0:1|0:1,0:0:0:0:
232,52,128297,1,8,0:1:0:0:
240,172,128470,2,0,P|190:206|134:225,1,120.000004577637,0|8,0:0|0:1,0:0:0:0:
400,192,129159,2,0,P|360:147|335:92,1,120.000004577637,8|8,0:1|0:1,0:0:0:0:
396,20,129677,1,8,0:1:0:0:
484,60,129849,2,0,P|480:89|470:117,1,60.0000022888184,0|8,0:0|0:1,0:0:0:0:
400,192,130194,2,0,P|403:221|413:249,1,60.0000022888184,8|8,0:1|0:1,0:0:0:0:
352,352,130538,5,8,0:1:0:0:
276,284,130706,2,0,P|243:298|212:318,1,71.9999978027344,8|8,0:1|0:1,0:0:0:0:
434,150,131043,1,8,0:1:0:0:
413,249,131212,2,0,P|441:270|474:287,1,71.9999978027344,8|8,0:1|0:1,0:0:0:0:
243,178,131549,1,8,0:1:0:0:
179,254,131717,2,0,P|192:287|213:318,1,71.9999978027344,8|8,0:1|0:1,0:0:0:0:
413,249,132054,1,8,0:1:0:0:
433,149,132223,2,0,P|404:127|371:110,1,71.9999978027344,8|8,0:1|0:1,0:0:0:0:
200,84,132560,6,0,L|192:155,1,71.9999978027344,0|0,0:0|0:0,0:0:0:0:
268,204,132897,2,0,L|275:132,1,71.9999978027344,0|0,0:0|0:0,0:0:0:0:
200,84,133263,6,0,B|122:122|122:122|41:108,1,167.999994873047,4|8,0:0|0:1,0:0:0:0:
31,258,133757,2,0,B|64:235|64:235|108:235,2,83.9999974365235,8|8|8,0:1|0:1|0:1,0:0:0:0:
103,345,134252,1,8,0:1:0:0:
103,345,134417,1,8,0:1:0:0:
213,278,134581,22,0,P|221:236|217:195,1,83.9999974365235,8|0,0:1|0:0,0:0:0:0:
324,142,134928,2,0,P|355:169|393:186,1,83.9999974365235,8|8,0:1|0:1,0:0:0:0:
440,166,135188,1,8,0:1:0:0:
440,166,135275,2,0,L|425:248,1,83.9999974365235,8|8,0:1|0:1,0:0:0:0:
448,292,135535,1,8,0:1:0:0:
448,292,135622,2,0,L|364:303,1,83.9999974365235,8|8,0:1|0:1,0:0:0:0:
340,336,135882,1,8,0:1:0:0:
340,336,135968,5,4,0:0:0:0:
240,292,136142,1,0,0:0:0:0:
276,188,136315,1,8,0:1:0:0:
156,172,136489,2,0,B|165:210|165:210|150:252,2,83.9999974365235,8|8|8,0:1|0:1|0:1,0:0:0:0:
51,208,137009,1,8,0:1:0:0:
51,208,137182,1,8,0:1:0:0:
92,60,137356,6,0,L|174:74,1,83.9999974365235,8|8,0:1|0:1,0:0:0:0:
259,163,137703,2,0,L|341:148,1,83.9999974365235,8|8,0:1|0:1,0:0:0:0:
472,37,138049,1,8,0:1:0:0:
472,37,138136,1,8,0:1:0:0:
472,37,138223,1,8,0:1:0:0:
472,37,138310,1,8,0:1:0:0:
472,37,138396,2,0,L|463:78,1,41.9999987182618,8|8,0:1|0:1,0:0:0:0:
438,179,138570,2,0,L|476:195,1,41.9999987182618,8|8,0:1|0:1,0:0:0:0:
505,301,138733,6,0,B|423:305|423:305|355:358,1,167.999994873047,4|8,0:0|0:1,0:0:0:0:
252,275,139246,2,0,B|292:257|292:257|313:223,2,83.9999974365235,4|0|8,0:0|0:0|0:1,0:0:0:0:
212,167,139759,1,8,0:1:0:0:
111,219,139930,1,8,0:1:0:0:
111,219,140015,1,8,0:1:0:0:
111,219,140100,22,0,P|115:260|131:299,1,83.9999974365235,8|8,0:1|0:1,0:0:0:0:
212,167,140442,2,0,P|228:128|232:86,1,83.9999974365235,8|8,0:1|0:1,0:0:0:0:
31,196,140784,2,0,P|69:213|111:219,1,83.9999974365235,8|8,0:1|0:1,0:0:0:0:
144,36,141126,2,8,P|102:41|64:58,1,83.9999974365235,8|8,0:1|0:1,0:0:0:0:
40,96,141383,1,8,0:1:0:0:
40,96,141468,5,4,0:0:0:0:
116,172,141639,1,0,0:0:0:0:
204,108,141810,1,8,0:1:0:0:
252,252,141981,2,8,B|208:248|208:248|171:263,2,83.9999974365235,8|8|8,0:1|0:1|0:1,0:0:0:0:
224,360,142494,1,0,0:0:0:0:
224,360,142665,1,8,0:1:0:0:
88,224,142836,5,8,0:1:0:0:
136,348,143006,1,8,0:1:0:0:
252,252,143177,1,8,0:1:0:0:
364,348,143348,1,8,0:1:0:0:
364,348,143434,1,8,0:1:0:0:
364,348,143519,2,0,L|405:343,3,41.9999987182618,8|8|8|8,0:1|0:1|0:1|0:1,0:0:0:0:
440,316,143861,1,8,0:1:0:0:
440,304,143947,1,8,0:1:0:0:
440,292,144032,1,8,0:1:0:0:
440,280,144118,1,8,0:1:0:0:
440,268,144203,6,0,B|372:248|372:248|300:263,1,143.999995605469,12|0,0:0|0:0,0:0:0:0:
260,288,144547,1,8,0:1:0:0:
152,212,144719,2,0,P|151:259|135:304,1,95.9999970703126,8|8,0:0|0:1,0:0:0:0:
32,240,145063,1,8,0:1:0:0:
135,119,145235,2,0,P|135:166|151:211,1,95.9999970703126,8|0,0:0|0:0,0:0:0:0:
408,96,145579,21,8,0:1:0:0:
341,8,145751,1,8,0:1:0:0:
239,43,145923,1,8,0:1:0:0:
241,151,146095,1,8,0:1:0:0:
448,168,146266,2,0,P|403:151|355:151,1,95.9999970703126,8|8,0:1|0:1,0:0:0:0:
340,312,146610,2,0,L|436:300,1,95.9999970703126,8|8,0:1|0:1,0:0:0:0:
232,240,146954,6,0,B|213:281|213:281|219:331,1,95.9999970703126,12|0,0:0|0:0,0:0:0:0:
219,331,147298,1,8,0:1:0:0:
64,340,147469,2,0,B|70:289|70:289|51:248,1,95.9999970703126,12|8,0:0|0:1,0:0:0:0:
51,248,147814,1,8,0:1:0:0:
92,128,147986,6,0,P|137:114|184:123,1,95.9999970703126,12|8,0:0|0:1,0:0:0:0:
232,240,148330,1,0,1:0:0:0:
296,133,148501,1,0,1:0:0:0:
296,133,148587,1,0,1:0:0:0:
296,133,148673,2,0,L|308:86,3,47.9999985351563,0|0|0|0,1:0|1:0|1:0|1:0,0:0:0:0:
292,49,149017,5,8,0:1:0:0:
260,27,149103,1,0,0:0:0:0:
221,26,149189,1,8,0:1:0:0:
187,44,149275,1,0,0:0:0:0:
168,77,149361,2,0,L|183:122,1,47.9999985351563,8|0,0:1|0:0,0:0:0:0:
185,230,149533,2,0,L|233:240,1,47.9999985351563,8|8,0:1|0:1,0:0:0:0:
400,132,149704,21,12,0:0:0:0:
307,86,149874,1,0,0:0:0:0:
312,188,150045,1,8,0:1:0:0:
480,180,150215,2,8,P|496:135|489:88,2,95.9999970703126,12|8|8,0:0|0:1|0:1,0:0:0:0:
384,272,150726,2,0,P|377:319|393:363,1,95.9999970703126,8|8,0:1|0:1,0:0:0:0:
462,313,150982,6,0,L|508:300,1,47.9999985351563,8|8,0:1|0:1,0:0:0:0:
384,272,151238,1,8,0:1:0:0:
276,348,151408,2,0,L|182:325,1,95.9999970703126,8|8,0:1|0:1,0:0:0:0:
218,211,151749,2,0,L|311:188,1,95.9999970703126,8|8,0:1|0:1,0:0:0:0:
156,100,152090,1,8,0:1:0:0:
156,100,152175,1,8,0:1:0:0:
156,100,152261,1,8,0:1:0:0:
156,100,152346,1,8,0:1:0:0:
156,100,152431,5,12,0:0:0:0:
56,120,152601,2,0,B|71:162|71:162|112:193,1,95.9999970703126,0|8,0:0|0:1,0:0:0:0:
212,16,152942,1,8,0:0:0:0:
312,36,153113,2,8,B|296:78|296:78|255:109,1,95.9999970703126,8|8,0:1|0:1,0:0:0:0:
112,193,153454,5,8,0:1:0:0:
168,280,153624,2,8,B|263:268,1,95.9999970703126,8|8,0:1|0:1,0:0:0:0:
351,120,153965,2,0,B|255:108,1,95.9999970703126,8|8,0:1|0:1,0:0:0:0:
84,260,154306,1,8,0:1:0:0:
84,260,154391,1,8,0:1:0:0:
84,260,154476,2,8,P|84:307|111:346,1,95.9999970703126,8|8,0:1|0:1,0:0:0:0:
220,360,154817,22,0,L|241:217,1,143.999995605469,8|8,0:1|0:1,0:0:0:0:
289,159,155158,6,0,P|316:222|280:281,1,143.999995605469,12|0,0:0|0:0,0:0:0:0:
232,292,155501,1,8,0:1:0:0:
80,168,155672,2,0,P|127:170|171:189,1,95.9999970703126,12|8,0:0|0:1,0:0:0:0:
104,264,156015,1,8,0:1:0:0:
102,72,156187,2,8,P|54:74|10:93,1,95.9999970703126,12|8,0:0|0:1,0:0:0:0:
171,189,156530,5,8,0:1:0:0:
212,52,156701,1,8,0:1:0:0:
171,189,156873,1,8,0:1:0:0:
212,52,157044,1,8,0:1:0:0:
48,176,157215,2,0,L|69:269,1,95.9999970703126,8|8,0:1|0:1,0:0:0:0:
171,189,157558,2,0,L|255:234,1,95.9999970703126,8|8,0:1|0:1,0:0:0:0:
376,100,157901,6,0,P|404:137|401:184,1,95.9999970703126,12|8,0:0|0:1,0:0:0:0:
401,184,158244,1,8,0:1:0:0:
280,318,158415,2,0,P|252:281|255:234,1,95.9999970703126,12|8,0:0|0:1,0:0:0:0:
255,234,158758,1,8,0:1:0:0:
80,128,158930,22,0,L|99:223,1,95.9999970703126,12|8,0:0|0:1,0:0:0:0:
180,44,159273,1,8,0:1:0:0:
276,140,159444,1,8,0:1:0:0:
276,140,159530,1,8,0:1:0:0:
276,140,159615,1,8,0:1:0:0:
276,140,159701,1,8,0:1:0:0:
276,140,159787,1,8,0:1:0:0:
276,140,159873,1,8,0:1:0:0:
276,140,159958,6,0,L|322:150,1,47.9999985351563,8|8,0:1|0:1,0:0:0:0:
436,60,160130,2,0,L|389:70,1,47.9999985351563,8|8,0:1|0:1,0:0:0:0:
388,228,160301,2,8,L|434:238,1,47.9999985351563,8|8,0:1|0:1,0:0:0:0:
512,142,160473,2,0,L|465:152,1,47.9999985351563,8|0,0:1|0:0,0:0:0:0:
316,184,160644,6,0,P|305:230|320:275,2,95.9999970703126,12|0|8,0:0|0:0|0:1,0:0:0:0:
192,140,161158,2,0,P|202:93|187:48,2,95.9999970703126,12|0|8,0:0|0:0|0:1,0:0:0:0:
188,260,161673,2,8,L|97:291,1,95.9999970703126,8|8,0:1|0:1,0:0:0:0:
60,276,161930,6,0,L|49:230,1,47.9999985351563,0|8,0:0|0:1,0:0:0:0:
192,140,162187,1,8,0:1:0:0:
284,240,162358,2,0,P|279:287|254:327,1,95.9999970703126,8|8,0:1|0:1,0:0:0:0:
124,104,162701,1,8,0:1:0:0:
40,185,162872,2,0,P|39:233|60:276,2,95.9999970703126,8|8|0,0:1|0:1|0:1,0:0:0:0:
268,140,163386,21,12,0:0:0:0:
140,224,163560,1,8,0:1:0:0:
208,64,163735,1,8,0:1:0:0:
236,275,163909,1,8,0:1:0:0:
268,140,164083,6,0,P|252:158|240:178,1,47.9999985351563,8|8,0:1|0:1,0:0:0:0:
236,275,164258,2,0,P|243:297|255:318,1,47.9999985351563,8|8,0:1|0:1,0:0:0:0:
336,370,164432,2,0,P|359:374|383:373,1,47.9999985351563,8|8,0:1|0:1,0:0:0:0:
468,330,164607,2,0,P|483:311|495:291,1,47.9999985351563,8|8,0:1|0:1,0:0:0:0:
499,195,164781,2,0,P|491:172|479:151,3,47.9999985351563,8|8|8|8,0:1|0:1|0:1|0:1,0:0:0:0:
440,120,165130,2,0,P|416:115|392:115,3,47.9999985351563,8|8|8|8,0:1|0:1|0:1|0:1,0:0:0:0:
344,44,165479,38,0,P|356:101|324:149,1,120.000004577637,10|0,0:0|0:0,0:0:0:0:
323,149,166191,54,0,L|456:167,1,132.00000402832,14|8,0:0|0:1,0:0:0:0:
487,141,166534,1,8,0:0:0:0:
431,31,166706,2,0,L|344:43,1,88.000002685547,8|0,0:1|0:0,0:0:0:0:
176,56,167048,1,8,0:1:0:0:
176,56,167220,2,0,P|179:99|203:135,1,88.000002685547,8|8,0:0|0:1,0:0:0:0:
292,264,167562,22,0,P|248:259|206:270,1,88.000002685547,8|0,0:1|0:0,0:0:0:0:
206,270,167820,1,8,0:1:0:0:
206,270,167906,1,8,0:0:0:0:
80,304,168077,2,0,L|93:217,1,88.000002685547,8|8,0:1|0:1,0:0:0:0:
206,270,168420,1,8,0:1:0:0:
184,384,168591,1,8,0:0:0:0:
93,216,168763,1,0,0:0:0:0:
277,132,168934,6,0,L|292:264,1,132.00000402832,8|8,0:1|0:1,0:0:0:0:
356,312,169277,2,0,P|372:271|368:228,1,88.000002685547,8|8,0:0|0:1,0:0:0:0:
164,248,169620,2,0,P|159:291|176:331,2,88.000002685547,0|8|8,0:0|0:1|0:0,0:0:0:0:
292,264,170134,1,8,0:1:0:0:
296,120,170306,6,0,L|208:131,1,88.000002685547,8|0,0:1|0:0,0:0:0:0:
208,132,170563,1,8,0:1:0:0:
208,132,170648,1,8,0:0:0:0:
76,236,170820,2,0,L|164:248,1,88.000002685547,8|8,0:1|0:1,0:0:0:0:
148,32,171163,1,8,0:1:0:0:
60,144,171334,1,10,0:0:0:0:
208,132,171506,1,8,0:1:0:0:
236,288,171677,6,0,P|187:330|123:324,1,132.00000402832,10|8,0:0|0:1,0:0:0:0:
88,296,172020,2,0,L|97:383,1,88.000002685547,8|8,0:0|0:1,0:0:0:0:
272,316,172363,2,0,L|281:228,1,88.000002685547,0|8,0:0|0:1,0:0:0:0:
284,184,172620,1,0,0:0:0:0:
284,184,172706,1,8,0:0:0:0:
388,104,172877,1,8,0:1:0:0:
493,242,173048,22,0,P|450:251|409:236,1,88.000002685547,0|0,0:1|0:0,0:0:0:0:
385,274,173305,2,0,L|395:316,1,44.0000013427735,8|8,0:1|0:0,0:0:0:0:
453,162,173563,1,0,0:1:0:0:
284,184,173734,1,0,0:0:0:0:
409,236,173906,1,8,0:1:0:0:
268,85,174077,1,8,0:0:0:0:
232,260,174248,1,0,0:0:0:0:
368,128,174420,6,0,P|366:84|353:42,1,88.000002685547,8|0,0:1|0:0,0:0:0:0:
353,42,174677,1,0,0:0:0:0:
353,42,174763,1,8,0:0:0:0:
176,40,174934,2,0,P|163:81|161:125,1,88.000002685547,8|0,0:1|0:0,0:0:0:0:
232,260,175277,2,0,L|145:275,1,88.000002685547,8|8,0:1|0:0,0:0:0:0:
145,275,175620,1,0,0:0:0:0:
240,168,175791,5,8,0:0:0:0:
88,184,175963,1,8,0:0:0:0:
320,216,176134,1,8,0:0:0:0:
270,74,176306,1,8,0:0:0:0:
216,320,176477,2,0,L|224:364,3,44.0000013427735,8|8|8|8,0:1|0:1|0:1|0:1,0:0:0:0:
145,275,176820,2,0,L|153:231,3,44.0000013427735,8|8|8|8,0:1|0:1|0:1|0:1,0:0:0:0:
145,275,177163,6,0,L|14:266,1,132.00000402832,6|8,0:0|0:1,0:0:0:0:
28,224,177506,2,0,P|16:182|28:140,1,88.000002685547,10|0,0:0|0:0,0:0:0:0:
228,124,177848,1,2,0:0:0:0:
152,231,178020,2,0,L|171:316,1,88.000002685547,0|10,0:0|0:0,0:0:0:0:
308,224,178363,1,0,0:0:0:0:
308,224,178448,1,0,0:0:0:0:
308,224,178534,22,0,P|320:182|316:138,1,88.000002685547,2|0,0:0|0:0,0:0:0:0:
288,48,178791,1,8,0:1:0:0:
288,48,178877,2,0,L|375:54,1,88.000002685547,10|0,0:0|0:0,0:0:0:0:
480,144,179220,1,2,0:0:0:0:
316,138,179391,1,0,0:0:0:0:
396,252,179563,1,10,0:0:0:0:
316,138,179734,1,8,0:1:0:0:
204,292,179906,6,0,L|333:318,1,132.00000402832,2|8,0:0|0:1,0:0:0:0:
376,328,180248,1,10,0:0:0:0:
292,220,180420,1,8,0:1:0:0:
157,359,180591,2,0,P|128:326|122:284,1,88.000002685547,2|8,0:0|0:1,0:0:0:0:
122,284,180848,1,0,0:0:0:0:
122,284,180934,1,10,0:0:0:0:
200,160,181106,1,0,0:0:0:0:
40,112,181277,6,0,L|50:199,1,88.000002685547,2|0,0:0|0:0,0:0:0:0:
50,199,181534,1,8,0:1:0:0:
50,199,181620,1,10,0:0:0:0:
232,240,181791,1,8,0:1:0:0:
111,371,181963,2,0,L|121:283,1,88.000002685547,2|8,0:0|0:1,0:0:0:0:
294,86,182306,1,10,0:0:0:0:
294,86,182391,1,8,0:1:0:0:
294,86,182477,1,8,0:0:0:0:
294,86,182563,1,8,0:1:0:0:
294,86,182648,6,0,L|162:99,1,132.00000402832,6|8,0:0|0:1,0:0:0:0:
130,70,182991,1,10,0:0:0:0:
50,199,183163,2,0,L|137:205,1,88.000002685547,8|2,0:1|0:0,0:0:0:0:
294,86,183506,1,8,0:1:0:0:
376,239,183677,2,0,L|244:252,1,132.00000402832,10|0,0:0|0:0,0:0:0:0:
216,284,184019,22,0,B|208:335|208:335|228:365,1,88.000002685547,2|0,0:0|0:0,0:0:0:0:
333,331,184362,1,10,0:0:0:0:
332,160,184533,1,0,0:0:0:0:
157,236,184705,2,0,B|244:252,1,88.000002685547,2|8,0:0|0:1,0:0:0:0:
240,116,185048,1,10,0:0:0:0:
240,116,185219,1,8,0:1:0:0:
404,192,185390,6,0,L|396:280,1,88.000002685547,10|8,0:0|0:1,0:0:0:0:
395,280,185643,1,0,0:0:0:0:
395,280,185727,1,8,0:0:0:0:
512,208,185895,1,8,0:1:0:0:
512,208,185980,1,8,0:1:0:0:
512,208,186064,2,0,L|504:164,3,44.0000013427735,10|0|0|0,0:0|0:0|0:0|0:0,0:0:0:0:
460,80,186401,2,0,L|417:69,3,44.0000013427735,8|8|0|0,0:0|0:1|0:0|0:0,0:0:0:0:
332,24,186738,5,8,0:0:0:0:
326,58,186822,1,0,0:0:0:0:
320,92,186907,1,8,0:1:0:0:
314,126,186991,1,0,0:0:0:0:
308,160,187075,1,0,0:0:0:0:
302,194,187159,1,0,0:0:0:0:
296,228,187244,1,8,0:0:0:0:
290,262,187328,1,0,0:0:0:0:
284,296,187412,6,0,L|240:302,1,44.0000013427735,8|0,0:1|0:0,0:0:0:0:
152,212,187581,2,0,L|195:218,1,44.0000013427735,0|0,0:0|0:0,0:0:0:0:
139,122,187749,2,0,L|95:128,1,44.0000013427735,8|0,0:0|0:0,0:0:0:0:
63,286,187918,2,0,L|106:292,1,44.0000013427735,8|0,0:0|0:0,0:0:0:0:
0,208,188086,5,14,0:0:0:0:
279,291,196370,70,0,P|266:318|247:341,2,60.0000022888184,2|2|2,0:0|0:0|0:0,0:0:0:0:
322,217,196873,2,0,P|324:246|319:276,2,60.0000022888184,2|2|2,0:0|0:0|0:0,0:0:0:0:
323,131,197376,2,0,P|340:155|350:183,2,60.0000022888184,2|2|2,0:0|0:0|0:0,0:0:0:0:
280,56,197879,2,0,P|307:68|330:87,2,60.0000022888184,2|2|2,0:0|0:0|0:0,0:0:0:0:
108,20,198381,6,0,P|93:110|185:107,1,210.000008010865,0|0,0:0|0:0,0:0:0:0:
185,107,199051,6,0,L|170:193,1,88.000002685547,12|0,0:0|0:0,0:0:0:0:
170,193,199308,1,0,1:0:0:0:
170,193,199394,1,8,1:1:0:0:
90,267,199566,1,0,1:0:0:0:
205,349,199736,1,8,1:0:0:0:
205,349,199822,2,0,P|245:331|288:329,1,88.000002685547,0|0,1:0|0:0,0:0:0:0:
401,356,200080,2,0,P|395:334|385:315,1,44.0000013427735,8|0,1:1|0:0,0:0:0:0:
455,259,200251,2,0,P|445:239|432:221,1,44.0000013427735,0|0,0:0|1:0,0:0:0:0:
359,133,200423,6,0,P|402:137|443:121,1,88.000002685547,8|0,1:1|1:0,0:0:0:0:
455,85,200680,1,0,0:0:0:0:
455,85,200766,2,0,L|441:43,3,44.0000013427735,8|0|0|0,1:1|1:0|0:0|0:0,0:0:0:0:
416,12,201108,1,8,1:1:0:0:
377,4,201194,1,0,0:0:0:0:
340,19,201280,1,0,1:0:0:0:
322,54,201366,1,0,0:0:0:0:
328,92,201451,2,0,L|284:87,3,44.0000013427735,8|0|0|0,1:1|1:0|1:0|1:0,0:0:0:0:
227,29,201794,6,0,L|241:116,1,88.000002685547,12|0,1:0|0:0,0:0:0:0:
221,152,202051,1,0,1:0:0:0:
221,152,202136,2,0,P|198:147|178:139,1,44.0000013427735,8|0,1:1|0:0,0:0:0:0:
75,77,202308,2,0,P|95:68|116:64,1,44.0000013427735,0|0,1:0|0:0,0:0:0:0:
104,208,202479,1,8,1:0:0:0:
104,208,202565,2,0,P|60:207|17:195,1,88.000002685547,0|0,1:0|0:0,0:0:0:0:
52,304,202822,2,0,P|57:325|59:347,1,44.0000013427735,8|8,1:0|1:0,0:0:0:0:
152,384,202994,2,0,P|157:362|159:340,1,44.0000013427735,0|0,1:0|1:0,0:0:0:0:
239,271,203166,22,0,L|325:254,1,88.000002685547,8|0,1:1|1:0,0:0:0:0:
355,283,203423,1,0,0:0:0:0:
355,283,203508,2,0,L|344:325,3,44.0000013427735,8|0|0|0,1:1|1:0|1:0|1:0,0:0:0:0:
375,349,203851,1,8,1:1:0:0:
413,359,203937,1,0,1:0:0:0:
449,344,204023,1,0,1:0:0:0:
471,311,204108,1,0,1:0:0:0:
461,272,204194,2,0,L|450:229,3,44.0000013427735,0|0|0|0,1:0|1:0|1:0|1:0,0:0:0:0:
471,153,204536,6,0,P|436:179|393:179,1,88.000002685547,12|0,1:0|0:0,0:0:0:0:
292,124,204794,1,0,1:0:0:0:
280,140,204881,2,0,L|290:182,1,44.0000013427735,8|0,1:1|0:0,0:0:0:0:
355,283,205053,2,0,L|344:325,1,44.0000013427735,0|0,1:0|0:0,0:0:0:0:
224,332,205225,1,8,1:1:0:0:
210,331,205312,1,0,1:0:0:0:
200,321,205398,1,0,1:0:0:0:
203,308,205484,1,0,1:0:0:0:
214,301,205570,2,0,L|203:258,1,44.0000013427735,8|0,1:1|0:0,0:0:0:0:
127,131,205743,2,0,L|116:173,1,44.0000013427735,0|0,1:0|0:0,0:0:0:0:
48,280,205915,6,0,P|68:288|92:292,1,44.0000013427735,8|0,1:1|0:0,0:0:0:0:
203,258,206087,2,0,P|223:249|244:246,1,44.0000013427735,0|0,1:0|0:0,0:0:0:0:
355,283,206260,2,0,P|363:262|366:241,1,44.0000013427735,8|0,1:1|0:0,0:0:0:0:
296,136,206432,2,0,P|287:115|284:94,1,44.0000013427735,0|0,1:0|0:0,0:0:0:0:
440,72,206605,2,0,P|435:93|427:113,1,44.0000013427735,8|0,1:1|1:0,0:0:0:0:
476,236,206777,2,0,P|479:257|488:280,1,44.0000013427735,0|0,1:0|1:0,0:0:0:0:
355,283,206950,2,0,P|351:304|343:324,1,44.0000013427735,8|0,1:1|1:0,0:0:0:0:
215,300,207122,2,0,P|206:279|203:258,1,44.0000013427735,0|0,1:0|1:0,0:0:0:0:
123,155,207294,5,8,1:1:0:0:
123,155,207381,1,0,0:0:0:0:
123,155,207467,1,0,1:0:0:0:
123,155,207553,1,0,0:0:0:0:
123,155,207639,2,0,P|140:141|152:123,3,44.0000013427735,8|0|0|0,1:1|1:0|1:0|1:0,0:0:0:0:
110,40,207984,2,0,P|88:35|67:35,1,44.0000013427735,8|0,1:1|0:0,0:0:0:0:
235,51,208156,2,0,P|218:35|200:25,1,44.0000013427735,0|0,1:0|1:0,0:0:0:0:
337,123,208329,2,0,P|330:101|319:83,1,44.0000013427735,8|0,1:1|0:0,0:0:0:0:
389,236,208501,2,0,P|393:213|394:192,1,44.0000013427735,0|0,1:0|0:0,0:0:0:0:
219,191,208674,21,8,0:0:0:0:
219,191,208760,1,0,0:0:0:0:
219,191,208846,1,0,0:0:0:0:
219,191,208932,1,0,0:0:0:0:
219,191,209018,2,0,P|204:207|195:227,3,44.0000013427735,8|0|0|0,0:0|0:0|0:0|0:0,0:0:0:0:
235,323,209363,2,0,P|256:327|278:328,1,44.0000013427735,8|0,0:0|0:0,0:0:0:0:
348,253,209536,2,0,P|368:246|388:236,1,44.0000013427735,0|0,0:0|0:0,0:0:0:0:
253,345,209708,2,0,P|273:338|293:328,1,44.0000013427735,8|0,0:0|0:0,0:0:0:0:
339,243,209881,2,0,P|353:226|365:208,1,44.0000013427735,0|0,0:0|0:0,0:0:0:0:
244,108,210053,6,0,P|272:71|318:59,1,95.9999970703126,6|0,0:0|0:0,0:0:0:0:
392,108,210312,1,0,0:0:0:0:
392,108,210398,2,0,L|488:100,1,95.9999970703126,10|8,0:0|0:1,0:0:0:0:
416,0,210743,1,2,0:0:0:0:
366,208,210915,1,8,0:1:0:0:
318,59,211087,1,10,0:2:0:0:
487,100,211260,1,8,0:1:0:0:
487,100,211346,1,0,0:0:0:0:
487,100,211432,6,0,L|502:194,1,95.9999970703126,2|0,0:0|0:0,0:0:0:0:
484,240,211691,1,0,0:0:0:0:
484,240,211777,1,10,0:0:0:0:
320,184,211950,1,8,0:1:0:0:
380,356,212122,2,0,P|394:310|386:264,1,95.9999970703126,2|8,0:0|0:1,0:0:0:0:
176,336,212467,2,0,L|271:343,1,95.9999970703126,10|8,0:0|0:1,0:0:0:0:
304,308,212725,1,0,0:0:0:0:
304,308,212812,5,2,0:0:0:0:
112,260,212984,1,0,0:0:0:0:
272,164,213156,2,0,L|176:171,1,95.9999970703126,10|8,0:0|0:1,0:0:0:0:
132,64,213501,1,2,0:0:0:0:
272,164,213674,1,8,0:1:0:0:
352,96,213846,1,10,0:0:0:0:
412,272,214018,2,0,L|365:260,1,47.9999985351563,8|0,0:1|0:0,0:0:0:0:
247,304,214191,22,0,P|276:340|322:348,1,95.9999970703126,2|0,0:0|0:0,0:0:0:0:
371,356,214450,1,0,0:0:0:0:
371,356,214536,2,0,L|365:260,1,95.9999970703126,10|8,0:0|0:1,0:0:0:0:
272,64,214881,2,0,L|288:109,1,47.9999985351563,2|8,0:0|0:1,0:0:0:0:
384,73,215053,2,0,L|393:26,1,47.9999985351563,8|8,0:1|0:1,0:0:0:0:
312,196,215225,1,10,0:0:0:0:
274,200,215312,1,8,0:1:0:0:
237,186,215398,1,8,0:1:0:0:
210,158,215484,1,8,0:1:0:0:
200,119,215570,6,0,L|108:146,1,95.9999970703126,6|0,0:0|0:0,0:0:0:0:
88,180,215823,1,0,0:0:0:0:
88,180,215907,1,10,0:0:0:0:
32,60,216075,1,8,0:1:0:0:
211,23,216244,2,0,L|199:118,1,95.9999970703126,2|8,0:0|0:1,0:0:0:0:
352,180,216581,2,0,P|365:134|355:87,1,95.9999970703126,10|8,0:0|0:1,0:0:0:0:
316,56,216834,1,0,0:0:0:0:
316,56,216918,5,2,0:0:0:0:
272,220,217087,1,8,0:1:0:0:
440,76,217255,1,10,0:0:0:0:
276,133,217424,1,8,0:1:0:0:
441,224,217592,1,2,0:0:0:0:
188,252,217761,1,0,0:0:0:0:
352,180,217929,1,10,0:0:0:0:
294,365,218098,1,8,0:0:0:0:
188,252,218266,6,0,L|199:206,3,47.9999985351563,10|0|0|0,0:0|0:0|0:0|0:0,0:0:0:0:
172,164,218603,2,0,L|204:129,3,47.9999985351563,10|0|0|0,0:0|0:0|0:0|0:0,0:0:0:0:
202,80,218940,2,0,L|247:66,3,47.9999985351563,10|0|0|0,0:0|0:0|0:0|0:0,0:0:0:0:
270,22,219277,2,0,L|315:33,3,47.9999985351563,10|0|0|0,0:0|0:0|0:0|0:0,0:0:0:0:
348,72,219615,22,0,L|340:120,1,47.9999985351563,10|0,0:0|0:0,0:0:0:0:
424,164,219783,2,0,L|432:212,1,47.9999985351563,0|0,0:0|0:0,0:0:0:0:
284,200,219952,2,0,L|276:248,1,47.9999985351563,10|0,0:0|0:0,0:0:0:0:
368,284,220120,2,0,L|376:332,1,47.9999985351563,0|0,0:0|0:0,0:0:0:0:
275,372,220289,5,10,0:0:0:0:
229,379,220373,1,0,0:0:0:0:
184,363,220457,1,8,0:1:0:0:
150,328,220542,1,8,0:1:0:0:
135,283,220626,1,10,0:0:0:0:
141,235,220710,1,8,0:1:0:0:
167,195,220794,1,8,0:1:0:0:
208,170,220879,1,8,0:1:0:0:
256,165,220963,5,12,0:0:0:0:
