osu file format v14

[General]
AudioFilename: audio.mp3
AudioLeadIn: 0
PreviewTime: 99808
Countdown: 0
SampleSet: Soft
StackLeniency: 0.5
Mode: 0
LetterboxInBreaks: 0
EpilepsyWarning: 1
WidescreenStoryboard: 1

[Editor]
Bookmarks: 1602,23538,35428,78396,100338,133253,166167,188110,199081,221024,234738
DistanceSpacing: 1.4
BeatDivisor: 4
GridSize: 8
TimelineZoom: 1.6

[Metadata]
Title:haze
TitleUnicode:haze
Artist:TK from Ling tosite sigure
ArtistUnicode:TK from 凛として時雨
Creator:Ametrin
Version:Hard
Source:
Tags:flowering misure
BeatmapID:1273272
BeatmapSetID:568305

[Difficulty]
HPDrainRate:5.5
CircleSize:4
OverallDifficulty:6
ApproachRate:8
SliderMultiplier:1.5
SliderTickRate:1

[Events]
//Background and Video events
0,0,"BG.jpg",0,0
//Break Periods
2,78557,88381
2,100516,110467
//Storyboard Layer 0 (Background)
//Storyboard Layer 1 (Fail)
//Storyboard Layer 2 (Pass)
//Storyboard Layer 3 (Foreground)
Sprite,Foreground,Centre,"SB\highlight.png",320,240 M,0,133263,133757,152,143 F,0,133263,133757,1,0 C,0,133263,133757,0,204,255 P,0,133263,133757,A
Sprite,Foreground,Centre,"SB\highlight.png",320,240 M,0,135968,136488,572,215 F,0,135968,136488,1,0 C,0,135968,136488,61,119,255 P,0,135968,136488,A
Sprite,Foreground,Centre,"SB\highlight.png",320,240 M,0,138733,139245,75,132 F,0,138733,139245,1,0 C,0,138733,139245,0,204,255 P,0,138733,139245,A
Sprite,Foreground,Centre,"SB\highlight.png",320,240 M,0,141468,141980,330,176 F,0,141468,141980,1,0 C,0,141468,141980,61,119,255 P,0,141468,141980,A
Sprite,Foreground,Centre,"SB\highlight.png",320,240 M,0,144203,144718,465,195 F,0,144203,144718,1,0 C,0,144203,144718,0,204,255 P,0,144203,144718,A
Sprite,Foreground,Centre,"SB\highlight.png",320,240 M,0,144718,145234,352,183 F,0,144718,145234,1,0 C,0,144718,145234,0,204,255 P,0,144718,145234,A
Sprite,Foreground,Centre,"SB\highlight.png",320,240 M,0,146953,147469,355,284 F,0,146953,147469,1,0 C,0,146953,147469,61,119,255 P,0,146953,147469,A
Sprite,Foreground,Centre,"SB\highlight.png",320,240 M,0,147469,147985,522,411 F,0,147469,147985,1,0 C,0,147469,147985,61,119,255 P,0,147469,147985,A
Sprite,Foreground,Centre,"SB\highlight.png",320,240 M,0,147985,148500,484,237 F,0,147985,148500,1,0 C,0,147985,148500,61,119,255 P,0,147985,148500,A
Sprite,Foreground,Centre,"SB\highlight.png",320,240 M,0,149704,150215,210,168 F,0,149704,150215,1,0 C,0,149704,150215,0,204,255 P,0,149704,150215,A
Sprite,Foreground,Centre,"SB\highlight.png",320,240 M,0,150215,150726,210,443 F,0,150215,150726,1,0 C,0,150215,150726,0,204,255 P,0,150215,150726,A
Sprite,Foreground,Centre,"SB\highlight.png",320,240 M,0,152431,152942,460,258 F,0,152431,152942,1,0 C,0,152431,152942,61,119,255 P,0,152431,152942,A
Sprite,Foreground,Centre,"SB\highlight.png",320,240 M,0,152942,153454,236,209 F,0,152942,153454,1,0 C,0,152942,153454,61,119,255 P,0,152942,153454,A
Sprite,Foreground,Centre,"SB\highlight.png",320,240 M,0,155158,155672,286,142 F,0,155158,155672,1,0 C,0,155158,155672,0,204,255 P,0,155158,155672,A
Sprite,Foreground,Centre,"SB\highlight.png",320,240 M,0,155672,156186,513,137 F,0,155672,156186,1,0 C,0,155672,156186,0,204,255 P,0,155672,156186,A
Sprite,Foreground,Centre,"SB\highlight.png",320,240 M,0,156529,157043,556,349 F,0,156529,157043,1,0 C,0,156529,157043,255,51,0 P,0,156529,157043,A
Sprite,Foreground,Centre,"SB\highlight.png",320,240 M,0,157900,158415,196,366 F,0,157900,158415,1,0 C,0,157900,158415,61,119,255 P,0,157900,158415,A
Sprite,Foreground,Centre,"SB\highlight.png",320,240 M,0,158415,158929,102,193 F,0,158415,158929,1,0 C,0,158415,158929,61,119,255 P,0,158415,158929,A
Sprite,Foreground,Centre,"SB\highlight.png",320,240 M,0,158929,159443,195,366 F,0,158929,159443,1,0 C,0,158929,159443,61,119,255 P,0,158929,159443,A
Sprite,Foreground,Centre,"SB\highlight.png",320,240 M,0,160643,161158,578,354 F,0,160643,161158,1,0 C,0,160643,161158,0,204,255 P,0,160643,161158,A
Sprite,Foreground,Centre,"SB\highlight.png",320,240 M,0,161158,161672,566,124 F,0,161158,161672,1,0 C,0,161158,161672,0,204,255 P,0,161158,161672,A
Sprite,Foreground,Centre,"SB\highlight.png",320,240 M,0,163368,163909,217,179 F,0,163368,163909,1,0 C,0,163368,163909,61,119,255 P,0,163368,163909,A
Sprite,Foreground,Centre,"SB\ring.png",320,240 M,0,166191,166705,130,333 F,0,166191,166705,1,0 S,0,166191,166705,0.5,1.5 C,0,166191,166705,255,255,255 P,0,166191,166705,A
Sprite,Foreground,Centre,"SB\ring.png",320,240 M,0,166191,166705,130,333 F,0,166191,166705,1,0 S,0,166191,166705,0.5,1.5 C,0,166191,166705,255,255,255 P,0,166191,166705,A
Sprite,Foreground,Centre,"SB\ring.png",320,240 M,0,188086,188600,264,382 F,0,188086,188600,0.8,0 S,0,188086,188600,0.5,1.5 C,0,188086,188600,255,255,255 P,0,188086,188600,A
Sprite,Foreground,Centre,"SB\ring.png",320,240 M,0,188086,188600,264,382 F,0,188086,188600,0.8,0 S,0,188086,188600,0.5,1.5 C,0,188086,188600,255,255,255 P,0,188086,188600,A
Sprite,Foreground,Centre,"SB\ring.png",320,240 M,0,190828,191343,172,145 F,0,190828,191343,0.8,0 S,0,190828,191343,0.5,1.5 C,0,190828,191343,255,255,255 P,0,190828,191343,A
Sprite,Foreground,Centre,"SB\ring.png",320,240 M,0,193628,194142,276,268 F,0,193628,194142,0.8,0 S,0,193628,194142,0.5,1.5 C,0,193628,194142,255,255,255 P,0,193628,194142,A
//Storyboard Sound Samples

[TimingPoints]
1606,342.857142857143,4,2,1,20,1,0
1606,-200,4,2,1,20,0,0
12063,-133.333333333333,4,2,1,20,0,0
12577,340.909090909091,4,2,1,30,1,0
12577,-100,4,2,1,30,0,0
15304,344.827586206897,4,2,1,30,1,0
18062,341.880341880342,4,2,1,30,1,0
23532,342.857142857143,4,2,1,30,1,0
23532,-100,4,2,1,30,0,0
45474,-100,4,2,1,40,0,0
56446,340.909090909091,4,2,1,30,1,0
59174,342.857142857143,4,2,1,30,1,0
61916,345.821325648415,4,2,1,30,1,0
64682,342.857142857143,4,2,1,30,1,0
67424,-100,4,2,1,40,0,0
77024,333.333333333333,4,2,1,40,1,0
78357,344.43168771527,4,2,1,40,1,0
89377,341.880341880342,4,2,1,40,1,0
99633,-100,4,2,1,50,0,0
100321,342.857142857143,4,2,1,20,1,0
100321,-200,4,2,1,20,0,0
111292,-133.333333333333,4,2,1,30,0,0
119521,-125,4,2,1,30,0,0
119863,-125,4,2,1,35,0,0
120206,-111.111111111111,4,2,1,40,0,0
120549,-111.111111111111,4,2,1,45,0,0
120892,-100,4,2,1,50,0,0
121235,-100,4,2,1,60,0,0
121578,-90.9090909090909,4,2,1,70,0,0
121921,-90.9090909090909,4,2,1,80,0,0
122263,344.827586206897,4,2,1,20,1,0
122263,-200,4,2,1,20,0,0
127780,-133.333333333333,4,2,1,30,0,0
129849,-100,4,2,1,30,0,0
130538,337.078651685393,4,2,1,40,1,0
130538,-133.333333333333,4,2,1,40,0,0
131043,-133.333333333333,4,2,1,50,0,0
131549,-133.333333333333,4,2,1,60,0,0
132054,-133.333333333333,4,2,1,70,0,0
132560,-200,4,2,1,5,0,0
133263,329.67032967033,4,2,1,40,1,0
134581,346.820809248555,4,2,1,60,1,0
138733,341.880341880342,4,2,1,60,1,0
143861,-100,4,2,1,50,0,0
144203,343.839541547278,4,2,1,50,1,1
149704,340.909090909091,4,2,1,70,1,1
155158,342.857142857143,4,2,1,70,1,1
159615,-100,4,2,1,60,0,1
159958,-100,4,2,1,50,0,1
163386,348.837209302326,4,2,1,50,1,1
163734,-100,4,2,1,55,0,1
164083,-100,4,2,1,60,0,1
164432,-100,4,2,1,65,0,1
164781,-100,4,2,1,70,0,1
165130,-100,4,2,1,75,0,1
165479,-200,4,2,1,60,0,0
166191,342.857142857143,4,2,1,50,1,0
177162,-90.9090909090909,4,2,1,70,0,1
185390,337.078651685393,4,2,1,70,1,1
188086,342.857142857143,4,2,1,40,1,0
188086,-200,4,2,1,40,0,0
193628,342.857142857143,4,2,1,20,1,0
193628,-200,4,2,1,20,0,0
196370,335.195530726257,4,2,1,10,1,0
196370,-200,4,2,1,10,0,0
199051,342.857142857143,4,2,1,60,1,0
199051,-100,4,2,1,60,0,0
204536,344.827586206897,4,2,1,60,1,0
210053,-90.9090909090909,4,2,1,70,0,1
215570,337.078651685393,4,2,1,70,1,1
220963,-90.9090909090909,4,2,1,70,0,0

[Colours]
Combo1 : 255,255,255
Combo2 : 255,51,0
Combo3 : 61,119,255
Combo4 : 255,179,0
Combo5 : 0,204,255

[HitObjects]
253,103,1606,6,0,P|290:99|353:79,1,75,2|0,0:0|0:0,0:0:0:0:
395,59,2120,2,0,L|409:144,1,75,2|0,0:0|0:0,0:0:0:0:
477,160,2634,2,0,L|463:245,1,75,2|0,0:0|0:0,0:0:0:0:
427,299,3148,2,0,P|366:311|335:295,1,75,2|0,0:0|0:0,0:0:0:0:
306,249,3663,1,2,0:0:0:0:
407,133,4006,1,2,0:0:0:0:
487,258,4348,2,0,B|500:292|499:315|499:315|484:347|484:383,1,112.5,2|2,0:0|0:0,0:0:0:0:
372,220,7091,6,0,P|356:284|354:322,1,75,2|0,0:0|0:0,0:0:0:0:
327,363,7606,2,0,P|283:371|231:361,1,75,2|0,0:0|0:0,0:0:0:0:
178,363,8120,2,0,P|189:322|195:265,1,75,2|0,0:0|0:0,0:0:0:0:
258,252,8634,2,0,P|247:211|241:154,1,75,2|0,0:0|0:0,0:0:0:0:
238,103,9148,1,0,0:0:0:0:
123,200,9491,1,2,0:0:0:0:
18,103,9834,2,0,P|53:51|105:34,1,112.5,2|2,0:0|0:0,0:0:0:0:
98,35,12063,6,0,L|109:100,1,56.2500021457673,8|8,0:0|0:0,0:0:0:0:
107,90,12577,6,0,P|155:86|201:74,1,75,8|0,0:1|0:0,0:0:0:0:
264,82,12917,1,8,0:0:0:0:
264,82,13088,2,0,B|279:163|279:251,1,150,0|8,0:1|0:1,0:0:0:0:
226,296,13599,2,0,P|153:302|142:225,1,150,8|0,0:0|0:0,0:0:0:0:
202,192,14111,1,8,0:1:0:0:
278,231,14281,2,0,P|322:234|372:240,1,75,8|0,0:0|0:0,0:0:0:0:
374,157,14622,2,0,P|418:154|468:148,2,75,8|0|8,0:1|0:0|0:0,0:0:0:0:
202,192,15304,22,0,P|202:151|207:100,1,75,8|0,0:1|0:0,0:0:0:0:
190,35,15648,1,8,0:0:0:0:
127,88,15821,2,0,P|117:173|114:263,1,150,8|8,0:1|0:1,0:0:0:0:
106,319,16338,2,0,B|179:296|192:331|259:311,1,150,8|0,0:0|0:0,0:0:0:0:
320,265,16855,1,8,0:1:0:0:
389,309,17028,2,0,P|399:344|400:382,1,75,8|0,0:0|0:0,0:0:0:0:
452,260,17372,2,0,P|471:235|510:216,2,75,8|8|8,0:1|0:1|0:0,0:0:0:0:
311,172,18062,6,0,P|266:168|231:154,1,75,8|0,0:1|0:0,0:0:0:0:
231,75,18403,1,8,0:0:0:0:
305,39,18574,2,0,P|392:82|391:142,1,150,8|8,0:1|0:1,0:0:0:0:
477,140,19087,2,0,P|456:203|444:291,1,150,8|0,0:0|0:0,0:0:0:0:
466,365,19600,1,8,0:1:0:0:
386,345,19771,2,0,B|343:336|304:338,1,75,8|0,0:0|0:0,0:0:0:0:
231,358,20113,2,0,P|192:363|143:360,2,75,8|8|8,0:1|0:1|0:0,0:0:0:0:
339,208,20797,6,0,P|347:167|347:119,1,75,8|0,0:1|0:0,0:0:0:0:
308,61,21138,1,8,0:0:0:0:
243,113,21309,2,0,P|182:96|152:20,1,150,8|8,0:1|0:1,0:0:0:0:
232,33,21822,2,0,B|282:24|282:24|333:40|333:40|393:30,1,150,8|0,0:0|0:0,0:0:0:0:
455,9,22335,1,8,0:1:0:0:
484,86,22506,2,0,P|482:146|461:175,1,75,10|8,0:0|0:0,0:0:0:0:
406,207,22848,1,8,0:0:0:0:
406,207,22933,1,0,0:0:0:0:
406,207,23019,2,0,L|409:266,2,37.5,0|0|8,0:0|0:0|0:0,0:0:0:0:
323,173,23361,2,0,L|320:114,1,37.5
246,194,23532,6,0,L|158:187,1,75,4|0,0:0|0:0,0:0:0:0:
117,250,23874,1,8,0:0:0:0:
117,250,24046,1,8,0:1:0:0:
169,313,24217,2,0,L|259:307,1,75,0|8,0:0|0:1,0:0:0:0:
305,363,24560,2,0,P|327:334|375:309,1,75,8|0,0:0|0:0,0:0:0:0:
368,219,24903,21,8,0:1:0:0:
368,219,25074,2,0,P|410:250|444:261,1,75,8|8,0:1|0:0,0:0:0:0:
512,270,25417,1,0,0:0:0:0:
512,270,25760,1,8,0:1:0:0:
431,257,25932,2,0,P|386:283|362:308,1,75,8|8,0:0|0:1,0:0:0:0:
300,356,26274,6,0,B|237:303|160:317,1,150,8|8,0:1|0:0,0:0:0:0:
85,350,26789,2,0,P|88:269|70:182,1,150,8|8,0:1|0:1,0:0:0:0:
17,144,27303,1,8,0:0:0:0:
17,144,27646,6,0,P|57:189|157:210,1,150,8|8,0:1|0:0,0:0:0:0:
211,159,28160,2,0,L|305:151,2,75,8|0|8,0:1|0:0|0:1,0:0:0:0:
183,80,28674,1,8,0:0:0:0:
257,42,28846,1,8,0:1:0:0:
363,116,29017,6,0,P|360:168|354:206,1,75,8|0,0:1|0:0,0:0:0:0:
337,271,29360,1,8,0:0:0:0:
337,271,29532,1,8,0:1:0:0:
410,307,29703,2,0,P|448:303|485:305,1,75,0|8,0:0|0:1,0:0:0:0:
350,362,30046,2,0,P|307:366|270:364,1,75,8|0,0:0|0:0,0:0:0:0:
205,320,30389,21,8,0:1:0:0:
205,320,30560,2,0,P|202:277|205:218,1,75,8|8,0:1|0:0,0:0:0:0:
242,172,30903,1,8,0:1:0:0:
242,172,31246,1,8,0:1:0:0:
202,245,31417,2,0,P|166:263|121:274,1,75,8|8,0:0|0:1,0:0:0:0:
95,151,31760,6,0,P|175:151|242:172,1,150,8|8,0:1|0:0,0:0:0:0:
313,131,32274,2,0,P|325:76|254:34,1,150,8|8,0:1|0:1,0:0:0:0:
178,71,32789,1,8,0:0:0:0:
178,71,33132,5,8,0:1:0:0:
253,34,33303,2,0,P|292:29|331:31,1,75,8|8,0:1|0:0,0:0:0:0:
406,54,33646,1,8,0:1:0:0:
406,54,33732,1,8,0:1:0:0:
406,54,33817,2,0,L|394:152,1,75,8|8,0:1|0:1,0:0:0:0:
437,200,34160,1,8,0:0:0:0:
486,134,34332,1,8,0:1:0:0:
349,197,34503,6,0,P|313:199|260:205,1,75,8|0,0:1|0:0,0:0:0:0:
213,259,34846,1,8,0:0:0:0:
213,259,35017,1,8,0:1:0:0:
154,198,35189,2,0,P|120:185|83:176,1,75,0|8,0:0|0:1,0:0:0:0:
9,115,35532,2,0,P|46:107|81:94,1,75,8|0,0:0|0:0,0:0:0:0:
139,35,35874,21,8,0:1:0:0:
209,77,36046,2,0,P|221:118|220:153,1,75,8|8,0:1|0:0,0:0:0:0:
154,198,36389,2,0,P|224:168|322:174,1,150,8|8,0:1|0:1,0:0:0:0:
375,191,36903,1,8,0:1:0:0:
375,191,37074,1,8,0:1:0:0:
445,147,37246,6,0,P|454:199|459:304,1,150,8|8,0:1|0:0,0:0:0:0:
399,353,37760,2,0,P|337:314|264:323,1,150,8|8,0:1|0:1,0:0:0:0:
196,370,38274,1,8,0:0:0:0:
196,370,38617,6,0,P|269:297|256:244,1,150,8|8,0:1|0:0,0:0:0:0:
182,250,39132,2,0,P|179:206|183:158,2,75,8|0|8,0:1|0:0|0:1,0:0:0:0:
111,294,39646,1,8,0:0:0:0:
49,239,39817,1,8,0:1:0:0:
123,110,39989,6,0,P|167:102|207:84,1,75,8|0,0:1|0:0,0:0:0:0:
252,31,40332,1,8,0:0:0:0:
252,31,40503,1,8,0:1:0:0:
172,9,40674,2,0,L|82:8,1,75,0|8,0:0|0:1,0:0:0:0:
14,15,41017,2,0,P|20:65|21:106,1,75,8|0,0:0|0:0,0:0:0:0:
1,169,41360,21,8,0:1:0:0:
1,169,41532,2,0,P|36:180|87:179,1,75,8|8,0:1|0:0,0:0:0:0:
154,161,41874,1,8,0:1:0:0:
154,161,42217,1,8,0:1:0:0:
228,197,42389,2,0,P|272:201|323:189,1,75,8|8,0:0|0:1,0:0:0:0:
382,178,42732,22,0,P|368:236|374:338,1,150,8|8,0:1|0:0,0:0:0:0:
434,379,43246,2,0,P|483:338|437:280,1,150,8|8,0:1|0:1,0:0:0:0:
371,325,43760,1,8,0:0:0:0:
371,325,44103,1,8,0:1:0:0:
439,280,44274,1,8,0:1:0:0:
304,376,44446,6,0,P|237:361|152:359,1,150,4|8,0:0|0:0,0:0:0:0:
119,332,44874,1,8,0:0:0:0:
119,332,44960,2,0,L|69:338,2,37.5,8|8|8,0:0|0:0|0:0,0:0:0:0:
180,265,45303,1,8,0:0:0:0:
179,264,45389,1,8,0:0:0:0:
179,264,45474,22,0,L|168:186,1,75,12|0,0:1|0:0,0:0:0:0:
88,179,45817,1,8,0:0:0:0:
169,190,45989,2,0,L|180:112,1,75,8|0,0:1|0:0,0:0:0:0:
260,103,46332,1,8,0:1:0:0:
179,115,46503,2,0,L|168:37,1,75,8|0,0:0|0:0,0:0:0:0:
251,5,46846,6,0,P|293:6|341:19,1,75,8|0,0:1|0:0,0:0:0:0:
407,50,47189,2,0,L|398:145,1,75,8|0,0:0|0:0,0:0:0:0:
372,210,47532,1,8,0:1:0:0:
453,248,47703,2,0,P|474:248|492:244,4,37.5,0|0|8|0|0,0:0|0:0|0:0|0:0|0:0,0:0:0:0:
368,305,48217,22,0,L|287:294,1,75,8|0,0:1|0:0,0:0:0:0:
271,215,48560,1,8,0:0:0:0:
293,294,48732,2,0,L|212:305,1,75,0|8,0:0|0:1,0:0:0:0:
194,383,49074,1,0,0:0:0:0:
218,304,49246,2,0,L|137:293,1,75,8|0,0:0|0:0,0:0:0:0:
121,214,49589,21,8,0:1:0:0:
61,281,49760,2,0,P|55:315|54:332,4,37.5,0|0|8|0|0,0:0|0:0|0:0|0:0|0:0,0:0:0:0:
30,195,50274,2,0,P|44:136|47:95,1,75,8|0,0:1|0:0,0:0:0:0:
0,43,50617,1,8,0:0:0:0:
0,43,50789,1,0,0:0:0:0:
95,57,50960,6,0,P|137:53|189:40,1,75,12|0,0:0|0:0,0:0:0:0:
238,0,51303,1,8,0:0:0:0:
169,46,51474,2,0,L|182:145,1,75,0|8,0:0|0:1,0:0:0:0:
136,191,51817,1,0,0:0:0:0:
178,120,51989,2,0,P|224:116|266:117,1,75,8|0,0:0|0:0,0:0:0:0:
324,169,52332,6,0,P|361:168|398:165,1,75,8|0,0:1|0:0,0:0:0:0:
467,106,52674,2,0,P|462:42|450:11,2,75,8|0|8,0:0|0:0|0:1,0:0:0:0:
502,189,53189,2,0,P|505:221|511:248,4,37.5,0|0|8|0|0,0:0|0:0|0:0|0:0|0:0,0:0:0:0:
427,239,53703,38,0,L|431:339,1,75,8|0,0:1|0:0,0:0:0:0:
493,366,54046,1,8,0:0:0:0:
429,313,54217,2,0,P|392:305|349:316,1,75,0|8,0:0|0:1,0:0:0:0:
305,374,54560,1,0,0:0:0:0:
356,312,54732,2,0,P|344:273|309:238,1,75,8|0,0:0|0:0,0:0:0:0:
350,161,55074,6,0,P|311:146|262:152,1,75,8|0,0:0|0:0,0:0:0:0:
217,80,55417,2,0,P|182:101|156:143,1,75,8|0,0:0|0:0,0:0:0:0:
72,115,55760,2,0,P|60:154|69:202,1,75,8|0,0:0|0:0,0:0:0:0:
90,230,56017,1,0,0:0:0:0:
90,230,56103,6,0,P|146:222|182:223,1,75,8|0,0:0|0:0,0:0:0:0:
202,296,56446,6,0,P|252:302|299:302,1,75,12|0,0:0|0:0,0:0:0:0:
356,260,56786,1,8,0:0:0:0:
356,260,56957,1,8,0:1:0:0:
397,189,57127,2,0,P|399:140|395:103,1,75,0|8,0:0|0:1,0:0:0:0:
334,28,57468,2,0,P|317:61|309:104,1,75,8|0,0:0|0:0,0:0:0:0:
311,181,57809,21,8,0:1:0:0:
236,144,57980,2,0,P|200:137|149:137,1,75,8|8,0:1|0:0,0:0:0:0:
82,158,58321,1,8,0:1:0:0:
82,158,58661,1,8,0:1:0:0:
161,135,58832,2,0,P|169:97|173:48,1,75,8|8,0:0|0:1,0:0:0:0:
60,9,59174,6,0,P|65:63|84:166,1,150,8|8,0:1|0:0,0:0:0:0:
48,232,59688,2,0,P|111:271|125:341,1,150,8|8,0:1|0:1,0:0:0:0:
39,320,60202,1,8,0:0:0:0:
133,224,60374,6,0,B|165:222|189:229|189:229|213:229|238:212|286:228,1,150,8|0,0:0|0:0,0:0:0:0:
318,154,60888,2,0,P|361:199|367:218,1,75,8|0,0:0|0:0,0:0:0:0:
447,201,61231,2,0,P|445:241|445:297,2,75,8|8|8,0:1|0:1|0:0,0:0:0:0:
487,128,61745,1,8,0:1:0:0:
429,70,61916,5,8,0:1:0:0:
429,70,62088,1,0,0:0:0:0:
392,144,62261,2,0,P|357:151|306:153,1,75,8|8,0:0|0:1,0:0:0:0:
241,188,62607,2,0,P|237:225|237:262,1,75,0|8,0:0|0:1,0:0:0:0:
159,197,62953,2,0,P|154:147|146:103,1,75,8|0,0:0|0:0,0:0:0:0:
86,68,63299,21,8,0:1:0:0:
86,68,63472,2,0,P|46:95|22:138,1,75,8|8,0:1|0:0,0:0:0:0:
12,197,63818,1,8,0:1:0:0:
12,197,64163,1,8,0:1:0:0:
33,276,64336,2,0,P|52:318|52:353,1,75,8|8,0:0|0:1,0:0:0:0:
205,276,64682,6,0,P|298:285|364:303,1,150,8|8,0:1|0:0,0:0:0:0:
427,335,65196,2,0,P|476:272|410:224,1,150,8|8,0:1|0:1,0:0:0:0:
401,210,65624,1,0,0:0:0:0:
401,210,65710,6,0,P|361:214|316:216,1,75,8|8,0:0|0:1,0:0:0:0:
290,194,65967,1,0,0:0:0:0:
290,194,66053,6,0,P|250:198|205:200,2,75,8|0|0,0:0|0:0|0:0,0:0:0:0:
337,125,66567,2,0,P|339:84|333:40,1,75,8|0,0:0|0:0,0:0:0:0:
266,4,66910,1,0,0:0:0:0:
217,70,67082,2,0,P|187:80|156:80,3,37.5,8|0|0|0,0:0|0:0|0:0|0:0,0:0:0:0:
138,67,67424,22,0,P|99:64|45:70,1,75,12|0,0:0|0:0,0:0:0:0:
26,149,67766,1,8,0:0:0:0:
77,223,67938,1,0,0:0:0:0:
77,223,68196,2,0,P|129:215|158:198,1,75,8|0,0:1|0:0,0:0:0:0:
228,164,68452,2,0,L|223:271,1,75,8|0,0:0|0:0,0:0:0:0:
223,329,68795,5,8,0:1:0:0:
223,329,68966,1,0,0:0:0:0:
140,364,69139,2,0,P|102:364|50:356,2,75,8|0|8,0:0|0:0|0:1,0:0:0:0:
223,329,69653,2,0,P|249:331|278:338,4,37.5,0|0|8|0|0,0:0|0:0|0:0|0:0|0:0,0:0:0:0:
332,293,70167,6,0,P|385:291|426:283,1,75,8|0,0:1|0:0,0:0:0:0:
495,270,70509,1,8,0:0:0:0:
479,182,70681,1,0,0:0:0:0:
479,182,70852,2,0,P|475:132|477:86,1,75,8|0,0:1|0:0,0:0:0:0:
487,17,71195,1,8,0:0:0:0:
487,17,71366,1,0,0:0:0:0:
487,17,71538,6,0,B|442:43|353:29,1,112.5,8|0,0:1|0:0,0:0:0:0:
332,26,71881,2,0,P|328:59|330:118,1,75,8|0,0:0|0:0,0:0:0:0:
239,118,72224,2,0,P|250:153|267:187,2,75,8|0|8,0:1|0:0|0:0,0:0:0:0:
198,246,72738,1,8,0:1:0:0:
198,246,72910,22,0,P|202:288|198:335,1,75,12|0,0:0|0:0,0:0:0:0:
115,349,73252,1,8,0:0:0:0:
23,332,73424,1,0,0:0:0:0:
23,332,73595,2,0,P|18:289|23:243,1,75,8|0,0:1|0:0,0:0:0:0:
51,173,73938,2,0,P|91:182|138:176,1,75,8|0,0:0|0:0,0:0:0:0:
206,141,74281,5,8,0:1:0:0:
206,141,74452,1,0,0:0:0:0:
288,177,74624,2,0,P|325:174|361:183,1,75,8|0,0:0|0:0,0:0:0:0:
443,221,74882,2,0,P|450:165|460:129,1,75,8|0,0:1|0:0,0:0:0:0:
503,71,75309,1,8,0:0:0:0:
429,19,75481,1,0,0:0:0:0:
429,19,75566,1,0,0:0:0:0:
429,19,75653,6,0,L|349:31,2,75,8|0|8,0:1|0:0|0:0,0:0:0:0:
336,109,76167,2,0,L|262:109,2,75,8|0|8,0:1|0:0|0:1,0:0:0:0:
357,190,76681,2,0,P|421:196|488:202,1,112.5,8|0,0:0|0:0,0:0:0:0:
495,233,77024,6,0,P|502:252|507:284,3,37.5,8|0|0|0,0:0|0:0|0:0|0:0,0:0:0:0:
470,291,77357,2,0,P|471:313|468:336,3,37.5,8|0|0|0,0:0|0:0|0:0|0:0,0:0:0:0:
428,326,77690,2,0,P|389:334|353:347,1,75,8|0,0:0|0:0,0:0:0:0:
283,304,78024,2,0,P|245:313|206:316,2,75,8|0|4,0:0|0:0|0:0,0:0:0:0:
40,208,89206,21,0,0:0:0:0:
40,208,89378,2,0,P|89:205|123:208,1,75,8|0,0:1|0:0,0:0:0:0:
196,192,89718,2,0,P|203:255|190:306,1,112.5,8|0,0:1|0:0,0:0:0:0:
176,340,90060,2,0,P|226:341|274:348,1,75,8|0,0:1|0:0,0:0:0:0:
324,379,90402,1,8,0:1:0:0:
396,313,90573,6,0,P|400:275|398:238,1,75,8|0,0:0|0:0,0:0:0:0:
475,179,90915,2,0,P|472:141|477:104,1,75,8|0,0:0|0:0,0:0:0:0:
438,31,91257,1,0,0:0:0:0:
438,31,91342,1,0,0:0:0:0:
438,31,91428,6,0,P|401:60|354:78,1,75
293,78,91770,1,8,0:1:0:0:
236,18,91941,1,8,0:1:0:0:
199,105,92112,6,0,P|193:141|198:206,1,75,8|0,0:1|0:0,0:0:0:0:
165,257,92453,2,0,P|115:221|56:209,1,112.5,8|0,0:1|0:0,0:0:0:0:
24,210,92795,2,0,P|18:246|23:311,1,75,8|0,0:1|0:0,0:0:0:0:
68,349,93137,1,8,0:1:0:0:
220,339,93308,22,0,L|295:333,1,75,8|0,0:0|0:0,0:0:0:0:
165,257,93650,2,0,L|90:250,1,75,8|0,0:0|0:0,0:0:0:0:
223,198,93992,2,8,L|278:195,2,37.5,8|8|8,0:1|0:1|0:1,0:1:0:0:
167,137,94334,2,8,L|112:134,2,37.5,8|8|8,0:1|0:1|0:1,0:1:0:0:
212,67,94676,1,8,0:1:0:0:
327,147,94847,6,0,P|340:192|341:241,1,75,8|0,0:1|0:0,0:0:0:0:
406,272,95188,2,0,P|425:207|453:157,1,112.5,8|0,0:1|0:0,0:0:0:0:
477,141,95530,2,0,P|490:186|491:235,2,75,8|0|8,0:1|0:0|0:1,0:0:0:0:
422,58,96043,6,0,P|387:55|336:23,1,75,8|0,0:0|0:0,0:0:0:0:
254,45,96385,1,8,0:0:0:0:
254,45,96556,2,0,P|196:35|160:41,1,75,8|0,0:0|0:0,0:0:0:0:
100,93,96898,6,8,P|96:116|97:142,3,37.5,8|8|8|8,0:1|0:1|0:1|0:1,0:1:0:0:
57,159,97240,2,8,P|61:182|60:208,3,37.5,8|8|8|8,0:1|0:1|0:1|0:1,0:1:0:0:
35,237,97582,22,0,P|67:278|80:309,1,75,8|0,0:1|0:0,0:0:0:0:
155,276,97924,2,0,P|209:293|278:289,1,112.5,8|0,0:1|0:0,0:0:0:0:
304,283,98265,2,0,P|336:324|349:355,1,75,8|0,0:1|0:0,0:0:0:0:
428,340,98607,1,8,0:1:0:0:
499,280,98778,6,0,B|463:241|411:247|411:247|469:151|414:75|339:48|266:89|224:158|283:233,1,487.5,8|0,0:0|0:0,0:0:0:0:
276,258,99975,2,0,P|257:256|197:270,2,75,8|8|8,0:1|0:1|0:1,0:0:0:0:
93,98,111292,6,0,L|110:171,1,56.2500021457673,8|0,0:1|0:0,0:0:0:0:
58,216,111635,2,0,L|73:297,1,56.2500021457673,8|0,0:1|0:0,0:0:0:0:
58,349,111978,1,8,0:1:0:0:
58,349,112149,1,0,0:0:0:0:
133,326,112321,2,0,P|158:318|198:319,1,56.2500021457673,8|0,0:1|0:0,0:0:0:0:
270,262,112663,6,0,P|293:282|327:296,1,56.2500021457673,8|0,0:1|0:0,0:0:0:0:
395,295,113006,2,0,P|385:321|379:348,1,56.2500021457673,8|0,0:1|0:0,0:0:0:0:
469,320,113349,2,0,P|462:252|426:223,1,112.500004291535,8|8,0:1|0:1,0:0:0:0:
359,190,113863,1,8,0:1:0:0:
451,114,114035,22,0,P|478:109|506:107,1,56.2500021457673,8|0,0:1|0:0,0:0:0:0:
393,62,114378,2,0,P|365:66|337:68,1,56.2500021457673,8|0,0:1|0:0,0:0:0:0:
264,39,114721,1,8,0:1:0:0:
264,39,114892,1,0,0:0:0:0:
212,98,115063,2,0,P|207:136|212:176,1,56.2500021457673,8|0,0:1|0:0,0:0:0:0:
160,233,115406,6,0,P|182:272|188:309,1,56.2500021457673,8|0,0:1|0:0,0:0:0:0:
172,360,115749,2,0,P|145:351|104:350,1,56.2500021457673,8|0,0:1|0:0,0:0:0:0:
40,367,116092,2,0,P|34:290|26:234,1,112.500004291535,8|8,0:1|0:1,0:0:0:0:
73,189,116606,1,8,0:1:0:0:
160,233,116778,6,0,P|211:221|239:222,1,56.2500021457673,8|0,0:1|0:0,0:0:0:0:
274,271,117121,2,0,P|307:267|347:269,1,56.2500021457673,8|0,0:1|0:0,0:0:0:0:
404,293,117463,1,8,0:1:0:0:
404,293,117635,1,0,0:0:0:0:
470,251,117806,2,0,P|476:207|468:177,1,56.2500021457673,8|8,0:1|0:1,0:0:0:0:
415,142,118149,6,0,P|384:136|339:137,1,56.2500021457673,8|0,0:1|0:0,0:0:0:0:
244,68,118492,2,0,P|271:72|299:73,1,56.2500021457673,8|0,0:1|0:0,0:0:0:0:
180,125,118835,2,0,P|149:119|104:120,1,56.2500021457673,8|0,0:1|0:0,0:0:0:0:
9,50,119178,2,0,P|36:54|64:55,1,56.2500021457673,8|8,0:1|0:1,0:0:0:0:
104,54,119435,1,0,0:0:0:0:
104,54,119521,22,0,L|83:140,1,60,8|8,0:1|0:1,0:0:0:0:
73,184,119863,1,8,0:1:0:0:
73,184,120035,1,8,0:1:0:0:
213,264,120206,6,0,L|191:173,1,67.4999979400635,8|8,0:1|0:1,0:0:0:0:
180,125,120549,1,8,0:1:0:0:
180,125,120721,1,8,0:1:0:0:
332,52,120892,6,0,L|307:157,1,75,8|8,0:1|0:1,0:0:0:0:
299,198,121235,1,8,0:1:0:0:
299,198,121406,1,8,0:1:0:0:
449,292,121578,6,0,L|422:183,1,82.5000025177003,8|8,0:1|0:1,0:0:0:0:
408,123,121921,1,8,0:1:0:0:
408,123,122092,1,8,0:1:0:0:
408,123,122263,6,0,P|328:119|259:81,1,150,4|2,0:0|0:0,0:0:0:0:
85,221,123642,2,0,P|165:217|234:179,1,150,2|2,0:0|0:0,0:0:0:0:
51,75,125021,2,0,P|72:142|85:227,1,150,2|2,0:0|0:0,0:0:0:0:
192,331,126400,2,0,P|203:256|225:185,1,150,2|2,0:0|0:0,0:0:0:0:
326,54,127780,6,0,P|284:63|208:62,1,112.500004291535,8|0,0:1|0:0,0:0:0:0:
136,49,128297,2,0,P|129:83|127:122,2,56.2500021457673
46,178,128987,6,0,P|61:239|63:256,1,56.2500021457673
73,309,129331,2,0,P|119:317|151:314,1,56.2500021457673
214,348,129676,1,0,0:0:0:0:
214,348,129763,1,0,0:0:0:0:
214,348,129849,5,2,0:0:0:0:
237,261,130021,1,2,0:0:0:0:
259,173,130194,2,2,P|295:176|325:198,1,75
256,192,130538,12,0,132560,0:0:0:0:
88,87,133263,6,0,P|136:103|137:168,1,112.5,8|0,0:1|0:0,0:0:0:0:
144,159,133592,2,0,P|201:162|238:160,1,75,8|8,0:1|0:1,0:0:0:0:
337,108,133922,1,8,0:1:0:0:
337,108,134087,1,8,0:1:0:0:
299,181,134252,2,0,P|288:231|286:273,1,75,8|0,0:1|0:0,0:0:0:0:
285,337,134581,22,0,P|232:327|183:329,2,75,8|8|8,0:1|0:1|0:1,0:0:0:0:
356,294,135101,2,8,L|418:290,2,37.5,8|8|8,0:1|0:1|0:1,0:1:0:0:
434,218,135448,2,8,L|481:237,2,37.5,8|8|8,0:1|0:1|0:1,0:1:0:0:
508,159,135794,1,8,0:1:0:0:
508,159,135881,1,8,0:1:0:0:
508,159,135968,6,0,P|501:106|509:36,1,112.5,12|0,0:1|0:0,0:0:0:0:
506,47,136315,2,0,P|465:55|414:54,1,75,8|8,0:1|0:1,0:0:0:0:
358,94,136661,1,8,0:1:0:0:
358,94,136835,2,0,P|317:86|266:87,1,75,8|8,0:1|0:1,0:0:0:0:
207,116,137182,5,8,0:1:0:0:
207,116,137268,1,8,0:1:0:0:
207,116,137355,2,0,P|203:153|204:190,1,75,8|8,0:1|0:1,0:0:0:0:
229,269,137702,2,0,P|266:264|303:266,1,75,8|8,0:1|0:1,0:0:0:0:
149,247,138049,2,0,B|87:271|60:216|-15:240,1,150
8,72,138733,6,0,P|74:68|97:155,1,150,4|8,0:0|0:1,0:0:0:0:
189,166,139245,2,0,P|195:90|232:9,1,150,4|8,0:0|0:1,0:0:0:0:
305,30,139758,2,0,P|306:69|316:125,1,75,8|8,0:1|0:1,0:0:0:0:
316,186,140100,22,0,P|327:233|325:294,2,75,8|8|8,0:1|0:1|0:1,0:0:0:0:
398,189,140613,2,0,P|446:204|487:203,2,75,8|8|8,0:1|0:1|0:1,0:0:0:0:
365,111,141126,2,0,P|329:95|281:96,1,75,8|8,0:1|0:1,0:0:0:0:
266,120,141382,1,8,0:1:0:0:
266,120,141468,6,0,P|255:193|257:259,1,112.5,8|0,0:1|0:0,0:0:0:0:
254,231,141809,2,0,P|208:251|166:251,1,75,8|8,0:1|0:1,0:0:0:0:
101,248,142151,1,8,0:1:0:0:
35,298,142322,2,0,P|46:352|47:393,1,75
127,350,142664,1,8,0:1:0:0:
206,373,142835,6,0,P|259:381|303:377,1,75,8|8,0:1|0:1,0:0:0:0:
355,349,143177,1,8,0:1:0:0:
355,349,143348,1,8,0:1:0:0:
396,277,143519,2,8,L|390:224,3,37.5,8|8|8|8,0:1|0:1|0:1|0:1,0:1:0:0:
369,204,143861,2,8,L|377:141,3,37.5,8|8|8|8,0:1|0:1|0:1|0:1,0:1:0:0:
397,135,144203,6,0,P|394:69|309:58,1,150,8|8,0:0|0:1,0:0:0:0:
284,123,144718,2,0,B|223:144|201:100|116:126,1,150,8|8,0:0|0:1,0:0:0:0:
64,160,145234,1,8,0:1:0:0:
59,77,145406,1,8,0:1:0:0:
137,204,145578,22,0,P|146:247|144:295,1,75,8|8,0:1|0:1,0:0:0:0:
136,359,145922,2,0,P|99:354|62:352,1,75,8|8,0:1|0:1,0:0:0:0:
212,325,146266,2,0,P|250:319|287:317,2,75,8|8|8,0:1|0:1|0:1,0:0:0:0:
146,277,146781,1,8,0:1:0:0:
290,224,146953,6,0,P|347:229|383:316,1,150,8|8,0:0|0:1,0:0:0:0:
454,351,147469,2,0,P|470:268|497:201,1,150,8|8,0:0|0:1,0:0:0:0:
416,177,147985,2,0,P|406:131|381:94,1,75,12|8,0:0|0:1,0:0:0:0:
343,39,148329,6,8,B|296:78|296:78|248:78|195:63,2,150,8|8|8,0:1|0:1|0:1,0:1:0:0:
167,5,149360,2,0,P|140:33|134:72,1,75,8|8,0:1|0:1,0:0:0:0:
142,108,149618,1,8,0:1:0:0:
142,108,149704,6,0,L|166:267,1,150,8|8,0:0|0:1,0:0:0:0:
142,383,150215,1,8,0:0:0:0:
72,338,150385,2,0,P|25:326|-24:329,2,75,8|8|8,0:1|0:1|0:1,0:0:0:0:
236,322,151067,22,0,P|302:327|331:322,1,75,8|8,0:1|0:1,0:0:0:0:
376,375,151408,2,0,P|387:339|406:306,1,75,8|8,0:1|0:1,0:0:0:0:
488,315,151749,2,0,P|469:251|453:226,1,75,8|8,0:1|0:1,0:0:0:0:
460,162,152090,2,8,L|400:191,3,37.5,8|8|8|8,0:1|0:1|0:1|0:1,0:1:0:0:
392,197,152431,6,0,P|318:182|241:180,1,150,12|8,0:0|0:1,0:0:0:0:
168,149,152942,2,0,P|189:79|254:111,1,150,8|8,0:0|0:1,0:0:0:0:
244,180,153454,2,0,L|234:282,1,75,8|8,0:1|0:1,0:0:0:0:
188,321,153794,6,0,P|150:321|97:296,1,75,8|8,0:1|0:1,0:0:0:0:
54,252,154135,1,8,0:1:0:0:
111,193,154306,1,8,0:1:0:0:
111,193,154391,1,8,0:1:0:0:
111,193,154476,2,0,P|115:146|111:108,1,75,8|8,0:1|0:1,0:0:0:0:
58,56,154817,1,8,0:1:0:0:
120,0,154988,1,8,0:1:0:0:
218,82,155158,6,0,P|283:98|379:98,1,150,8|8,0:0|0:1,0:0:0:0:
445,77,155672,2,0,B|447:150|417:151|420:238,1,150,8|0,0:0|0:1,0:0:0:0:
496,246,156186,1,0,3:3:0:0:
494,257,156272,1,0,3:3:0:0:
493,268,156358,1,0,3:3:0:0:
491,279,156443,1,0,3:3:0:0:
488,289,156529,22,0,P|457:296|415:344,1,75,8|8,0:0|0:1,0:0:0:0:
367,383,156872,2,0,P|329:389|265:372,1,75,8|8,0:1|0:1,0:0:0:0:
227,332,157215,2,0,P|216:281|227:245,2,75,8|8|8,0:1|0:1|0:1,0:0:0:0:
161,382,157729,1,8,0:1:0:0:
128,306,157900,6,0,B|134:232|112:142,1,150,8|8,0:0|0:1,0:0:0:0:
35,133,158415,1,8,0:0:0:0:
20,214,158586,2,0,P|66:234|108:234,1,75,8|8,0:1|0:1,0:0:0:0:
128,306,158929,2,0,P|167:288|203:285,1,75,8|8,0:0|0:1,0:0:0:0:
272,248,159272,6,8,P|275:283|274:302,3,37.5,8|8|8|8,0:1|0:1|0:1|0:1,0:1:0:0:
263,325,159615,2,8,P|285:334|315:350,3,37.5,8|8|8|8,0:1|0:1|0:1|0:1,0:1:0:0:
331,363,159958,2,8,P|378:348|394:347,3,37.5,8|8|8|8,0:1|0:1|0:1|0:1,0:1:0:0:
406,353,160300,2,0,P|420:303|423:260,1,75,8|8,0:1|0:1,0:0:0:0:
511,294,160643,6,0,P|492:223|486:139,1,150,8|0,0:0|0:0,0:0:0:0:
499,64,161158,2,0,P|418:56|424:132,1,150,8|0,0:0|0:0,0:0:0:0:
392,189,161672,2,0,P|339:186|309:190,1,75,8|8,0:1|0:1,0:0:0:0:
291,220,161929,1,8,0:1:0:0:
291,220,162015,22,0,P|238:217|208:221,1,75,8|8,0:1|0:1,0:0:0:0:
154,274,162358,1,8,0:1:0:0:
154,274,162529,1,8,0:1:0:0:
69,260,162700,2,0,P|50:225|62:178,1,75,8|8,0:1|0:1,0:0:0:0:
38,109,163043,2,0,P|101:121|162:117,1,112.5,8|0,0:1|0:0,0:0:0:0:
149,119,163386,6,0,P|188:95|221:91,1,75,12|0,0:0|0:0,0:0:0:0:
248,7,163734,2,0,P|291:21|315:44,1,75,8|0,0:0|0:0,0:0:0:0:
398,12,164083,2,0,P|414:54|413:87,1,75,8|0,0:0|0:0,0:0:0:0:
491,128,164432,2,0,P|469:168|442:188,1,75,8|0,0:0|0:0,0:0:0:0:
464,274,164781,2,0,P|419:283|386:275,1,75,8|0,0:0|0:0,0:0:0:0:
334,345,165130,2,0,P|298:316|283:286,1,75,8|0,0:0|0:0,0:0:0:0:
219,354,165479,38,0,B|173:347|162:364|107:354,1,112.5,4|2,0:0|0:0,0:0:0:0:
66,277,166191,54,0,P|51:216|64:155,1,112.5,12|8,0:1|0:1,0:0:0:0:
58,167,166533,2,0,P|100:163|149:138,1,75,8|8,0:0|0:1,0:0:0:0:
280,80,167048,1,8,0:1:0:0:
280,80,167219,2,0,P|266:118|259:167,1,75,8|0,0:0|0:0,0:0:0:0:
315,212,167562,22,0,P|314:268|302:340,1,112.5,8|8,0:1|0:1,0:0:0:0:
305,323,167905,2,0,P|235:327|203:321,1,75,8|8,0:0|0:1,0:0:0:0:
105,225,168419,1,8,0:1:0:0:
105,225,168591,2,0,P|175:229|207:223,1,75,8|0,0:0|0:0,0:0:0:0:
246,180,168933,6,0,P|257:124|246:61,1,112.5,8|0,0:1|0:0,0:0:0:0:
249,69,169276,2,0,P|288:47|327:44,1,75,8|8,0:0|0:1,0:0:0:0:
458,129,169791,1,8,0:1:0:0:
458,129,169962,2,0,P|443:188|444:221,1,75,8|0,0:0|0:0,0:0:0:0:
448,286,170305,6,0,P|401:279|333:313,1,112.5,8|8,0:1|0:1,0:0:0:0:
342,303,170648,1,8,0:0:0:0:
263,273,170819,2,0,P|225:268|189:259,1,75,8|8,0:1|0:1,0:0:0:0:
148,336,171162,2,0,P|85:346|57:354,1,75,8|8,0:1|0:0,0:0:0:0:
1,309,171505,1,8,0:0:0:0:
63,253,171676,6,0,P|56:195|69:137,1,112.5,8|8,0:1|0:1,0:0:0:0:
66,142,172019,2,0,P|71:86|66:59,1,75,8|8,0:0|0:1,0:0:0:0:
223,13,172533,1,8,0:1:0:0:
249,91,172705,2,0,P|253:128|252:165,1,75,8|2,0:0|0:0,0:0:0:0:
338,90,173048,22,0,P|399:75|459:78,1,112.5,8|8,0:1|0:1,0:0:0:0:
448,76,173391,2,0,P|463:106|467:160,1,75,8|8,0:0|0:1,0:0:0:0:
339,249,173905,1,8,0:1:0:0:
419,231,174077,2,0,P|453:244|490:249,1,75,8|2,0:0|0:0,0:0:0:0:
403,313,174419,6,0,P|342:337|298:365,1,112.5,8|8,0:1|0:1,0:0:0:0:
302,361,174762,2,0,P|268:356|217:330,1,75,8|8,0:0|0:1,0:0:0:0:
155,193,175276,1,8,0:1:0:0:
96,246,175448,2,0,P|89:287|89:326,1,75,8|8,0:0|0:0,0:0:0:0:
24,198,175791,5,8,0:0:0:0:
24,198,175962,1,8,0:0:0:0:
42,121,176133,1,8,0:0:0:0:
42,121,176305,1,8,0:0:0:0:
120,115,176476,2,8,P|149:107|171:106,3,37.5,8|8|8|8,0:1|0:1|0:1|0:1,0:1:0:0:
189,81,176819,2,8,P|219:85|236:85,3,37.5,8|8|8|8,0:1|0:1|0:1|0:1,0:1:0:0:
268,68,177162,6,0,P|303:97|359:117,1,82.5000025177003,6|0,0:0|0:0,0:0:0:0:
379,118,177419,1,8,0:1:0:0:
379,118,177505,2,0,P|372:187|376:221,1,82.5000025177003,10|8,0:0|0:1,0:0:0:0:
418,278,177848,1,2,0:0:0:0:
468,202,178019,1,8,0:1:0:0:
372,199,178191,2,0,P|331:197|265:213,1,82.5000025177003,10|8,0:0|0:1,0:0:0:0:
221,262,178533,22,0,P|210:302|209:360,1,82.5000025177003,2|0,0:0|0:0,0:0:0:0:
117,352,178876,1,8,0:0:0:0:
79,269,179048,1,0,0:0:0:0:
135,197,179219,2,0,P|141:154|134:102,1,82.5000025177003,2|8,0:0|0:1,0:0:0:0:
102,32,179562,2,0,P|140:19|199:25,1,82.5000025177003,10|0,0:0|0:0,0:0:0:0:
220,43,179819,1,0,0:0:0:0:
220,43,179905,6,0,P|279:39|323:25,1,82.5000025177003
346,25,180162,1,8,0:1:0:0:
346,25,180248,2,0,P|324:87|321:119,1,82.5000025177003,10|0,0:0|0:0,0:0:0:0:
343,191,180591,1,2,0:0:0:0:
258,160,180762,1,8,0:1:0:0:
268,249,180933,2,0,P|269:292|263:340,1,82.5000025177003,10|0,0:0|0:0,0:0:0:0:
349,364,181276,6,0,P|384:340|433:330,1,82.5000025177003,2|0,0:0|0:0,0:0:0:0:
471,253,181619,1,8,0:0:0:0:
467,162,181791,1,8,0:1:0:0:
389,115,181962,2,0,P|340:111|297:100,1,82.5000025177003,2|8,0:0|0:1,0:0:0:0:
279,16,182305,2,0,P|259:21|218:27,3,41.2500012588501,10|0|8|0,0:0|0:0|0:1|0:0,0:0:0:0:
205,55,182648,6,0,P|157:52|109:64,1,82.5000025177003,6|0,0:0|0:0,0:0:0:0:
85,83,182905,1,8,0:1:0:0:
85,83,182991,2,0,L|80:185,1,82.5000025177003,10|8,0:0|0:1,0:0:0:0:
6,216,183333,2,0,P|27:255|38:301,1,82.5000025177003,2|8,0:0|0:1,0:0:0:0:
73,375,183676,2,0,B|113:353|164:349,1,82.5000025177003,10|0,0:0|0:0,0:0:0:0:
201,274,184019,22,0,P|240:280|294:282,1,82.5000025177003,2|8,0:0|0:1,0:0:0:0:
373,276,184362,1,8,0:0:0:0:
331,356,184533,1,8,0:1:0:0:
422,358,184705,2,0,P|452:327|501:311,1,82.5000025177003,2|8,0:0|0:1,0:0:0:0:
511,224,185048,2,0,P|467:227|424:216,1,82.5000025177003,10|8,0:0|0:1,0:0:0:0:
386,203,185305,1,8,0:1:0:0:
386,203,185390,6,0,L|403:107,1,75,8|0,0:1|0:0,0:0:0:0:
355,59,185727,2,8,P|333:55|309:56,3,37.5,8|8|8|8,0:1|0:1|0:1|0:1,0:1:0:0:
278,68,186064,6,0,L|292:149,1,75,8|0,0:1|0:0,0:0:0:0:
256,217,186401,2,8,P|234:221|203:217,3,37.5,8|8|8|8,0:1|0:1|0:1|0:1,0:1:0:0:
179,207,186738,6,0,L|193:125,1,75,8|8,0:0|0:1,0:0:0:0:
125,82,187075,1,8,0:1:0:0:
43,74,187243,2,0,L|57:156,1,75,8|8,0:0|0:1,0:0:0:0:
64,230,187581,1,8,0:1:0:0:
45,310,187749,2,8,P|101:306|144:313,1,75
196,322,188086,5,12,0:0:0:0:
104,85,190828,1,2,0:0:0:0:
208,208,193628,2,0,P|256:176|318:178,1,112.5,2|2,0:0|0:0,0:0:0:0:
256,192,196370,12,0,198381,0:0:0:0:
307,183,199051,6,0,P|265:182|160:148,1,150,8|0,0:1|0:0,0:0:0:0:
102,92,199565,2,0,P|47:120|87:180,1,150
162,149,200079,2,0,P|161:191|167:241,1,75
169,306,200422,5,0,0:0:0:0:
97,347,200593,1,0,0:0:0:0:
22,310,200765,2,0,P|16:264|22:220,1,75
85,179,201108,2,0,P|129:184|174:184,1,75
238,160,201451,1,0,0:0:0:0:
238,160,201622,1,0,0:0:0:0:
253,238,201793,6,0,P|320:219|407:222,1,150,8|0,0:0|0:0,0:0:0:0:
482,214,202308,2,0,B|501:263|476:300|476:300|437:295|391:316,1,150
360,367,202822,2,0,P|321:372|271:369,1,75
241,301,203165,6,0,P|208:275|177:272,1,75
107,318,203508,1,0,0:0:0:0:
107,318,203679,1,0,0:0:0:0:
38,269,203851,2,0,P|32:216|41:178,1,75
71,120,204193,1,0,0:0:0:0:
35,45,204365,1,0,0:0:0:0:
35,45,204451,1,0,0:0:0:0:
35,45,204536,22,0,P|111:44|154:99,1,150,8|0,0:0|0:0,0:0:0:0:
132,177,205053,2,0,B|182:203|235:153|287:184,1,150
314,201,205484,1,0,0:0:0:0:
314,201,205570,6,0,P|321:260|309:292,1,75
265,339,205915,1,0,0:0:0:0:
339,374,206087,2,0,P|392:352|435:350,1,75
491,361,206432,1,0,0:0:0:0:
507,280,206604,2,0,P|512:244|509:205,1,75
482,173,206863,1,0,0:0:0:0:
482,173,206949,2,0,P|477:137|477:96,1,75
501,19,207294,5,8,0:0:0:0:
501,19,207467,1,0,0:0:0:0:
420,35,207639,2,0,P|394:32|366:21,3,37.5
352,56,207984,2,0,P|314:48|258:52,1,75
202,82,208329,1,8,0:0:0:0:
119,83,208501,1,0,0:0:0:0:
119,83,208587,1,0,0:0:0:0:
119,83,208673,6,0,P|126:130|118:179,1,75
55,204,209018,2,0,P|95:229|143:242,1,75
118,321,209363,2,0,P|162:305|212:303,1,75
246,363,209708,2,0,P|267:320|276:271,1,75
368,335,210053,22,0,P|357:271|368:203,1,123.75000377655,14|8,0:0|0:1,0:0:0:0:
381,171,210398,2,0,P|431:183|476:181,1,82.5000025177003,8|8,0:0|0:1,0:0:0:0:
503,93,210742,1,8,0:1:0:0:
445,23,210915,1,8,0:1:0:0:
445,23,211001,1,8,0:1:0:0:
445,23,211087,2,0,P|391:11|356:10,1,82.5000025177003,8|8,0:0|0:1,0:0:0:0:
322,100,211432,6,0,P|284:88|222:81,1,82.5000025177003,8|0,0:1|3:0,0:0:0:0:
179,4,211777,1,8,0:0:0:0:
179,4,211949,1,8,0:1:0:0:
86,40,212122,2,0,P|98:79|104:120,1,82.5000025177003,8|8,0:1|0:1,0:0:0:0:
115,218,212467,1,8,0:0:0:0:
197,163,212639,1,8,0:1:0:0:
25,179,212811,6,0,P|24:249|16:314,1,123.75000377655,8|8,0:1|0:1,0:0:0:0:
3,345,213156,2,0,P|65:336|100:347,1,82.5000025177003,8|8,0:0|0:1,0:0:0:0:
176,375,213501,1,8,0:1:0:0:
176,375,213673,1,8,0:1:0:0:
265,331,213846,2,0,P|290:291|298:242,1,82.5000025177003,8|8,0:0|0:1,0:0:0:0:
263,221,214104,1,8,0:1:0:0:
263,221,214191,6,0,P|238:181|228:133,1,82.5000025177003,8|8,0:1|0:1,0:0:0:0:
230,47,214536,1,8,0:0:0:0:
323,79,214708,1,8,0:1:0:0:
409,35,214880,2,8,P|433:35|458:44,3,41.2500012588501,8|8|8|8,0:1|0:1|0:1|0:1,0:1:0:0:
489,60,215225,2,8,P|501:85|504:120,3,41.2500012588501
485,140,215570,22,0,P|475:184|479:283,1,112.5,8|8,0:0|0:1,0:0:0:0:
478,296,215907,2,0,P|440:325|391:329,1,75,8|8,0:0|0:1,0:0:0:0:
335,286,216244,1,8,0:1:0:0:
399,224,216412,1,8,0:1:0:0:
347,380,216581,2,0,P|292:379|246:385,1,75,8|8,0:0|0:1,0:0:0:0:
219,307,216918,6,0,L|124:320,1,75,8|0,0:1|3:3,0:0:0:0:
56,306,217255,1,8,0:0:0:0:
56,306,217423,1,8,0:1:0:0:
66,216,217592,2,0,P|73:180|71:143,1,75,8|8,0:1|0:1,0:0:0:0:
20,59,217929,1,8,0:0:0:0:
71,143,218098,2,8,P|105:147|126:147,1,37.5
153,155,218266,6,0,P|188:137|245:144,1,75,8|0,0:0|0:0,0:0:0:0:
268,58,218603,2,0,P|305:104|312:134,1,75,8|0,0:0|0:0,0:0:0:0:
398,106,218940,2,0,P|387:160|364:187,1,75,8|0,0:0|0:0,0:0:0:0:
443,237,219277,2,0,P|392:261|357:259,1,75,8|0,0:0|0:0,0:0:0:0:
385,352,219614,6,0,B|316:319|226:355|226:355|302:276|268:177|185:167|106:206|127:285|127:285|73:322|17:294,1,600,8|4,0:0|0:0,0:0:0:0:
