osu file format v14

[General]
AudioFilename: audio.mp3
AudioLeadIn: 0
PreviewTime: 99808
Countdown: 0
SampleSet: Soft
StackLeniency: 0.6
Mode: 0
LetterboxInBreaks: 0
EpilepsyWarning: 1
WidescreenStoryboard: 1

[Editor]
Bookmarks: 1602,23538,35428,78396,100338,133253,154483,166167,184351,188110,199081,221024,234738
DistanceSpacing: 1.4
BeatDivisor: 4
GridSize: 8
TimelineZoom: 1.6

[Metadata]
Title:haze
TitleUnicode:haze
Artist:TK from Ling tosite sigure
ArtistUnicode:TK from 凛として時雨
Creator:Ametrin
Version:Advanced
Source:
Tags:flowering misure
BeatmapID:1281693
BeatmapSetID:568305

[Difficulty]
HPDrainRate:5
CircleSize:3.5
OverallDifficulty:4.5
ApproachRate:6
SliderMultiplier:1.2
SliderTickRate:1

[Events]
//Background and Video events
0,0,"BG.jpg",0,0
//Break Periods
2,78557,88327
2,100517,110242
//Storyboard Layer 0 (Background)
//Storyboard Layer 1 (Fail)
//Storyboard Layer 2 (Pass)
//Storyboard Layer 3 (Foreground)
Sprite,Foreground,Centre,"SB\highlight.png",320,240 M,0,133263,133757,119,86 F,0,133263,133757,1,0 C,0,133263,133757,61,119,255 P,0,133263,133757,A
Sprite,Foreground,Centre,"SB\highlight.png",320,240 M,0,135968,136488,335,278 F,0,135968,136488,1,0 C,0,135968,136488,0,204,255 P,0,135968,136488,A
Sprite,Foreground,Centre,"SB\highlight.png",320,240 M,0,138733,139245,240,180 F,0,138733,139245,1,0 C,0,138733,139245,61,119,255 P,0,138733,139245,A
Sprite,Foreground,Centre,"SB\highlight.png",320,240 M,0,141468,141980,265,83 F,0,141468,141980,1,0 C,0,141468,141980,0,204,255 P,0,141468,141980,A
Sprite,Foreground,Centre,"SB\highlight.png",320,240 M,0,144203,144718,257,258 F,0,144203,144718,1,0 C,0,144203,144718,61,119,255 P,0,144203,144718,A
Sprite,Foreground,Centre,"SB\highlight.png",320,240 M,0,144718,145234,366,210 F,0,144718,145234,1,0 C,0,144718,145234,61,119,255 P,0,144718,145234,A
Sprite,Foreground,Centre,"SB\highlight.png",320,240 M,0,145234,145750,556,150 F,0,145234,145750,1,0 C,0,145234,145750,61,119,255 P,0,145234,145750,A
Sprite,Foreground,Centre,"SB\highlight.png",320,240 M,0,146953,147469,340,403 F,0,146953,147469,1,0 C,0,146953,147469,0,204,255 P,0,146953,147469,A
Sprite,Foreground,Centre,"SB\highlight.png",320,240 M,0,147469,147985,140,440 F,0,147469,147985,1,0 C,0,147469,147985,0,204,255 P,0,147469,147985,A
Sprite,Foreground,Centre,"SB\highlight.png",320,240 M,0,147985,148500,78,250 F,0,147985,148500,1,0 C,0,147985,148500,0,204,255 P,0,147985,148500,A
Sprite,Foreground,Centre,"SB\highlight.png",320,240 M,0,149704,150215,310,304 F,0,149704,150215,1,0 C,0,149704,150215,61,119,225 P,0,149704,150215,A
Sprite,Foreground,Centre,"SB\highlight.png",320,240 M,0,150215,150726,444,209 F,0,150215,150726,1,0 C,0,150215,150726,61,119,255 P,0,150215,150726,A
Sprite,Foreground,Centre,"SB\highlight.png",320,240 M,0,152431,152942,137,99 F,0,152431,152942,1,0 C,0,152431,152942,0,204,255 P,0,152431,152942,A
Sprite,Foreground,Centre,"SB\highlight.png",320,240 M,0,152942,153454,331,75 F,0,152942,153454,1,0 C,0,152942,153454,0,204,255 P,0,152942,153454,A
Sprite,Foreground,Centre,"SB\highlight.png",320,240 M,0,155158,155672,308,141 F,0,155158,155672,1,0 C,0,155158,155672,255,179,0 P,0,155158,155672,A
Sprite,Foreground,Centre,"SB\highlight.png",320,240 M,0,155672,156186,268,315 F,0,155672,156186,1,0 C,0,155672,156186,255,179,0 P,0,155672,156186,A
Sprite,Foreground,Centre,"SB\highlight.png",320,240 M,0,156186,156700,93,250 F,0,156186,156700,1,0 C,0,156186,156700,255,179,0 P,0,156186,156700,A
Sprite,Foreground,Centre,"SB\highlight.png",320,240 M,0,157900,158415,349,241 F,0,157900,158415,1,0 C,0,157900,158415,255,51,0 P,0,157900,158415,A
Sprite,Foreground,Centre,"SB\highlight.png",320,240 M,0,158415,158929,407,420 F,0,158415,158929,1,0 C,0,158415,158929,255,51,0 P,0,158415,158929,A
Sprite,Foreground,Centre,"SB\highlight.png",320,240 M,0,158929,159443,568,262 F,0,158929,159443,1,0 C,0,158929,159443,255,51,0 P,0,158929,159443,A
Sprite,Foreground,Centre,"SB\highlight.png",320,240 M,0,160643,161158,333,334 F,0,160643,161158,1,0 C,0,160643,161158,255,179,0 P,0,160643,161158,A
Sprite,Foreground,Centre,"SB\highlight.png",320,240 M,0,161158,161672,133,294 F,0,161158,161672,1,0 C,0,161158,161672,255,179,0 P,0,161158,161672,A
Sprite,Foreground,Centre,"SB\ring.png",320,240 M,0,166191,166705,133,337 F,0,166191,166705,1,0 S,0,166191,166705,0.5,1.5 C,0,166191,166705,255,255,255 P,0,166191,166705,A
Sprite,Foreground,Centre,"SB\ring.png",320,240 M,0,166191,166705,133,337 F,0,166191,166705,1,0 S,0,166191,166705,0.5,1.5 C,0,166191,166705,255,255,255 P,0,166191,166705,A
Sprite,Foreground,Centre,"SB\ring.png",320,240 M,0,188086,188600,342,367 F,0,188086,188600,0.8,0 S,0,188086,188600,0.5,1.5 C,0,188086,188600,255,255,255 P,0,188086,188600,A
Sprite,Foreground,Centre,"SB\ring.png",320,240 M,0,188086,188600,342,367 F,0,188086,188600,0.8,0 S,0,188086,188600,0.5,1.5 C,0,188086,188600,255,255,255 P,0,188086,188600,A
Sprite,Foreground,Centre,"SB\ring.png",320,240 M,0,190828,191343,350,318 F,0,190828,191343,0.8,0 S,0,190828,191343,0.5,1.5 C,0,190828,191343,255,255,255 P,0,190828,191343,A
Sprite,Foreground,Centre,"SB\ring.png",320,240 M,0,193628,194142,275,268 F,0,193628,194142,0.8,0 S,0,193628,194142,0.5,1.5 C,0,193628,194142,255,255,255 P,0,193628,194142,A
//Storyboard Sound Samples

[TimingPoints]
1606,342.857142857143,4,2,1,20,1,0
1606,-200,4,2,1,20,0,0
12063,-133.333333333333,4,2,1,20,0,0
12577,340.909090909091,4,2,1,30,1,0
12577,-100,4,2,1,30,0,0
15304,344.827586206897,4,2,1,30,1,0
18062,341.880341880342,4,2,1,30,1,0
23532,342.857142857143,4,2,1,30,1,0
23532,-100,4,2,1,30,0,0
45474,-100,4,2,1,40,0,0
56446,340.909090909091,4,2,1,30,1,0
56446,-100,4,2,1,30,0,0
59174,342.857142857143,4,2,1,30,1,0
61916,345.821325648415,4,2,1,30,1,0
64682,342.857142857143,4,2,1,30,1,0
67424,-100,4,2,1,40,0,0
77024,333.333333333333,4,2,1,40,1,0
78357,344.43168771527,4,2,1,20,1,0
78357,-200,4,2,1,20,0,0
89377,341.880341880342,4,2,1,40,1,0
89377,-100,4,2,1,40,0,0
99633,-100,4,2,1,50,0,0
100321,342.857142857143,4,2,1,20,1,0
111292,-100,4,2,1,30,0,0
119521,-100,4,2,1,30,0,0
119863,-100,4,2,1,35,0,0
120206,-100,4,2,1,40,0,0
120549,-100,4,2,1,45,0,0
120892,-100,4,2,1,50,0,0
121235,-100,4,2,1,60,0,0
121578,-100,4,2,1,70,0,0
121921,-100,4,2,1,80,0,0
122263,344.827586206897,4,2,1,20,1,0
122263,-200,4,2,1,20,0,0
127780,-100,4,2,1,30,0,0
129849,-100,4,2,1,30,0,0
130538,337.078651685393,4,2,1,40,1,0
130538,-133.333333333333,4,2,1,40,0,0
131043,-133.333333333333,4,2,1,50,0,0
131549,-133.333333333333,4,2,1,60,0,0
132054,-133.333333333333,4,2,1,70,0,0
132560,-200,4,2,1,5,0,0
133263,329.67032967033,4,2,1,40,1,0
133263,-100,4,2,1,40,0,0
134581,346.820809248555,4,2,1,60,1,0
138733,341.880341880342,4,2,1,60,1,0
143861,-100,4,2,1,50,0,0
144203,343.839541547278,4,2,1,60,1,1
144203,-100,4,2,1,60,0,1
149704,340.909090909091,4,2,1,70,1,1
155158,342.857142857143,4,2,1,70,1,1
159615,-100,4,2,1,60,0,1
159958,-100,4,2,1,50,0,1
163386,348.837209302326,4,2,1,50,1,1
163734,-100,4,2,1,55,0,1
164083,-100,4,2,1,60,0,1
164432,-100,4,2,1,65,0,1
164781,-100,4,2,1,70,0,1
165130,-100,4,2,1,75,0,1
165479,-200,4,2,1,60,0,0
166191,342.857142857143,4,2,1,50,1,0
166191,-100,4,2,1,50,0,0
177162,-100,4,2,1,70,0,1
185390,337.078651685393,4,2,1,70,1,1
188086,342.857142857143,4,2,1,40,1,0
188086,-200,4,2,1,40,0,0
193628,342.857142857143,4,2,1,20,1,0
193628,-200,4,2,1,20,0,0
196370,335.195530726257,4,2,1,10,1,0
196370,-200,4,2,1,10,0,0
199051,342.857142857143,4,2,1,60,1,0
199051,-100,4,2,1,60,0,0
204536,344.827586206897,4,2,1,60,1,0
208329,-100,4,2,1,60,0,0
209018,-100,4,2,1,65,0,0
210053,-100,4,2,1,70,0,1
215570,337.078651685393,4,2,1,70,1,1
220963,-100,4,2,1,70,0,0

[Colours]
Combo1 : 255,255,255
Combo2 : 255,51,0
Combo3 : 61,119,255
Combo4 : 255,179,0
Combo5 : 0,204,255

[HitObjects]
286,106,1606,6,0,P|285:61|282:16,2,90,2|2|2,0:0|0:0|0:0,0:0:0:0:
167,148,3148,2,0,P|167:193|170:238,1,90,2|2,0:0|0:0,0:0:0:0:
198,318,4006,1,2,0:0:0:0:
115,334,4348,2,0,P|63:326|20:324,1,90,2|2,0:0|0:0,0:0:0:0:
499,57,7091,6,0,P|455:54|412:42,2,90,2|2|2,0:0|0:0|0:0,0:0:0:0:
322,130,8634,2,0,P|279:118|235:115,1,90,2|2,0:0|0:0,0:0:0:0:
174,173,9491,1,2,0:0:0:0:
97,144,9834,2,0,P|96:94|93:42,1,90,2|2,0:0|0:0,0:0:0:0:
97,144,12063,6,0,L|102:200,1,45.0000017166138,8|8,0:0|0:0,0:0:0:0:
102,189,12577,6,0,P|150:184|225:185,1,120,8|8,0:1|0:0,0:0:0:0:
301,156,13088,2,0,P|303:212|254:262,1,120,0|8,0:1|0:1,0:0:0:0:
178,261,13599,1,8,0:0:0:0:
400,181,14111,1,8,0:1:0:0:
465,223,14281,2,0,P|477:263|484:352,1,120,8|0,0:0|0:0,0:0:0:0:
415,377,14792,2,0,P|385:379|355:379,1,60,8|8,0:1|0:0,0:0:0:0:
260,255,15304,22,0,P|256:215|248:127,1,120,8|8,0:1|0:0,0:0:0:0:
218,63,15821,2,0,P|153:42|93:75,1,120,8|8,0:1|0:1,0:0:0:0:
64,127,16338,1,8,0:0:0:0:
260,255,16855,1,8,0:1:0:0:
335,236,17028,2,0,P|408:223|474:230,1,120,8|8,0:0|0:1,0:0:0:0:
506,168,17545,2,0,P|475:148|457:133,1,60,8|8,0:1|0:0,0:0:0:0:
334,35,18062,6,0,L|347:176,1,120,8|8,0:1|0:0,0:0:0:0:
335,236,18574,2,0,P|264:248|243:207,1,120,8|8,0:1|0:1,0:0:0:0:
266,133,19087,1,8,0:0:0:0:
39,192,19600,1,8,0:1:0:0:
90,249,19771,2,0,B|120:297|118:375,1,120,8|8,0:0|0:1,0:0:0:0:
195,376,20284,2,0,P|226:369|264:361,1,60,8|8,0:1|0:0,0:0:0:0:
358,231,20797,6,0,L|236:245,1,120,8|8,0:1|0:0,0:0:0:0:
168,210,21309,2,0,P|145:156|162:91,1,120,8|8,0:1|0:1,0:0:0:0:
221,42,21822,1,8,0:0:0:0:
470,6,22335,1,8,0:1:0:0:
508,84,22506,6,0,L|504:163,1,60,10|8,0:0|0:0,0:0:0:0:
471,221,22848,2,0,L|467:295,1,60,8|0,0:0|0:0,0:0:0:0:
405,338,23190,1,8,0:0:0:0:
405,338,23361,1,8,0:0:0:0:
319,350,23532,22,0,P|272:340|183:341,1,120,4|0,0:0|0:0,0:0:0:0:
29,366,24217,2,0,P|28:336|35:307,2,60,0|0|8,0:0|0:0|0:0,0:0:0:0:
2,201,24903,21,8,0:1:0:0:
73,157,25074,2,0,P|129:147|178:193,1,120,8|8,0:1|0:1,0:0:0:0:
289,300,25760,1,8,0:1:0:0:
364,262,25932,2,0,P|376:225|381:188,1,60,8|8,0:0|0:1,0:0:0:0:
386,120,26274,6,0,B|343:65|273:80,1,120,8|8,0:1|0:0,0:0:0:0:
211,128,26789,2,0,L|206:271,1,120,8|8,0:1|0:1,0:0:0:0:
202,332,27303,1,8,0:0:0:0:
44,273,27646,22,0,P|0:213|21:157,1,120,0|8,0:0|0:0,0:0:0:0:
61,107,28160,1,8,0:1:0:0:
221,155,28503,1,8,0:1:0:0:
259,77,28674,2,0,P|256:47|243:14,1,60,8|8,0:0|0:1,0:0:0:0:
344,72,29017,6,0,P|340:108|362:200,1,120,8|8,0:1|0:0,0:0:0:0:
494,303,29703,2,0,P|470:321|443:334,2,60,8|0|8,0:1|0:0|0:0,0:0:0:0:
507,135,30389,21,8,0:1:0:0:
437,182,30560,2,0,P|364:182|307:174,1,120,8|8,0:1|0:1,0:0:0:0:
111,29,31417,2,0,P|149:36|192:51,1,60,8|8,0:0|0:1,0:0:0:0:
218,106,31760,22,0,P|225:170|222:237,1,120,8|8,0:1|0:0,0:0:0:0:
216,309,32274,2,0,P|153:277|140:229,1,120,8|8,0:1|0:1,0:0:0:0:
142,148,32789,1,8,0:0:0:0:
25,264,33132,6,0,P|64:259|142:233,1,120,8|8,0:1|0:0,0:0:0:0:
183,306,33646,2,0,P|222:306|302:324,1,120,8|8,0:1|0:1,0:0:0:0:
370,370,34160,1,8,0:0:0:0:
470,234,34503,6,0,P|461:192|420:117,1,120,8|8,0:1|0:0,0:0:0:0:
283,33,35189,2,0,P|307:15|334:3,2,60,0|0|8,0:1|0:0|0:0,0:0:0:0:
154,147,35874,37,8,0:1:0:0:
228,187,36046,2,0,P|240:228|241:253,1,60,8|8,0:1|0:0,0:0:0:0:
220,326,36389,2,0,P|145:326|81:345,1,120,8|8,0:1|0:1,0:0:0:0:
23,305,36903,1,8,0:1:0:0:
23,305,37074,1,8,0:1:0:0:
79,241,37246,6,0,P|76:171|66:120,1,120,8|8,0:1|0:0,0:0:0:0:
43,41,37760,2,0,B|99:32|114:55|166:46,1,120,8|8,0:1|0:1,0:0:0:0:
244,27,38274,1,8,0:0:0:0:
384,114,38617,6,0,P|363:180|358:245,1,120,0|8,0:0|0:0,0:0:0:0:
401,302,39132,2,0,P|458:262|421:217,1,120,8|8,0:1|0:1,0:0:0:0:
357,230,39646,1,8,0:0:0:0:
238,300,39989,6,0,P|182:293|103:272,1,120,8|0,0:1|0:0,0:0:0:0:
40,129,40674,2,0,P|20:151|5:177,2,60,8|0|8,0:1|0:0|0:0,0:0:0:0:
149,0,41360,21,8,0:1:0:0:
174,83,41532,2,0,P|181:120|188:206,1,120,8|8,0:1|0:1,0:0:0:0:
295,331,42217,1,8,0:1:0:0:
312,248,42389,2,0,P|322:217|342:174,1,60,8|8,0:0|0:1,0:0:0:0:
405,148,42732,6,0,P|377:72|381:13,1,120,8|8,0:1|0:0,0:0:0:0:
300,68,43246,2,0,P|245:91|176:94,1,120,8|8,0:1|0:1,0:0:0:0:
108,59,43760,1,8,0:0:0:0:
26,206,44103,2,0,P|75:203|106:192,1,60,8|8,0:1|0:1,0:0:0:0:
165,174,44446,5,4,0:0:0:0:
276,298,44789,2,0,P|270:333|267:379,2,60,8|0|0,0:0|0:0|0:0,0:0:0:0:
435,351,45474,6,0,P|404:292|346:296,1,120,8|8,0:1|0:0,0:0:0:0:
276,298,45989,2,0,P|245:218|239:167,1,120,8|8,0:1|0:1,0:0:0:0:
302,128,46503,1,8,0:0:0:0:
186,3,46846,22,0,P|226:20|322:24,1,120,8|8,0:1|0:0,0:0:0:0:
382,3,47360,1,0,0:0:0:0:
509,112,47703,2,0,P|498:161|494:197,1,60,0|8,0:0|0:0,0:0:0:0:
510,253,48046,1,0,0:0:0:0:
448,309,48217,6,0,P|390:307|319:316,1,120,8|8,0:1|0:0,0:0:0:0:
284,242,48732,2,0,P|224:254|154:255,1,120,8|8,0:1|0:1,0:0:0:0:
110,319,49246,1,8,0:0:0:0:
34,282,49417,6,0,P|31:221|22:151,1,120,8|0,0:0|0:0,0:0:0:0:
6,79,49932,1,8,0:0:0:0:
146,170,50274,2,0,P|174:136|185:112,1,60,8|0,0:0|0:0,0:0:0:0:
260,149,50617,2,0,P|261:104|255:79,1,60,8|0,0:0|0:0,0:0:0:0:
314,30,50960,6,0,P|364:25|388:95,1,120,12|8,0:0|0:0,0:0:0:0:
379,164,51474,2,0,P|365:231|369:294,1,120,8|8,0:1|0:1,0:0:0:0:
413,353,51989,1,0,0:0:0:0:
510,216,52332,22,0,P|492:189|478:99,1,120,8|8,0:1|0:0,0:0:0:0:
494,20,52846,1,0,0:0:0:0:
326,13,53189,1,0,0:0:0:0:
242,14,53360,2,0,P|190:35|179:57,1,60,8|0,0:0|0:0,0:0:0:0:
248,96,53703,6,0,P|237:162|240:237,1,120,8|8,0:1|0:0,0:0:0:0:
262,294,54217,2,0,P|205:291|157:239,1,120,8|8,0:1|0:1,0:0:0:0:
159,173,54732,1,8,0:0:0:0:
82,139,54903,6,0,P|23:181|34:240,1,120,8|0,0:0|0:0,0:0:0:0:
53,301,55417,1,0,0:0:0:0:
159,173,55760,1,4,0:0:0:0:
215,331,56103,1,4,0:0:0:0:
250,171,56446,6,0,P|285:154|366:200,1,120,12|8,0:0|0:0,0:0:0:0:
380,348,57127,2,0,P|337:354|298:363,2,60,0|8|8,0:0|0:1|0:0,0:0:0:0:
508,240,57809,21,8,0:1:0:0:
453,175,57980,2,0,P|460:113|510:80,1,120,8|8,0:0|0:1,0:0:0:0:
351,151,58661,1,8,0:1:0:0:
274,185,58832,2,0,P|234:191|191:183,1,60,8|8,0:0|0:1,0:0:0:0:
146,139,59174,6,0,P|143:62|186:43,1,120,8|8,0:1|0:0,0:0:0:0:
256,34,59688,2,0,P|299:60|371:61,1,120,8|8,0:1|0:1,0:0:0:0:
444,27,60202,1,8,0:0:0:0:
502,87,60374,6,0,P|508:159|508:221,1,120,8|0,0:0|0:0,0:0:0:0:
498,290,60888,1,8,0:0:0:0:
349,211,61231,1,8,0:1:0:0:
488,117,61574,1,8,0:0:0:0:
352,216,61916,6,0,P|293:234|227:225,1,120,8|8,0:1|0:0,0:0:0:0:
78,157,62607,2,0,P|62:121|64:87,2,60,8|8|8,0:1|0:1|0:0,0:0:0:0:
13,315,63299,21,8,0:1:0:0:
90,347,63472,2,0,P|142:328|207:322,1,120,8|8,0:0|0:1,0:0:0:0:
431,210,64336,2,0,P|398:218|370:218,1,60,8|8,0:0|0:1,0:0:0:0:
294,183,64682,6,0,P|221:165|172:159,1,120,8|8,0:1|0:0,0:0:0:0:
111,106,65196,2,0,P|101:44|162:18,1,120,8|8,0:1|0:1,0:0:0:0:
226,3,65710,1,8,0:0:0:0:
311,150,66053,5,0,0:0:0:0:
311,150,66224,2,0,P|315:181|316:221,1,60,8|0,0:0|0:0,0:0:0:0:
254,267,66567,1,8,0:0:0:0:
88,240,66910,1,0,0:0:0:0:
88,240,67082,2,0,P|87:193|96:162,1,60,8|0,0:0|0:0,0:0:0:0:
146,121,67424,6,0,P|206:128|279:154,1,120,12|8,0:0|0:0,0:0:0:0:
317,210,67939,2,0,P|388:223|415:165,1,120,8|8,0:1|0:1,0:0:0:0:
442,112,68453,1,8,0:0:0:0:
473,277,68796,22,0,P|462:310|459:337,1,60,8|0,0:1|0:0,0:0:0:0:
379,369,69139,2,0,P|342:376|307:382,2,60,8|0|8,0:0|0:0|0:1,0:0:0:0:
344,292,69653,1,0,0:0:0:0:
261,277,69824,2,0,P|231:281|202:288,1,60,8|0,0:0|0:0,0:0:0:0:
125,320,70167,6,0,P|69:307|53:239,1,120,8|8,0:1|0:0,0:0:0:0:
56,168,70681,2,0,P|116:165|181:145,1,120,8|0,0:1|0:0,0:0:0:0:
232,86,71195,2,0,P|227:42|208:22,1,60,8|0,0:0|0:0,0:0:0:0:
134,29,71538,6,0,B|110:62|118:94,1,60,8|0,0:1|0:0,0:0:0:0:
173,148,71882,1,8,0:0:0:0:
103,300,72224,2,0,P|54:295|23:282,2,60,8|0|8,0:1|0:0|0:0,0:0:0:0:
269,246,72910,6,0,P|338:247|392:269,1,120,12|8,0:0|0:0,0:0:0:0:
450,317,73424,2,0,P|403:367|365:341,1,120,8|0,0:1|0:0,0:0:0:0:
385,264,73939,1,8,0:0:0:0:
509,151,74281,22,0,P|500:103|503:71,1,60,8|0,0:1|0:0,0:0:0:0:
469,13,74624,2,0,L|439:10|409:7,1,60,8|0,0:0|0:0,0:0:0:0:
359,75,74967,2,0,P|350:107|343:142,2,60,8|0|8,0:1|0:0|0:0,0:0:0:0:
300,14,75481,1,0,0:0:0:0:
235,68,75653,6,0,P|171:74|109:59,1,120,8|8,0:1|0:0,0:0:0:0:
47,14,76167,2,0,P|32:80|61:124,1,120,8|0,0:1|0:0,0:0:0:0:
137,150,76681,2,0,P|156:187|160:219,1,60,8|8,0:0|0:0,0:0:0:0:
143,286,77024,5,8,0:0:0:0:
275,183,77357,1,8,0:0:0:0:
172,50,77690,1,8,0:0:0:0:
40,154,78024,1,8,0:0:0:0:
143,286,78357,37,12,0:0:0:0:
93,243,89377,38,0,P|99:316|89:382,2,120,8|0|0,0:1|0:0|0:0,0:0:0:0:
261,247,90402,1,8,0:1:0:0:
213,178,90573,2,0,P|198:113|199:58,1,120,8|0,0:0|0:0,0:0:0:0:
148,307,91428,2,0,L|220:303,1,60,8|8,0:1|0:1,0:0:0:0:
292,298,91770,2,0,L|364:294,1,60,8|8,0:1|0:1,0:0:0:0:
435,284,92112,22,0,P|480:342|465:403,2,120,8|0|8,0:1|0:0|0:1,0:0:0:0:
297,187,93137,1,8,0:1:0:0:
380,199,93308,2,0,P|436:180|492:134,1,120,8|0,0:0|0:0,0:0:0:0:
499,60,93821,1,0,0:0:0:0:
334,27,94163,1,8,0:1:0:0:
169,77,94505,1,8,0:1:0:0:
169,77,94676,1,8,0:1:0:0:
212,148,94847,6,0,P|213:185|215:288,2,120,8|0|8,0:1|0:0|0:1,0:0:0:0:
131,295,95872,1,0,0:0:0:0:
196,347,96043,2,0,P|283:353|326:362,1,120,8|0,0:0|0:0,0:0:0:0:
396,336,96556,1,0,0:0:0:0:
319,186,96898,1,0,0:0:0:0:
487,165,97240,1,0,0:0:0:0:
352,265,97582,6,0,P|285:270|226:280,2,120,8|8|8,0:1|0:1|0:1,0:0:0:0:
242,137,98607,1,8,0:1:0:0:
161,161,98778,2,0,B|42:192|2:73|91:-17|151:-64|187:124|298:90|386:34|386:34,1,480,8|0,0:0|0:0,0:0:0:0:
434,3,100317,1,0,0:0:0:0:
93,98,111292,6,0,P|113:176|110:224,1,120,8|0,0:1|0:0,0:0:0:0:
54,276,111806,1,0,0:0:0:0:
99,347,111978,2,0,P|124:339|164:337,1,60,8|0,0:1|0:0,0:0:0:0:
241,344,112321,1,8,0:1:0:0:
409,356,112663,22,0,P|427:289|476:257,1,120,8|0,0:1|0:0,0:0:0:0:
407,194,113178,1,8,0:1:0:0:
483,158,113349,2,0,P|444:118|380:114,1,120,8|8,0:1|0:1,0:0:0:0:
221,161,114035,6,0,P|160:163|101:157,1,120,8|8,0:1|0:1,0:0:0:0:
83,74,114549,1,8,0:1:0:0:
15,124,114721,2,0,P|10:162|15:205,1,60,8|0,0:1|0:0,0:0:0:0:
40,262,115063,1,0,0:1:0:0:
175,361,115406,6,0,P|257:350|292:320,1,120,8|0,0:1|0:0,0:0:0:0:
342,265,115921,1,8,0:1:0:0:
260,252,116092,2,0,P|254:175|241:114,1,120,8|8,0:1|0:1,0:0:0:0:
365,14,116778,6,0,P|350:83|350:153,1,120,8|0,0:1|0:0,0:0:0:0:
347,216,117292,1,8,0:1:0:0:
424,248,117463,2,0,P|430:204|419:172,1,60,8|8,0:1|0:1,0:0:0:0:
499,147,117806,1,8,0:1:0:0:
400,10,118149,22,0,P|339:-2|277:34,1,120,8|0,0:1|0:0,0:0:0:0:
265,102,118663,1,0,0:0:0:0:
352,96,118835,2,0,P|348:169|346:231,1,120,8|0,0:1|0:0,0:0:0:0:
270,366,119521,6,0,P|242:362|199:342,1,60,8|8,0:1|0:1,0:0:0:0:
135,383,119863,2,0,P|121:358|114:311,1,60,8|8,0:1|0:1,0:0:0:0:
42,283,120206,2,0,P|54:258|88:225,1,60,8|8,0:1|0:1,0:0:0:0:
75,150,120549,2,0,P|102:145|148:154,1,60,8|8,0:1|0:1,0:0:0:0:
203,198,120892,6,0,P|234:204|268:201,1,60,8|8,0:1|0:1,0:0:0:0:
301,276,121235,2,0,P|324:253|341:224,1,60,8|8,0:1|0:1,0:0:0:0:
422,242,121578,2,0,P|417:209|402:179,1,60,8|8,0:1|0:1,0:0:0:0:
461,122,121921,2,0,P|432:107|398:101,1,60,8|8,0:1|0:1,0:0:0:0:
343,40,122263,22,0,P|282:42|213:54,1,120,6|2,0:0|0:0,0:0:0:0:
69,169,123642,2,0,P|130:171|199:183,1,120,2|2,0:0|0:0,0:0:0:0:
323,81,125021,2,0,P|307:125|359:180,1,120,2|2,0:0|0:0,0:0:0:0:
215,280,126400,2,0,P|231:236|182:182,1,120,2|2,0:0|0:0,0:0:0:0:
494,320,127780,54,0,P|435:311|373:311,1,120,8|0,0:1|0:0,0:0:0:0:
294,336,128297,1,0,0:0:0:0:
337,173,128642,1,0,0:0:0:0:
409,215,128814,2,0,P|420:244|427:273,1,60
497,226,129159,22,0,P|498:197|513:100,1,120
455,44,129676,1,0,0:0:0:0:
371,58,129849,2,2,P|320:35|293:33,1,60
306,118,130194,2,2,P|269:136|241:156,1,60
256,192,130538,12,0,132560,0:0:0:0:
52,26,133263,5,12,0:0:0:0:
199,106,133592,2,0,P|230:112|284:111,2,60,8|8|8,0:1|0:1|0:1,0:0:0:0:
139,166,134087,1,8,0:1:0:0:
207,214,134252,2,0,P|212:246|206:295,1,60,8|0,0:1|0:0,0:0:0:0:
168,341,134581,6,0,P|217:355|277:317,1,120,8|8,0:1|0:1,0:0:0:0:
354,299,135101,1,8,0:1:0:0:
459,168,135448,1,8,0:1:0:0:
381,144,135621,2,0,P|349:148|316:178,1,60,8|8,0:1|0:1,0:0:0:0:
267,223,135968,5,0,0:0:0:0:
312,61,136315,2,0,P|282:54|252:52,2,60,8|8|0,0:1|0:1|0:0,0:0:0:0:
393,83,136835,1,8,0:1:0:0:
464,39,137008,2,0,P|473:68|474:98,1,60,8|8,0:1|0:1,0:0:0:0:
511,172,137355,22,0,P|499:206|498:297,1,120,8|8,0:1|0:1,0:0:0:0:
420,326,137875,2,0,P|375:326|312:267,1,120,8|8,0:1|0:1,0:0:0:0:
321,196,138396,1,8,0:1:0:0:
172,120,138733,6,0,P|106:189|23:191,2,180,0|4|4,0:0|0:0|0:0,0:0:0:0:
321,196,140100,6,0,P|374:190|451:190,1,120,8|8,0:1|0:1,0:0:0:0:
511,142,140613,1,8,0:1:0:0:
416,2,140955,1,8,0:1:0:0:
341,39,141126,2,0,P|302:33|272:23,1,60,8|8,0:1|0:1,0:0:0:0:
198,23,141468,6,0,P|187:96|190:145,1,120,8|0,0:0|0:0,0:0:0:0:
225,217,141980,1,0,0:0:0:0:
162,272,142151,2,0,P|116:292|93:292,1,60,8|8,0:1|0:1,0:0:0:0:
24,275,142493,1,8,0:1:0:0:
168,361,142835,22,0,P|221:369|255:365,1,60,8|8,0:1|0:1,0:0:0:0:
310,352,143177,1,8,0:1:0:0:
459,274,143519,2,0,P|406:266|372:270,1,60,8|8,0:1|0:1,0:0:0:0:
321,235,143861,2,0,P|268:243|234:239,1,60,8|8,0:1|0:1,0:0:0:0:
190,198,144203,6,0,P|193:132|259:115,1,120,12|8,0:0|0:1,0:0:0:0:
309,150,144718,2,0,B|362:164|373:146|428:157,1,120,8|8,0:0|0:1,0:0:0:0:
479,90,145234,2,0,P|486:60|487:30,1,60
510,168,145578,6,0,P|506:212|514:249,1,60,8|8,0:1|0:1,0:0:0:0:
510,311,145922,2,0,P|480:335|439:348,1,60,8|8,0:1|0:1,0:0:0:0:
424,266,146266,2,0,P|412:236|381:200,2,60,8|8|8,0:1|0:1|0:1,0:0:0:0:
273,343,146953,6,0,P|201:348|129:363,1,120,12|8,0:0|0:1,0:0:0:0:
72,380,147469,2,0,P|66:305|52:234,1,120,8|8,0:0|0:1,0:0:0:0:
11,190,147985,1,12,0:0:0:0:
146,90,148329,22,8,B|185:137|185:137|172:217,2,120,8|8|8,0:1|0:1|0:1,0:1:0:0:
113,254,149360,2,0,P|154:279|191:279,1,60,8|8,0:1|0:1,0:0:0:0:
242,244,149704,6,0,L|382:230,1,120,8|8,0:0|0:1,0:0:0:0:
376,149,150215,2,0,P|411:97|467:102,1,120,8|8,0:0|0:1,0:0:0:0:
499,175,150726,1,8,0:1:0:0:
420,323,151067,6,0,P|390:320|360:318,1,60,8|8,0:1|0:1,0:0:0:0:
282,349,151408,2,0,L|210:345,1,60,8|8,0:1|0:1,0:0:0:0:
148,303,151749,2,0,P|144:267|155:231,1,60,8|8,0:1|0:1,0:0:0:0:
181,166,152090,1,8,0:1:0:0:
70,39,152431,6,0,P|144:54|213:51,1,120,12|8,0:0|0:1,0:0:0:0:
263,15,152942,2,0,P|319:43|304:98,1,120,8|8,0:0|0:1,0:0:0:0:
270,165,153454,2,0,P|263:209|267:238,1,60,0|8,0:0|0:1,0:0:0:0:
266,307,153794,22,0,P|236:307|206:303,1,60,8|8,0:1|0:1,0:0:0:0:
130,265,154135,1,8,0:1:0:0:
270,165,154476,6,0,P|299:165|329:161,1,60,8|8,0:1|0:1,0:0:0:0:
404,121,154817,1,8,0:1:0:0:
241,81,155158,6,0,P|192:119|185:183,1,120,8|8,0:0|0:1,0:0:0:0:
200,255,155672,2,0,P|133:265|59:238,1,120,8|0,0:0|0:1,0:0:0:0:
25,190,156186,1,8,0:0:0:0:
124,54,156529,6,0,P|185:64|243:81,1,120,8|8,0:1|0:1,0:0:0:0:
408,68,157215,2,0,P|392:21|316:41,1,120,8|8,0:1|0:1,0:0:0:0:
281,181,157900,22,0,B|275:260|281:319,1,120,8|8,0:0|0:1,0:0:0:0:
340,360,158415,1,8,0:0:0:0:
401,303,158586,2,0,P|439:275|474:264,1,60,8|8,0:1|0:1,0:0:0:0:
501,202,158929,2,0,P|495:159|479:120,1,60,8|8,0:0|0:1,0:0:0:0:
425,88,159272,5,8,0:1:0:0:
281,181,159615,1,8,0:1:0:0:
401,303,159958,1,8,0:1:0:0:
365,139,160300,1,8,0:1:0:0:
265,274,160643,6,0,P|198:271|141:264,1,120,8|0,0:0|0:0,0:0:0:0:
66,234,161158,2,0,P|92:170|151:181,1,120,8|0,0:0|0:0,0:0:0:0:
217,186,161672,1,8,0:1:0:0:
274,69,162015,6,0,P|311:66|347:72,1,60,8|8,0:1|0:1,0:0:0:0:
415,89,162358,1,8,0:1:0:0:
488,239,162700,22,0,P|450:236|415:242,1,60,8|8,0:1|0:1,0:0:0:0:
346,260,163043,1,8,0:1:0:0:
256,192,163386,12,12,165479,0:0:0:0:
66,277,166191,38,0,P|51:216|77:144,1,120,8|8,0:1|0:0,0:0:0:0:
141,125,166705,1,8,0:1:0:0:
220,273,167048,1,8,0:1:0:0:
220,273,167219,2,0,P|206:311|199:355,1,60,8|0,0:0|0:0,0:0:0:0:
286,326,167562,22,0,P|360:341|406:339,1,120,8|8,0:1|0:0,0:0:0:0:
479,301,168076,1,0,0:1:0:0:
330,221,168419,1,8,0:1:0:0:
330,221,168591,2,0,P|320:173|323:139,1,60,8|0,0:0|0:0,0:0:0:0:
356,86,168933,6,0,P|436:80|459:127,1,120,8|8,0:1|0:0,0:0:0:0:
457,190,169448,1,0,0:0:0:0:
351,321,169791,1,8,0:1:0:0:
351,321,169962,2,0,P|290:312|267:311,1,60,8|0,0:0|0:0,0:0:0:0:
206,301,170305,6,0,P|162:318|88:322,1,120,8|8,0:1|0:0,0:0:0:0:
17,278,170819,1,8,0:1:0:0:
117,143,171162,1,8,0:0:0:0:
117,143,171333,2,0,L|129:217,1,60,8|8,0:1|0:0,0:0:0:0:
194,150,171676,6,0,P|177:91|107:58,1,120,8|8,0:1|0:0,0:0:0:0:
45,70,172191,1,0,0:0:0:0:
201,11,172533,2,0,P|239:21|272:22,1,60,8|8,0:1|0:1,0:0:0:0:
342,9,172876,1,10,0:0:0:0:
383,84,173048,22,0,P|369:157|368:215,1,120,8|8,0:1|0:0,0:0:0:0:
411,276,173562,1,0,0:0:0:0:
266,364,173905,2,0,P|269:324|261:282,1,60,8|8,0:1|0:0,0:0:0:0:
204,246,174248,1,8,0:0:0:0:
266,185,174419,6,0,P|331:170|373:219,1,120,8|8,0:1|0:0,0:0:0:0:
411,276,174933,1,8,0:1:0:0:
505,137,175276,2,0,P|499:100|482:68,1,60,8|8,0:0|0:0,0:0:0:0:
426,23,175619,1,8,0:1:0:0:
381,94,175791,6,0,P|321:105|299:103,1,60,8|8,0:0|0:0,0:0:0:0:
259,50,176133,1,8,0:0:0:0:
107,113,176476,2,8,B|70:185|132:212|97:302,1,180,8|8,0:1|0:1,0:1:0:0:
30,335,177162,6,0,P|57:365|140:364,1,120,6|10,0:0|0:0,0:0:0:0:
197,314,177676,1,0,0:0:0:0:
281,309,177848,2,0,P|327:340|357:343,2,60,2|8|10,0:0|0:1|0:0,0:0:0:0:
250,230,178362,1,8,0:1:0:0:
332,205,178533,22,0,P|342:178|345:133,1,60,2|0,0:0|0:0,0:0:0:0:
273,104,178876,2,0,P|263:77|260:32,1,60,10|8,0:0|0:1,0:0:0:0:
180,15,179219,2,0,P|129:15|99:-2,2,60,2|0|10,0:0|0:0|0:0,0:0:0:0:
31,94,179905,6,0,P|36:124|53:225,1,120,2|10,0:0|0:0,0:0:0:0:
98,282,180419,1,0,0:0:0:0:
113,364,180591,2,0,P|77:368|46:365,2,60,2|8|10,0:0|0:1|0:0,0:0:0:0:
194,343,181105,1,8,0:1:0:0:
275,361,181276,6,0,P|309:341|356:333,1,60,2|0,0:0|0:0,0:0:0:0:
365,259,181619,2,0,P|393:274|440:282,1,60,10|8,0:0|0:1,0:0:0:0:
488,329,181962,2,0,P|503:357|511:404,2,60,2|10|8,0:0|0:0|0:0,0:0:0:0:
445,167,182648,6,0,P|448:138|482:51,1,120,6|10,0:0|0:0,0:0:0:0:
403,17,183162,1,0,0:0:0:0:
329,57,183333,2,0,P|289:54|250:55,2,60,2|8|10,0:0|0:1|0:0,0:0:0:0:
361,135,183848,1,0,0:0:0:0:
283,219,184019,22,0,P|273:271|279:300,1,60,2|8,0:0|0:1,0:0:0:0:
203,324,184362,2,0,P|164:360|136:370,1,60,10|8,0:0|0:1,0:0:0:0:
83,327,184705,2,0,P|45:318|10:319,2,60,2|0|10,0:0|0:0|0:0,0:0:0:0:
56,158,185390,6,0,P|48:110|51:73,1,60,12|0,0:1|0:0,0:0:0:0:
85,23,185727,1,8,0:0:0:0:
217,131,186064,6,0,P|225:179|222:216,1,60,8|0,0:1|0:0,0:0:0:0:
204,271,186401,1,8,0:0:0:0:
343,178,186738,6,0,P|376:171|411:170,1,60,8|8,0:0|0:1,0:0:0:0:
486,167,187075,1,8,0:1:0:0:
460,246,187243,2,0,P|452:291|454:326,1,60,8|8,0:0|0:1,0:0:0:0:
484,383,187581,1,8,0:1:0:0:
400,374,187749,2,8,P|352:371|325:364,1,60
274,307,188086,5,0,0:0:0:0:
282,258,190828,1,2,0:0:0:0:
208,208,193628,2,2,P|256:176|294:172,1,90
256,192,196370,12,0,198381,0:0:0:0:
153,117,199051,6,0,B|160:56|133:32|133:32|87:21|48:48,2,180,8|8|8,0:1|0:1|0:1,0:0:0:0:
14,212,200422,1,8,0:1:0:0:
340,203,201108,2,0,P|397:185|456:187,1,120,8|8,0:1|0:1,0:0:0:0:
288,138,201793,6,0,P|258:219|317:282,2,180,8|0|0,0:0|0:0|0:0,0:0:0:0:
450,184,203165,1,8,0:1:0:0:
222,76,203679,1,0,0:0:0:0:
138,89,203851,2,0,B|139:219,1,120,8|8,0:1|0:1,0:0:0:0:
256,317,204536,6,0,B|180:303|164:339|76:324,2,180,8|0|0,0:0|0:0|0:0,0:0:0:0:
422,339,205915,2,0,B|443:296|443:296|416:221,1,120,8|8,0:1|0:1,0:0:0:0:
406,144,206432,1,0,0:0:0:0:
453,74,206604,2,0,B|410:53|410:53|335:80,1,120,8|8,0:1|0:1,0:0:0:0:
180,34,207294,6,0,P|168:83|177:114,2,60,8|0|8,0:0|0:0|0:0,0:0:0:0:
45,136,207984,2,0,P|55:206|52:221,2,60,8|0|8,0:0|0:0|0:0,0:0:0:0:
172,246,208673,22,0,P|173:275|184:303,1,60,8|0,0:0|0:0,0:0:0:0:
257,261,209018,2,0,P|286:259|314:248,1,60,8|0,0:0|0:0,0:0:0:0:
275,173,209363,2,0,P|273:143|262:115,1,60,8|0,0:0|0:0,0:0:0:0:
191,160,209708,2,0,P|161:161|133:172,1,60,8|0,0:0|0:0,0:0:0:0:
49,175,210053,6,0,P|67:240|73:303,1,120,14|8,0:0|0:0,0:0:0:0:
77,376,210570,1,0,0:1:0:0:
160,382,210742,2,0,P|196:377|221:368,2,60,8|8|8,0:1|0:1|0:0,0:0:0:0:
324,346,211432,6,0,P|334:313|354:278,1,60,8|0,0:1|0:0,0:0:0:0:
424,261,211777,1,8,0:0:0:0:
422,177,211949,2,0,P|456:183|489:205,2,60,8|0|8,0:1|0:2|0:1,0:0:0:0:
413,92,212467,2,0,P|385:102|341:97,1,60,8|8,0:0|0:1,0:0:0:0:
290,46,212811,6,0,P|267:5|192:14,1,120,8|8,0:1|0:0,0:0:0:0:
134,59,213329,1,8,0:1:0:0:
170,134,213501,2,0,P|199:134|229:131,2,60,8|8|8,0:1|0:1|0:0,0:0:0:0:
19,209,214191,22,0,P|10:256|11:291,2,60,8|8|8,0:1|0:1|0:0,0:0:0:0:
89,254,214708,2,0,P|95:308|93:336,2,60,8|8|8,0:1|0:1|0:1,0:0:0:0:
172,263,215225,2,0,P|200:245|239:240,1,60,8|8,0:0|0:0,0:0:0:0:
311,245,215570,6,0,P|355:280|362:358,1,120,8|8,0:0|0:0,0:0:0:0:
447,361,216075,1,8,0:1:0:0:
507,302,216244,2,0,P|503:240|505:218,2,60,8|8|8,0:1|0:1|0:0,0:0:0:0:
431,152,216918,6,0,P|437:122|439:92,2,60,8|8|8,0:1|0:1|0:0,0:0:0:0:
353,183,217423,1,8,0:1:0:0:
283,134,217592,2,0,P|254:136|206:147,1,60,8|8,0:1|0:1,0:0:0:0:
158,194,217929,2,0,P|141:244|144:304,1,60,8|0,0:0|0:0,0:0:0:0:
202,307,218266,6,0,P|240:292|276:264,1,60,8|0,0:0|0:0,0:0:0:0:
330,323,218603,2,0,P|340:283|337:237,1,60,8|0,0:0|0:0,0:0:0:0:
422,242,218940,2,0,P|401:206|366:176,1,60,8|0,0:0|0:0,0:0:0:0:
415,113,219277,2,0,P|374:109|329:120,1,60,8|0,0:0|0:0,0:0:0:0:
256,192,219614,12,8,220963,0:0:0:0:
