osu file format v14

[General]
AudioFilename: audio.mp3
AudioLeadIn: 0
PreviewTime: 99808
Countdown: 0
SampleSet: Soft
StackLeniency: 0.5
Mode: 0
LetterboxInBreaks: 0
EpilepsyWarning: 1
WidescreenStoryboard: 1

[Editor]
Bookmarks: 1606,23532,78357,100317,133263,166191,188110,199081,221024,234738
DistanceSpacing: 1.1
BeatDivisor: 4
GridSize: 4
TimelineZoom: 1.9

[Metadata]
Title:haze
TitleUnicode:haze
Artist:TK from Ling tosite sigure
ArtistUnicode:TK from 凛として時雨
Creator:Ametrin
Version:Extra
Source:
Tags:flowering misure
BeatmapID:1204502
BeatmapSetID:568305

[Difficulty]
HPDrainRate:6
CircleSize:4
OverallDifficulty:8.5
ApproachRate:9.2
SliderMultiplier:1.7
SliderTickRate:1

[Events]
//Background and Video events
0,0,"BG.jpg",0,0
//Break Periods
2,78557,86967
2,191028,193058
//Storyboard Layer 0 (Background)
//Storyboard Layer 1 (Fail)
//Storyboard Layer 2 (Pass)
//Storyboard Layer 3 (Foreground)
Sprite,Foreground,Centre,"SB\highlight.png",320,240 M,0,133263,133757,323,243 F,0,133263,133757,1,0 C,0,133263,133757,0,204,255 P,0,133263,133757,A
Sprite,Foreground,Centre,"SB\highlight.png",320,240 M,0,135968,136488,435,61 F,0,135968,136488,1,0 C,0,135968,136488,61,119,255 P,0,135968,136488,A
Sprite,Foreground,Centre,"SB\highlight.png",320,240 M,0,138733,139245,68,92 F,0,138733,139245,1,0 C,0,138733,139245,255,51,0 P,0,138733,139245,A
Sprite,Foreground,Centre,"SB\highlight.png",320,240 M,0,139245,139758,358,281 F,0,139245,139758,1,0 C,0,139245,139758,61,119,255 P,0,139245,139758,A
Sprite,Foreground,Centre,"SB\highlight.png",320,240 M,0,141468,141980,392,88 F,0,141468,141980,1,0 C,0,141468,141980,61,119,255 P,0,141468,141980,A
Sprite,Foreground,Centre,"SB\highlight.png",320,240 M,0,144203,144718,324,317 F,0,144203,144718,1,0 C,0,144203,144718,0,204,255 P,0,144203,144718,A
Sprite,Foreground,Centre,"SB\highlight.png",320,240 M,0,144718,145234,287,60 F,0,144718,145234,1,0 C,0,144718,145234,255,51,0 P,0,144718,145234,A
Sprite,Foreground,Centre,"SB\highlight.png",320,240 M,0,145234,145750,160,79 F,0,145234,145750,1,0 C,0,145234,145750,255,51,0 P,0,145234,145750,A
Sprite,Foreground,Centre,"SB\highlight.png",320,240 M,0,146953,147469,500,112 F,0,146953,147469,1,0 C,0,146953,147469,0,204,255 P,0,146953,147469,A
Sprite,Foreground,Centre,"SB\highlight.png",320,240 M,0,147469,147985,350,444 F,0,147469,147985,1,0 C,0,147469,147985,255,51,0 P,0,147469,147985,A
Sprite,Foreground,Centre,"SB\highlight.png",320,240 M,0,147985,148500,399,80 F,0,147985,148500,1,0 C,0,147985,148500,255,51,0 P,0,147985,148500,A
Sprite,Foreground,Centre,"SB\highlight.png",320,240 M,0,149704,150215,494,142 F,0,149704,150215,1,0 C,0,149704,150215,0,204,255 P,0,149704,150215,A
Sprite,Foreground,Centre,"SB\highlight.png",320,240 M,0,150215,150726,194,206 F,0,150215,150726,1,0 C,0,150215,150726,255,51,0 P,0,150215,150726,A
Sprite,Foreground,Centre,"SB\highlight.png",320,240 M,0,152431,152942,524,280 F,0,152431,152942,1,0 C,0,152431,152942,61,119,255 P,0,152431,152942,A
Sprite,Foreground,Centre,"SB\highlight.png",320,240 M,0,152942,153454,314,271 F,0,152942,153454,1,0 C,0,152942,153454,61,119,255 P,0,152942,153454,A
Sprite,Foreground,Centre,"SB\highlight.png",320,240 M,0,155158,155672,208,186 F,0,155158,155672,1,0 C,0,155158,155672,0,204,255 P,0,155158,155672,A
Sprite,Foreground,Centre,"SB\highlight.png",320,240 M,0,155672,156186,248,374 F,0,155672,156186,1,0 C,0,155672,156186,0,204,255 P,0,155672,156186,A
Sprite,Foreground,Centre,"SB\highlight.png",320,240 M,0,156186,156700,573,371 F,0,156186,156700,1,0 C,0,156186,156700,255,51,0 P,0,156186,156700,A
Sprite,Foreground,Centre,"SB\highlight.png",320,240 M,0,157900,158415,383,233 F,0,157900,158415,1,0 C,0,157900,158415,255,179,0 P,0,157900,158415,A
Sprite,Foreground,Centre,"SB\highlight.png",320,240 M,0,158415,158929,387,324 F,0,158415,158929,1,0 C,0,158415,158929,0,204,255 P,0,158415,158929,A
Sprite,Foreground,Centre,"SB\highlight.png",320,240 M,0,158929,159443,370,181 F,0,158929,159443,1,0 C,0,158929,159443,255,51,0 P,0,158929,159443,A
Sprite,Foreground,Centre,"SB\highlight.png",320,240 M,0,160643,161158,378,114 F,0,160643,161158,1,0 C,0,160643,161158,0,204,255 P,0,160643,161158,A
Sprite,Foreground,Centre,"SB\highlight.png",320,240 M,0,161158,161672,467,302 F,0,161158,161672,1,0 C,0,161158,161672,255,51,0 P,0,161158,161672,A
Sprite,Foreground,Centre,"SB\highlight.png",320,240 M,0,163368,163909,80,184 F,0,163368,163909,1,0 C,0,163368,163909,255,179,0 P,0,163368,163909,A
Sprite,Foreground,Centre,"SB\ring.png",320,240 M,0,166191,166705,338,418 F,0,166191,166705,1,0 S,0,166191,166705,0.5,1.5 C,0,166191,166705,255,255,255 P,0,166191,166705,A
Sprite,Foreground,Centre,"SB\ring.png",320,240 M,0,166191,166705,338,418 F,0,166191,166705,1,0 S,0,166191,166705,0.5,1.5 C,0,166191,166705,255,255,255 P,0,166191,166705,A
Sprite,Foreground,Centre,"SB\ring.png",320,240 M,0,188086,188600,338,418 F,0,188086,188600,0.8,0 S,0,188086,188600,0.5,1.5 C,0,188086,188600,255,255,255 P,0,188086,188600,A
Sprite,Foreground,Centre,"SB\ring.png",320,240 M,0,188086,188600,338,418 F,0,188086,188600,0.8,0 S,0,188086,188600,0.5,1.5 C,0,188086,188600,255,255,255 P,0,188086,188600,A
Sprite,Foreground,Centre,"SB\ring.png",320,240 M,0,190828,191343,205,291 F,0,190828,191343,0.8,0 S,0,190828,191343,0.5,1.5 C,0,190828,191343,255,255,255 P,0,190828,191343,A
Sprite,Foreground,Centre,"SB\ring.png",320,240 M,0,193628,194142,321,380 F,0,193628,194142,0.8,0 S,0,193628,194142,0.5,1.5 C,0,193628,194142,255,255,255 P,0,193628,194142,A
//Storyboard Sound Samples

[TimingPoints]
1606,342.857142857143,4,2,1,20,1,0
1606,-200,4,2,1,20,0,0
12063,-200,4,2,1,30,0,0
12577,340.909090909091,4,2,1,30,1,0
12577,-133.333333333333,4,2,1,30,0,0
15304,344.827586206897,4,2,1,30,1,0
15304,-133.333333333333,4,2,1,30,0,0
18062,341.880341880342,4,2,1,30,1,0
18062,-133.333333333333,4,2,1,30,0,0
23532,342.857142857143,4,2,1,30,1,0
23532,-100,4,2,1,30,0,0
45474,-100,4,2,1,40,0,0
56446,340.909090909091,4,2,1,40,1,0
59174,342.857142857143,4,2,1,40,1,0
61916,345.821325648415,4,2,1,40,1,0
64682,342.857142857143,4,2,1,40,1,0
77024,333.333333333333,4,2,1,40,1,0
78357,344.43168771527,4,2,1,40,1,0
87656,-200,4,2,1,40,0,0
88689,-133.333333333333,4,2,1,40,0,0
89377,341.880341880342,4,2,1,40,1,0
99633,-100,4,2,1,50,0,0
100321,342.857142857143,4,2,1,20,1,0
100321,-200,4,2,1,20,0,0
111292,-133.333333333333,4,2,1,30,0,0
119863,-133.333333333333,4,2,1,35,0,0
120206,-133.333333333333,4,2,1,40,0,0
120549,-133.333333333333,4,2,1,45,0,0
120892,-133.333333333333,4,2,1,50,0,0
121235,-133.333333333333,4,2,1,60,0,0
121578,-133.333333333333,4,2,1,70,0,0
121921,-133.333333333333,4,2,1,80,0,0
122263,344.827586206897,4,2,1,20,1,0
122263,-200,4,2,1,20,0,0
127780,-133.333333333333,4,2,1,30,0,0
130538,337.078651685393,4,2,1,40,1,0
130538,-133.333333333333,4,2,1,40,0,0
131043,-133.333333333333,4,2,1,50,0,0
131549,-133.333333333333,4,2,1,60,0,0
132054,-133.333333333333,4,2,1,70,0,0
132560,-200,4,2,1,5,0,0
133263,329.67032967033,4,2,1,40,1,0
134581,346.820809248555,4,2,1,60,1,0
138733,341.880341880342,4,2,1,60,1,0
143861,-100,4,2,1,50,0,0
144203,343.839541547278,4,2,1,50,1,1
149704,340.909090909091,4,2,1,70,1,1
155158,342.857142857143,4,2,1,70,1,1
159615,-90.9090909090909,4,2,1,60,0,1
159958,-90.9090909090909,4,2,1,50,0,1
160643,-90.9090909090909,4,2,1,60,0,1
163386,348.837209302326,4,2,1,50,1,1
163734,-90.9090909090909,4,2,1,55,0,1
164083,-90.9090909090909,4,2,1,60,0,1
164432,-90.9090909090909,4,2,1,65,0,1
164781,-90.9090909090909,4,2,1,70,0,1
165130,-90.9090909090909,4,2,1,75,0,1
165479,-200,4,2,1,40,0,0
166191,342.857142857143,4,2,1,50,1,0
177162,-90.9090909090909,4,2,1,70,0,1
182648,-90.9090909090909,4,2,1,70,0,1
185390,337.078651685393,4,2,1,70,1,1
188086,342.857142857143,4,2,1,40,1,0
188086,-200,4,2,1,40,0,0
193628,342.857142857143,4,2,1,20,1,0
193628,-200,4,2,1,20,0,0
196370,335.195530726257,4,2,1,10,1,0
196370,-133.333333333333,4,2,1,10,0,0
198381,-66.6666666666667,4,2,1,40,0,0
199051,342.857142857143,4,2,1,40,1,0
199051,-90.9090909090909,4,2,1,40,0,0
204536,344.827586206897,4,2,1,40,1,0
208329,-90.9090909090909,4,2,1,60,0,0
209018,-90.9090909090909,4,2,1,65,0,0
210053,-83.3333333333333,4,2,1,70,0,1
215570,337.078651685393,4,2,1,70,1,1
220963,-83.3333333333333,4,2,1,70,0,0

[Colours]
Combo1 : 255,255,255
Combo2 : 255,51,0
Combo3 : 61,119,255
Combo4 : 255,179,0
Combo5 : 0,204,255

[HitObjects]
369,33,1606,6,0,L|317:25,2,42.5,2|0|0,0:0|0:0|0:0,0:0:0:0:
453,98,2120,2,0,L|498:91,2,42.5,2|0|0,0:0|0:0|0:0,0:0:0:0:
352,130,2634,2,0,P|347:152|343:179,2,42.5,2|0|0,0:0|0:0|0:0,0:0:0:0:
435,193,3148,2,0,P|440:220|442:254,2,42.5,2|0|0,0:0|0:0|0:0,0:0:0:0:
453,98,3663,2,0,P|462:74|473:48,2,42.5,2|0|0,0:0|0:0|0:0,0:0:0:0:
352,129,4177,1,2,0:0:0:0:
184,43,4348,6,0,P|120:23|59:29,1,127.5,2|0,0:0|0:0,0:0:0:0:
121,138,7091,6,0,L|113:82,2,42.5,2|0|0,0:0|0:0|0:0,0:0:0:0:
188,220,7606,2,0,P|181:243|171:272,2,42.5,2|0|0,0:0|0:0|0:0,0:0:0:0:
267,134,8120,2,0,P|241:128|212:125,2,42.5,2|0|0,0:0|0:0|0:0,0:0:0:0:
330,227,8634,2,0,L|376:231,2,42.5,2|0|0,0:0|0:0|0:0,0:0:0:0:
356,94,9148,2,0,P|363:128|365:150,2,42.5,2|0|0,0:0|0:0|0:0,0:0:0:0:
266,21,9663,1,2,0:0:0:0:
190,185,9834,6,0,P|176:251|175:323,1,127.5,2|0,0:0|0:0,0:0:0:0:
184,327,12063,21,8,0:0:0:0:
422,326,12234,1,8,0:0:0:0:
422,325,12577,6,0,P|463:334|501:339,1,63.7500024318696,8|0,0:1|0:0,0:0:0:0:
360,256,12917,1,8,0:0:0:0:
263,358,13088,2,0,L|295:356|327:354,1,63.7500024318696,8|0,0:1|0:0,0:0:0:0:
356,248,13429,1,8,0:1:0:0:
243,135,13599,2,0,P|244:167|246:199,1,63.7500024318696,8|0,0:0|0:0,0:0:0:0:
352,239,13940,1,0,0:0:0:0:
419,142,14111,2,0,L|419:134|419:79,1,63.7500024318696,8|8,0:1|0:0,0:0:0:0:
348,230,14452,1,0,0:0:0:0:
284,68,14622,5,8,0:1:0:0:
419,142,14792,1,8,0:1:0:0:
227,196,14963,1,8,0:0:0:0:
227,196,15133,1,0,0:0:0:0:
210,0,15304,6,0,P|206:28|205:83,1,63.7500024318696,8|0,0:1|0:0,0:0:0:0:
123,140,15648,1,8,0:0:0:0:
227,196,15821,2,0,P|268:196|317:199,1,63.7500024318696,8|0,0:1|0:0,0:0:0:0:
127,148,16166,1,8,0:1:0:0:
48,286,16338,2,0,P|51:254|55:222,1,63.7500024318696,8|0,0:0|0:0,0:0:0:0:
132,155,16683,1,0,0:0:0:0:
0,78,16855,2,0,P|56:81|88:79,1,63.7500024318696,8|8,0:1|0:0,0:0:0:0:
137,162,17200,1,0,0:0:0:0:
219,32,17372,21,8,0:1:0:0:
63,80,17545,1,8,0:1:0:0:
137,162,17717,1,8,0:0:0:0:
137,162,17890,1,8,0:1:0:0:
54,235,18062,5,8,0:1:0:0:
137,365,18232,2,0,P|139:333|139:302,1,63.7500024318696,0|8,0:0|0:0,0:0:0:0:
46,240,18574,1,8,0:1:0:0:
112,103,18745,2,0,P|134:148|137:169,1,63.7500024318696,0|8,0:0|0:1,0:0:0:0:
37,244,19087,1,8,0:0:0:0:
209,214,19258,2,0,L|285:209,1,63.7500024318696
29,249,19600,1,8,0:1:0:0:
124,368,19771,2,0,L|51:374,1,63.7500024318696,8|0,0:0|0:0,0:0:0:0:
136,161,20113,5,8,0:1:0:0:
217,348,20284,1,8,0:1:0:0:
272,209,20455,1,8,0:0:0:0:
272,209,20626,1,8,0:1:0:0:
384,332,20797,5,8,0:1:0:0:
465,258,20967,2,0,P|463:227|460:176,1,63.7500024318696,0|8,0:0|0:0,0:0:0:0:
379,340,21309,1,8,0:1:0:0:
233,291,21480,2,0,P|264:288|299:286,1,63.7500024318696,0|8,0:0|0:1,0:0:0:0:
375,348,21822,1,8,0:0:0:0:
372,178,21993,2,0,P|366:207|363:257,1,63.7500024318696
370,356,22335,1,8,0:1:0:0:
233,291,22506,22,0,L|237:245,1,31.8750012159348,8|0,0:0|0:0,0:0:0:0:
140,222,22677,2,0,L|142:268,1,31.8750012159348,8|0,0:0|0:0,0:0:0:0:
226,139,22848,1,8,0:0:0:0:
265,118,22933,1,8,0:0:0:0:
309,121,23019,1,8,0:0:0:0:
349,140,23104,1,8,0:0:0:0:
372,178,23190,1,8,0:0:0:0:
301,330,23361,1,8,0:0:0:0:
301,330,23446,1,8,0:0:0:0:
301,330,23532,6,0,P|251:320|204:315,1,85,12|0,0:0|0:0,0:0:0:0:
56,238,23874,2,0,P|111:227|154:218,1,85,8|8,0:0|0:1,0:1:0:0:
251,134,24217,2,0,P|247:176|240:218,1,85,0|8,0:0|0:1,0:0:0:0:
144,225,24560,1,8,0:0:0:0:
144,225,24732,1,0,0:0:0:0:
217,316,24903,5,0,0:0:0:0:
100,341,25074,2,0,L|16:345,1,85,0|8,0:0|0:0,0:0:0:0:
36,252,25417,1,0,0:0:0:0:
36,252,25760,1,8,0:1:0:0:
16,345,25932,2,0,L|127:341,1,85,8|8,0:0|0:1,0:0:0:0:
203,207,26274,6,0,P|161:219|142:270,1,85,8|0,0:1|0:0,0:0:0:0:
200,326,26617,1,8,0:0:0:0:
303,296,26789,2,0,B|362:296|362:296|412:323|412:323|468:319,1,170,8|8,0:1|0:1,0:0:0:0:
496,230,27303,1,8,0:0:0:0:
496,230,27646,21,8,0:1:0:0:
466,319,27817,2,0,L|371:321,1,85,8|8,0:1|0:0,0:0:0:0:
496,230,28160,1,0,0:0:0:0:
421,162,28332,2,0,P|400:198|397:247,1,85,8|8,0:1|0:1,0:0:0:0:
470,81,28674,1,8,0:0:0:0:
392,27,28846,1,8,0:1:0:0:
316,182,29017,6,0,L|308:266,1,85,8|0,0:1|0:0,0:0:0:0:
239,127,29360,2,0,P|280:90|323:87,1,85,8|0,0:0|0:1,0:0:0:0:
228,221,29703,2,0,B|187:222|136:207,1,85,0|8,0:0|0:1,0:0:0:0:
88,133,30046,1,8,0:0:0:0:
88,133,30217,1,0,0:0:0:0:
218,21,30389,5,0,0:0:0:0:
334,28,30560,2,0,B|341:65|341:65|332:112,1,85,0|8,0:0|0:0,0:0:0:0:
249,135,30903,1,8,0:1:0:0:
249,135,31246,1,8,0:1:0:0:
332,112,31417,2,0,B|341:65|341:65|334:24,1,85,8|8,0:0|0:1,0:0:0:0:
437,187,31760,6,0,B|428:234|428:234|435:275,1,85,8|8,0:1|0:1,0:0:0:0:
478,353,32103,1,8,0:0:0:0:
338,298,32274,2,0,B|265:284|262:349|177:343,1,170,8|8,0:1|0:1,0:0:0:0:
96,307,32789,1,8,0:0:0:0:
96,307,33132,21,8,0:1:0:0:
179,343,33303,2,0,P|221:338|279:336,1,85,8|8,0:1|0:0,0:0:0:0:
96,307,33646,1,8,0:1:0:0:
96,307,33732,1,8,0:1:0:0:
96,307,33817,1,8,0:1:0:0:
189,219,33989,1,8,0:1:0:0:
71,187,34160,1,8,0:0:0:0:
280,145,34332,6,0,P|300:139|321:136,1,42.5,8|0,0:1|0:0,0:0:0:0:
273,236,34503,2,0,P|220:226|180:217,1,85,0|0,0:1|0:0,0:0:0:0:
450,200,34846,2,0,L|431:299,1,85,8|0,0:0|0:1,0:0:0:0:
353,332,35189,1,0,0:0:0:0:
433,283,35360,1,8,0:1:0:0:
280,145,35532,2,0,P|220:131|179:130,1,85,8|0,0:0|0:0,0:0:0:0:
136,58,35874,5,0,0:0:0:0:
255,29,36046,1,0,0:0:0:0:
124,52,36217,1,8,0:0:0:0:
196,129,36389,2,0,B|226:126|243:112|243:112|278:117|306:102|306:102|339:96|383:108,1,170,8|8,0:1|0:1,0:0:0:0:
490,142,36903,1,8,0:0:0:0:
360,102,37074,1,8,0:1:0:0:
468,232,37246,6,0,P|465:275|467:317,1,85,8|0,0:1|0:0,0:0:0:0:
379,202,37589,1,8,0:0:0:0:
333,283,37760,2,0,B|289:284|257:314|257:314|211:297|150:310,1,170,0|8,0:1|0:1,0:0:0:0:
114,380,38274,1,8,0:0:0:0:
114,380,38617,21,8,0:1:0:0:
172,306,38789,2,0,P|217:305|270:315,1,85,8|8,0:1|0:0,0:0:0:0:
114,380,39132,1,8,0:1:0:0:
38,253,39303,2,0,P|30:295|30:338,1,85,8|0,0:1|0:0,0:0:0:0:
86,174,39646,1,8,0:0:0:0:
214,204,39817,6,0,P|245:210|273:208,1,42.5,8|0,0:1|0:0,0:0:0:0:
362,121,39989,2,0,L|277:130,1,85,8|0,0:1|0:0,0:0:0:0:
136,42,40332,2,0,L|221:54,1,85,8|8,0:0|0:1,0:0:0:0:
81,143,40674,2,8,L|166:131,1,85,8|8,0:1|0:1,0:1:0:0:
362,121,41017,2,0,P|359:169|363:228,1,85,8|0,0:0|0:0,0:0:0:0:
276,368,41360,5,0,0:0:0:0:
154,336,41532,2,0,P|112:334|70:336,1,85,0|8,0:0|0:0,0:0:0:0:
25,252,41874,1,8,0:1:0:0:
25,252,42217,1,8,0:1:0:0:
70,336,42389,2,0,P|124:335|169:338,1,85,8|8,0:0|0:1,0:0:0:0:
270,83,42732,6,0,P|273:125|273:168,1,85,8|0,0:1|0:0,0:0:0:0:
204,229,43074,1,8,0:0:0:0:
141,167,43246,2,0,P|40:198|26:264,1,170,8|0,0:1|0:0,0:0:0:0:
79,335,43760,1,8,0:0:0:0:
79,335,44103,21,8,0:1:0:0:
24,251,44274,1,8,0:1:0:0:
171,289,44446,2,0,B|232:285|232:285|281:307|281:307|352:301,1,170,8|8,0:0|0:1,0:0:0:0:
367,290,44874,1,8,0:1:0:0:
391,266,44960,1,8,0:1:0:0:
404,234,45046,1,8,0:1:0:0:
406,199,45132,1,8,0:1:0:0:
280,33,45303,1,8,0:1:0:0:
280,33,45389,1,8,0:1:0:0:
280,33,45474,5,12,0:1:0:0:
406,199,45646,2,0,L|504:179,1,85,8|8,0:1|0:0,0:0:0:0:
287,44,45989,1,8,0:1:0:0:
418,211,46160,2,0,L|502:195,1,85,0|8,0:0|0:1,0:0:0:0:
297,54,46503,1,8,0:0:0:0:
429,220,46674,2,0,L|513:204,1,85,8|8,0:1|0:1,0:0:0:0:
429,54,47017,5,0,0:0:0:0:
296,166,47189,2,0,P|318:223|325:257,1,85,8|0,0:0|0:0,0:0:0:0:
434,340,47532,1,0,0:0:0:0:
201,348,47703,6,0,P|196:299|198:277,1,42.5
210,223,47874,1,8,0:0:0:0:
48,313,48046,1,8,0:1:0:0:
18,155,48217,21,8,0:1:0:0:
210,223,48389,2,0,L|193:326,1,85,0|8,0:0|0:0,0:0:0:0:
28,146,48732,1,8,0:1:0:0:
220,214,48903,2,0,L|203:317,1,85,0|8,0:0|0:1,0:0:0:0:
37,138,49246,1,8,0:0:0:0:
230,207,49417,2,0,L|225:256,2,42.5,0|0|8,0:0|0:0|0:1,0:0:0:0:
158,56,49760,5,0,0:0:0:0:
158,56,49846,1,0,0:0:0:0:
158,56,49932,2,0,P|212:52|257:52,1,85,8|0,0:0|0:0,0:0:0:0:
362,120,50274,1,8,0:1:0:0:
242,51,50446,1,8,0:1:0:0:
479,22,50617,2,0,P|471:67|470:126,1,85,8|0,0:0|0:0,0:0:0:0:
466,312,50960,5,12,0:0:0:0:
314,205,51132,2,8,L|226:207,1,85,0|8,0:0|0:0,0:0:0:0:
457,301,51474,1,8,0:1:0:0:
305,194,51646,2,8,L|217:196,1,85,0|8,0:0|0:1,0:0:0:0:
449,290,51989,1,8,0:0:0:0:
295,183,52160,2,8,L|207:185,1,85,0|8,0:0|0:1,0:0:0:0:
315,321,52503,5,0,0:0:0:0:
448,167,52674,2,0,P|408:142|372:108,1,85,8|0,0:0|0:0,0:0:0:0:
302,28,53017,1,0,0:0:0:0:
180,154,53189,22,0,P|174:185|169:219,1,42.5
172,283,53360,1,8,0:0:0:0:
26,186,53532,1,8,0:1:0:0:
119,36,53703,5,8,0:1:0:0:
26,186,53874,2,0,L|38:273,1,85,0|8,0:0|0:0,0:0:0:0:
108,40,54217,1,8,0:1:0:0:
16,187,54389,2,0,L|28:274,1,85,8|8,0:1|0:1,0:0:0:0:
97,44,54732,1,8,0:0:0:0:
7,189,54903,2,0,L|17:250,2,42.5,0|0|8,0:0|0:0|0:1,0:0:0:0:
151,330,55246,5,8,0:1:0:0:
151,330,55332,1,0,0:0:0:0:
151,330,55417,2,0,L|165:224,1,85,8|0,0:0|0:0,0:0:0:0:
108,146,55760,5,8,0:0:0:0:
234,57,55932,1,8,0:0:0:0:
247,88,56017,1,8,0:1:0:0:
250,122,56103,1,8,0:1:0:0:
374,233,56274,1,8,0:1:0:0:
361,270,56360,1,8,0:1:0:0:
356,306,56446,22,0,P|299:297|250:299,1,85,12|0,0:0|0:0,0:0:0:0:
87,209,56786,2,0,P|144:218|193:216,1,85,8|0,0:0|0:0,0:0:0:0:
192,218,57042,1,8,0:1:0:0:
212,214,57127,1,8,0:1:0:0:
307,183,57298,1,0,0:0:0:0:
375,57,57468,2,0,P|395:93|396:136,1,85,8|8,0:0|0:1,0:0:0:0:
492,234,57809,5,8,0:1:0:0:
391,298,57980,2,0,B|352:295|307:299,1,85,0|8,0:0|0:0,0:0:0:0:
261,217,58321,1,8,0:1:0:0:
261,217,58661,1,8,0:1:0:0:
307,299,58832,2,0,B|352:295|407:300,1,85,8|0,0:0|0:0,0:0:0:0:
482,281,59173,5,8,0:1:0:0:
414,211,59345,1,8,0:1:0:0:
510,196,59516,1,8,0:0:0:0:
391,298,59688,2,0,P|379:339|371:381,1,85,8|0,0:1|0:0,0:0:0:0:
219,329,60031,1,8,0:1:0:0:
307,299,60202,1,8,0:0:0:0:
145,236,60374,6,0,B|110:217|107:201|107:201|82:192|82:192|59:164|14:156|-10:167,1,170,8|8,0:1|0:1,0:0:0:0:
173,132,60888,1,8,0:0:0:0:
40,267,61059,1,0,0:0:0:0:
24,84,61231,1,8,0:1:0:0:
145,236,61402,1,8,0:1:0:0:
145,236,61488,1,0,0:0:0:0:
145,236,61574,2,0,P|206:227|248:224,1,85,8|0,0:0|0:0,0:0:0:0:
370,103,61916,21,8,0:1:0:0:
248,117,62088,1,8,0:1:0:0:
468,180,62261,2,0,P|490:132|494:95,1,85,8|0,0:0|0:0,0:0:0:0:
359,3,62607,1,8,0:1:0:0:
373,211,62780,1,0,0:0:0:0:
373,211,62867,1,0,0:0:0:0:
373,211,62953,2,0,P|376:259|379:320,1,85,8|0,0:0|0:0,0:0:0:0:
203,360,63299,21,8,0:1:0:0:
139,219,63472,2,0,P|181:216|224:213,1,85,0|8,0:0|0:0,0:0:0:0:
290,272,63818,1,0,0:0:0:0:
290,272,64163,1,0,0:0:0:0:
224,213,64336,2,0,P|178:217|124:221,1,85,8|0,0:0|0:0,0:0:0:0:
96,113,64682,5,8,0:1:0:0:
179,20,64853,1,8,0:1:0:0:
50,0,65024,1,8,0:0:0:0:
240,129,65196,2,0,P|230:165|222:234,1,85,8|0,0:1|0:0,0:0:0:0:
458,154,65539,1,8,0:1:0:0:
467,116,65624,1,8,0:1:0:0:
472,78,65710,1,8,0:0:0:0:
344,235,65882,21,8,0:1:0:0:
332,271,65967,1,8,0:1:0:0:
325,308,66053,1,8,0:0:0:0:
449,353,66224,2,0,P|457:280|452:241,1,85
356,41,66567,6,0,P|348:114|353:153,1,85
202,201,66910,1,8,0:0:0:0:
238,42,67082,1,0,0:1:0:0:
238,42,67167,1,0,0:1:0:0:
238,42,67253,1,0,0:1:0:0:
238,42,67339,1,0,0:1:0:0:
238,42,67424,22,0,P|245:97|242:140,1,85,4|0,0:0|0:0,0:0:0:0:
202,201,67681,1,8,0:1:0:0:
202,201,67766,1,8,0:0:0:0:
53,94,67938,1,8,0:1:0:0:
53,94,68110,2,0,L|146:100,1,85,0|8,0:0|0:1,0:1:0:0:
243,126,68453,1,8,0:0:0:0:
427,16,68624,1,0,0:0:0:0:
427,16,68710,1,0,0:0:0:0:
427,16,68796,21,0,0:0:0:0:
352,210,68967,2,0,L|340:117,1,85,0|8,0:0|0:0,0:0:0:0:
485,245,69310,2,0,L|475:330,1,85,8|0,0:1|0:1,0:0:0:0:
340,355,69653,6,0,P|314:354|272:339,1,42.5
213,297,69824,1,8,0:0:0:0:
88,359,69995,1,0,0:0:0:0:
16,206,70167,6,0,B|51:223|106:223,1,85,8|0,0:1|0:0,0:0:0:0:
180,211,70424,1,0,0:0:0:0:
180,211,70509,1,8,0:0:0:0:
93,28,70681,1,0,0:0:0:0:
93,28,70852,2,0,L|95:141,1,85,8|8,0:1|0:1,0:1:0:0:
333,62,71195,1,8,0:0:0:0:
333,62,71281,1,0,0:0:0:0:
333,62,71367,2,0,P|333:100|332:124,1,42.5
393,258,71538,6,0,P|399:211|408:154,1,85,8|0,0:1|0:0,0:0:0:0:
483,98,71795,1,0,0:0:0:0:
483,98,71881,2,0,P|442:99|419:96,1,42.5,8|0,0:0|0:0,0:0:0:0:
240,172,72053,2,0,P|260:168|288:163,1,42.5,8|0,0:1|0:0,0:0:0:0:
393,258,72224,2,0,L|389:205,1,42.5,8|0,0:1|0:0,0:0:0:0:
329,19,72396,2,0,P|332:56|335:86,1,42.5,8|0,0:1|0:0,0:0:0:0:
240,172,72566,21,8,0:0:0:0:
234,214,72652,1,8,0:1:0:0:
229,255,72738,1,8,0:1:0:0:
227,297,72824,1,8,0:1:0:0:
224,339,72910,6,0,P|179:342|141:351,1,85,4|0,0:0|0:0,0:0:0:0:
69,384,73166,1,0,0:0:0:0:
69,384,73252,1,8,0:0:0:0:
140,181,73424,1,0,0:0:0:0:
140,181,73595,2,0,L|134:266,1,85,8|8,0:1|0:1,0:0:0:0:
31,184,73938,1,8,0:0:0:0:
176,87,74110,2,8,P|211:81|230:75,1,42.5,8|8,0:1|0:1,0:1:0:0:
300,25,74281,6,0,P|308:73|318:125,1,85,8|0,0:1|0:0,0:0:0:0:
343,197,74538,1,8,0:1:0:0:
343,197,74624,1,8,0:0:0:0:
490,71,74795,1,8,0:1:0:0:
314,108,74966,5,8,0:1:0:0:
469,268,75138,1,8,0:1:0:0:
432,136,75309,1,8,0:0:0:0:
356,344,75481,2,8,P|332:349|301:355,1,42.5,8|8,0:1|0:1,0:1:0:0:
270,238,75652,22,0,P|218:207|195:190,1,85,8|0,0:1|0:0,0:0:0:0:
85,116,75909,1,8,0:1:0:0:
85,116,75995,2,0,P|146:100|191:81,1,85,8|0,0:0|0:0,0:0:0:0:
226,9,76338,1,0,0:0:0:0:
142,272,76510,2,8,P|118:278|73:286,1,42.5,8|8,0:1|0:1,0:1:0:0:
198,192,76681,6,0,B|235:181|253:162|253:162|281:173|313:159|313:159|345:153|371:158,1,170,8|8,0:0|0:1,0:0:0:0:
404,158,77107,1,8,0:1:0:0:
444,180,77190,1,8,0:1:0:0:
466,221,77274,1,8,0:1:0:0:
455,266,77357,1,8,0:1:0:0:
413,286,77440,1,8,0:1:0:0:
371,262,77524,1,8,0:1:0:0:
372,215,77607,1,0,0:1:0:0:
414,195,77690,6,0,P|424:229|430:257,1,42.5,8|0,0:1|0:1,0:0:0:0:
340,365,77857,2,0,B|334:311,1,42.5,8|0,0:1|0:1,0:0:0:0:
216,235,78024,2,0,P|218:270|217:299,1,42.5,8|0,0:1|0:1,0:0:0:0:
95,331,78190,2,0,B|101:277,1,42.5,8|8,0:1|0:1,0:0:0:0:
0,236,78357,5,4,0:0:0:0:
55,255,87656,70,0,L|57:209,1,42.5
134,336,88001,2,0,L|131:357|128:378,2,42.5
214,275,88517,1,0,0:0:0:0:
214,275,88603,1,0,0:0:0:0:
214,275,88689,21,0,0:0:0:0:
311,285,88862,1,0,0:0:0:0:
363,364,89034,1,0,0:0:0:0:
407,238,89206,5,0,0:0:0:0:
407,238,89292,1,0,0:0:0:0:
407,238,89378,2,0,L|405:146,1,85,8|0,0:1|0:0,0:0:0:0:
405,67,89718,1,8,0:1:0:0:
405,67,89889,1,0,0:0:0:0:
488,216,90060,1,8,0:1:0:0:
469,298,90231,1,0,0:0:0:0:
386,319,90402,1,8,0:1:0:0:
212,259,90573,6,0,B|170:245|170:245|103:254,1,85,8|8,0:0|0:1,0:0:0:0:
124,355,90915,2,0,B|164:369|164:369|205:358,1,85,8|8,0:0|0:1,0:0:0:0:
43,298,91257,2,8,L|21:356,1,42.5,8|8,0:1|0:1,0:1:0:0:
6,217,91428,5,8,0:1:0:0:
6,217,91599,1,8,0:1:0:0:
82,112,91770,1,8,0:1:0:0:
82,112,91941,1,8,0:1:0:0:
251,183,92112,22,0,P|316:189|350:188,1,85,8|0,0:0|0:0,0:0:0:0:
418,170,92453,1,8,0:1:0:0:
418,170,92624,1,0,0:0:0:0:
198,113,92795,1,8,0:1:0:0:
163,190,92966,1,0,0:0:0:0:
212,259,93137,1,8,0:1:0:0:
20,139,93308,6,0,B|115:109,1,85,8|8,0:0|0:1,0:0:0:0:
329,150,93650,2,0,B|250:183,1,85,8|8,0:0|0:1,0:0:0:0:
228,42,93992,2,8,L|215:-15,2,42.5,8|8|8,0:1|0:1|0:1,0:1:0:0:
329,150,94334,2,8,L|316:207,2,42.5,8|8|8,0:1|0:1|0:1,0:1:0:0:
426,47,94676,1,8,0:1:0:0:
495,274,94847,22,0,P|441:263|391:263,1,85,8|0,0:0|0:0,0:0:0:0:
328,282,95188,1,8,0:1:0:0:
328,282,95359,1,0,0:0:0:0:
512,356,95530,1,8,0:1:0:0:
495,274,95701,1,0,0:0:0:0:
509,190,95872,1,8,0:1:0:0:
312,73,96043,22,0,P|358:85|404:91,1,85,8|8,0:0|0:1,0:0:0:0:
212,212,96385,1,0,0:0:0:0:
212,212,96556,2,0,P|166:224|120:230,1,85,8|8,0:0|0:1,0:0:0:0:
42,88,96898,22,0,L|0:86,3,42.5,8|0|0|0,0:1|0:0|0:0|0:0,0:0:0:0:
125,48,97240,2,0,L|167:55,3,42.5,8|0|0|0,0:1|0:0|0:0|0:0,0:0:0:0:
114,139,97582,6,0,P|128:200|126:240,1,85,8|0,0:0|0:0,0:0:0:0:
115,306,97924,1,8,0:1:0:0:
115,306,98094,1,0,0:0:0:0:
42,88,98265,1,8,0:1:0:0:
125,48,98436,1,0,0:0:0:0:
205,90,98607,1,8,0:1:0:0:
339,148,98778,22,0,P|434:180|427:254,1,170,8|8,0:0|0:1,0:0:0:0:
426,265,99206,1,8,0:1:0:0:
404,284,99291,1,8,0:1:0:0:
374,290,99377,1,8,0:1:0:0:
345,282,99462,1,8,0:1:0:0:
320,266,99547,1,8,0:1:0:0:
281,239,99633,5,8,0:1:0:0:
237,222,99718,1,8,0:1:0:0:
190,224,99804,1,8,0:1:0:0:
158,258,99889,1,8,0:1:0:0:
158,305,99975,1,8,0:1:0:0:
193,335,100060,1,8,0:1:0:0:
239,328,100146,1,8,0:1:0:0:
250,283,100231,1,8,0:1:0:0:
202,266,100321,54,0,B|127:237|41:243|41:243|46:194|93:172|93:172|76:215,1,297.5,2|0,0:0|0:0,0:0:0:0:
199,180,101692,6,0,B|252:129|269:32|269:32|223:33|181:66|181:66|232:68,1,297.5,2|0,0:0|0:0,0:0:0:0:
340,108,103063,6,0,B|407:138|504:117|504:117|479:171|452:192|452:192|455:137,1,297.5,2|0,0:0|0:0,0:0:0:0:
368,201,104435,6,0,B|333:264|345:356|345:356|391:352|420:302|420:302|362:309,1,297.5,2|0,0:0|0:0,0:0:0:0:
452,232,105806,22,0,B|425:160|456:65|456:65|409:125|330:127,1,297.5,2|0,0:0|0:0,0:0:0:0:
258,72,107178,6,0,P|172:224|265:265,1,297.5,2|0,0:0|0:0,0:0:0:0:
251,169,108549,6,0,B|136:159|84:96|84:96|62:155|10:183,1,297.5,2|0,0:0|0:0,0:0:0:0:
0,196,109921,5,2,0:0:0:0:
0,195,110606,22,0,L|9:254,1,42.5
90,264,110949,2,0,L|85:306,1,42.5
202,131,111292,6,0,L|208:68,1,63.7500024318696,8|0,0:1|0:0,0:0:0:0:
291,136,111635,2,0,L|296:205,1,63.7500024318696,8|0,0:1|0:0,0:0:0:0:
138,123,111978,2,0,L|209:132,1,63.7500024318696,8|0,0:1|0:0,0:0:0:0:
356,58,112321,2,0,L|285:52,1,63.7500024318696,8|0,0:1|0:0,0:0:0:0:
208,247,112663,6,0,P|205:279|206:311,1,63.7500024318696,8|0,0:1|0:1,0:0:0:0:
138,123,113006,2,0,P|134:89|130:47,1,63.7500024318696,8|0,0:1|0:1,0:0:0:0:
318,217,113349,2,0,P|356:225|399:228,1,63.7500024318696,8|0,0:1|0:0,0:0:0:0:
471,221,113692,1,8,0:1:0:0:
471,221,113863,1,0,0:0:0:0:
313,350,114035,6,0,L|250:343,1,63.7500024318696,8|0,0:1|0:0,0:0:0:0:
145,258,114378,2,0,P|176:252|207:247,1,63.7500024318696,8|0,0:1|0:0,0:0:0:0:
40,225,114721,2,0,L|32:289,1,63.7500024318696,8|0,0:1|0:0,0:0:0:0:
122,163,115063,2,0,L|120:99,1,63.7500024318696,8|0,0:1|0:0,0:0:0:0:
202,22,115406,22,0,P|251:3|286:5,1,63.7500024318696,8|0,0:1|0:0,0:0:0:0:
363,89,115749,2,0,L|297:73,1,63.7500024318696,8|0,0:1|0:0,0:0:0:0:
458,42,116092,5,8,0:1:0:0:
458,42,116263,1,0,0:0:0:0:
425,207,116435,1,8,0:1:0:0:
425,207,116606,1,0,0:0:0:0:
226,181,116778,6,0,L|228:117,1,63.7500024318696,8|8,0:1|0:1,0:0:0:0:
126,181,117121,2,0,L|136:260,1,63.7500024318696,8|0,0:1|0:0,0:0:0:0:
309,340,117463,2,0,P|275:335|227:335,1,63.7500024318696,8|0,0:1|0:0,0:0:0:0:
359,236,117806,2,0,L|422:225,1,63.7500024318696,8|0,0:1|0:0,0:0:0:0:
355,19,118149,6,8,P|347:82|342:145,1,127.500004863739,8|8,0:1|0:1,0:1:0:0:
359,236,118663,1,0,0:0:0:0:
208,153,118835,21,8,0:1:0:0:
222,55,119006,1,0,0:0:0:0:
111,118,119178,2,0,P|114:150|117:185,1,63.7500024318696,8|0,0:1|0:0,0:0:0:0:
75,309,119521,5,8,0:1:0:0:
86,306,119692,1,0,0:0:0:0:
195,363,119863,5,0,0:0:0:0:
205,330,120035,1,8,0:1:0:0:
346,338,120206,5,0,0:0:0:0:
338,260,120378,1,8,0:1:0:0:
462,204,120549,21,8,0:1:0:0:
396,123,120721,1,0,0:0:0:0:
338,0,120892,5,8,0:1:0:0:
278,109,121063,1,8,0:1:0:0:
165,34,121235,5,8,0:1:0:0:
184,198,121406,1,8,0:1:0:0:
30,141,121578,5,8,0:1:0:0:
167,326,121749,1,8,0:1:0:0:
0,306,121921,21,8,0:1:0:0:
285,203,122092,1,8,0:1:0:0:
79,257,122263,54,0,L|75:302,3,42.5
167,326,122952,2,0,L|173:381,3,42.5
198,230,123642,2,0,L|192:175,3,42.5
280,177,124331,2,0,L|284:132,2,42.5
280,177,124849,1,0,0:0:0:0:
304,267,125021,2,0,L|298:322,3,42.5
386,320,125711,2,0,L|390:365,3,42.5
420,236,126400,2,0,L|414:181,3,42.5
331,180,127090,2,0,L|336:137,2,42.5
331,180,127607,1,0,0:0:0:0:
457,105,127780,6,0,P|455:69|451:26,1,63.7500024318696,8|0,0:1|0:0,0:0:0:0:
364,5,128125,1,8,0:1:0:0:
292,83,128297,1,8,0:1:0:0:
276,86,128383,1,0,0:0:0:0:
260,88,128469,1,0,0:0:0:0:
244,89,128556,1,0,0:0:0:0:
228,90,128642,1,0,0:0:0:0:
127,54,128814,1,8,0:1:0:0:
198,181,128987,1,0,0:0:0:0:
10,139,129159,5,8,0:1:0:0:
127,54,129331,1,0,0:0:0:0:
130,225,129504,1,8,0:1:0:0:
10,139,129676,1,8,0:1:0:0:
24,135,129762,1,0,0:0:0:0:
41,131,129849,5,0,0:0:0:0:
0,280,130021,1,8,0:1:0:0:
130,225,130194,5,8,0:1:0:0:
142,350,130366,1,8,0:1:0:0:
294,356,130538,21,8,0:1:0:0:
324,134,130706,1,8,0:1:0:0:
187,306,130875,1,8,0:1:0:0:
372,237,131043,5,8,0:1:0:0:
187,131,131212,1,8,0:1:0:0:
418,86,131380,1,8,0:1:0:0:
256,183,131549,5,8,0:1:0:0:
450,179,131717,1,8,0:1:0:0:
319,3,131886,1,8,0:1:0:0:
352,223,132054,37,8,0:1:0:0:
202,44,132223,1,8,0:1:0:0:
418,86,132391,1,8,0:1:0:0:
256,183,132560,22,0,B|245:213|247:249|267:242|270:278|257:311|257:311,1,127.5
256,183,133263,6,0,L|256:83,1,85,4|0,0:0|0:0,0:0:0:0:
432,3,133592,1,8,0:1:0:0:
395,161,133757,1,8,0:1:0:0:
313,20,133922,1,8,0:1:0:0:
489,89,134087,1,8,0:1:0:0:
325,216,134252,1,8,0:1:0:0:
491,268,134416,1,8,0:1:0:0:
328,354,134581,22,0,P|292:347|223:342,1,85,8|0,0:1|0:0,0:0:0:0:
118,353,134927,1,8,0:1:0:0:
98,189,135101,1,8,0:1:0:0:
84,153,135187,1,8,0:1:0:0:
72,118,135274,1,8,0:1:0:0:
205,35,135448,1,8,0:1:0:0:
213,76,135534,1,8,0:1:0:0:
222,118,135621,1,8,0:1:0:0:
370,105,135794,1,8,0:1:0:0:
369,52,135881,1,8,0:1:0:0:
368,1,135968,6,0,P|471:24|498:77,1,170,4|8,0:0|0:1,0:0:0:0:
352,109,136488,1,8,0:1:0:0:
502,196,136661,1,8,0:1:0:0:
335,112,136835,1,8,0:1:0:0:
512,73,137008,1,8,0:1:0:0:
407,258,137182,5,8,0:1:0:0:
404,291,137268,1,8,0:1:0:0:
404,325,137355,1,8,0:1:0:0:
220,348,137528,1,8,0:1:0:0:
204,176,137702,1,8,0:1:0:0:
392,159,137875,1,8,0:1:0:0:
257,44,138049,5,8,0:1:0:0:
224,34,138135,1,8,0:1:0:0:
189,34,138222,1,8,0:1:0:0:
158,49,138309,1,8,0:1:0:0:
130,69,138396,1,8,0:1:0:0:
98,79,138482,1,8,0:1:0:0:
63,77,138569,1,8,0:1:0:0:
29,68,138656,1,8,0:1:0:0:
0,32,138733,22,0,L|7:176,1,127.5,4|8,0:0|0:1,0:0:0:0:
8,180,139074,1,8,0:1:0:0:
290,221,139245,6,0,P|252:133|203:134,1,127.5,4|0,0:0|0:0,0:0:0:0:
211,133,139587,1,8,0:1:0:0:
157,338,139758,5,8,0:1:0:0:
290,221,139929,1,8,0:1:0:0:
290,221,140015,1,8,0:1:0:0:
290,221,140100,5,8,0:1:0:0:
487,290,140271,1,8,0:1:0:0:
422,165,140442,1,8,0:1:0:0:
354,352,140613,1,8,0:1:0:0:
431,142,140784,21,8,0:1:0:0:
348,372,140955,1,8,0:1:0:0:
509,294,141126,1,8,0:1:0:0:
269,213,141297,2,8,P|271:181|278:152,1,42.5,8|8,0:1|0:1,0:1:0:0:
324,28,141468,6,0,P|279:35|226:33,1,85,4|8,0:0|0:1,0:0:0:0:
97,0,141809,1,8,0:1:0:0:
97,0,141980,1,8,0:1:0:0:
201,145,142151,2,8,P|197:182|193:243,1,85,8|8,0:1|0:1,0:1:0:0:
349,124,142493,1,0,0:0:0:0:
117,180,142664,1,8,0:1:0:0:
113,214,142750,1,8,0:1:0:0:
109,247,142835,1,8,0:1:0:0:
44,113,143006,1,8,0:1:0:0:
226,297,143177,1,8,0:1:0:0:
38,384,143348,6,8,P|42:353|53:322,1,42.5,8|8,0:1|0:1,0:1:0:0:
14,239,143519,1,8,0:1:0:0:
44,252,143604,1,8,0:1:0:0:
77,255,143690,1,8,0:1:0:0:
109,247,143775,1,8,0:1:0:0:
139,231,143861,1,8,0:1:0:0:
171,222,143946,1,8,0:1:0:0:
205,222,144032,1,8,0:1:0:0:
236,234,144117,1,8,0:1:0:0:
256,257,144203,6,0,P|280:289|389:269,1,127.5,12|0,0:0|0:0,0:0:0:0:
388,271,144546,1,8,0:1:0:0:
229,0,144718,22,0,B|235:95,1,85,8|8,0:0|0:1,0:0:0:0:
298,157,145062,1,8,0:1:0:0:
92,19,145234,2,0,P|56:10|-6:7,1,85,8|0,0:0|0:0,0:0:0:0:
80,275,145578,6,0,P|143:258|202:250,1,85,8|8,0:1|0:1,0:0:0:0:
319,304,145922,1,8,0:1:0:0:
137,367,146094,1,8,0:1:0:0:
153,125,146266,5,8,0:1:0:0:
350,155,146437,1,8,0:1:0:0:
153,125,146609,1,8,0:1:0:0:
432,52,146781,1,8,0:1:0:0:
432,52,146867,1,8,0:1:0:0:
432,52,146953,6,0,P|433:104|443:197,1,127.5,12|0,0:0|0:0,0:0:0:0:
449,214,147297,1,8,0:1:0:0:
282,384,147469,22,0,P|277:341|265:286,1,85,8|8,0:0|0:1,0:0:0:0:
220,189,147813,1,8,0:1:0:0:
331,20,147985,2,0,P|327:67|318:123,1,85,12|8,0:0|0:1,0:0:0:0:
119,155,148329,5,0,1:0:0:0:
88,192,148415,1,0,1:0:0:0:
89,238,148500,1,0,1:0:0:0:
115,276,148586,1,0,1:0:0:0:
159,289,148672,1,0,1:0:0:0:
204,277,148758,1,0,1:0:0:0:
245,256,148844,1,0,1:0:0:0:
290,251,148930,1,0,1:0:0:0:
336,263,149016,6,0,P|372:252|436:258,1,85,8|8,0:1|0:1,0:0:0:0:
510,298,149360,1,8,0:1:0:0:
399,129,149532,1,8,0:1:0:0:
408,102,149618,1,8,0:1:0:0:
427,82,149704,6,0,P|379:75|329:51,1,85,12|0,0:0|0:0,0:0:0:0:
258,7,150044,1,8,0:1:0:0:
127,146,150215,22,8,P|122:176|120:210,1,42.5,8|0,0:0|0:0,0:1:0:0:
137,303,150385,1,8,0:1:0:0:
23,95,150556,1,8,0:1:0:0:
228,182,150726,1,8,0:1:0:0:
12,240,150897,5,8,0:1:0:0:
12,240,150982,1,8,0:1:0:0:
12,240,151067,1,8,0:1:0:0:
147,29,151238,1,8,0:1:0:0:
137,303,151408,5,8,0:1:0:0:
23,95,151579,1,8,0:1:0:0:
10,380,151749,5,8,0:1:0:0:
140,160,151919,1,8,0:1:0:0:
306,271,152090,21,8,0:1:0:0:
348,289,152175,1,8,0:1:0:0:
394,286,152260,1,8,0:1:0:0:
434,262,152346,1,8,0:1:0:0:
456,220,152431,6,0,P|441:147|437:80,1,127.5,12|0,0:0|0:0,0:0:0:0:
440,58,152772,1,8,0:1:0:0:
247,211,152942,2,0,B|196:226|137:226|137:226,1,85,8|8,0:0|0:1,0:0:0:0:
230,29,153283,6,8,L|288:46,1,42.5,8|8,0:1|0:1,0:1:0:0:
437,94,153454,1,8,0:1:0:0:
434,258,153624,6,8,L|388:267,1,42.5,8|8,0:1|0:1,0:1:0:0:
229,300,153794,1,8,0:1:0:0:
230,29,153965,21,8,0:1:0:0:
308,241,154135,1,8,0:1:0:0:
107,241,154306,5,8,0:1:0:0:
107,241,154391,1,8,0:1:0:0:
107,241,154476,2,8,P|88:179|85:168,1,42.5,8|8,0:1|0:1,0:1:0:0:
230,29,154647,2,8,L|212:99,1,42.5,8|8,0:1|0:1,0:1:0:0:
0,40,154817,5,8,0:1:0:0:
46,37,154902,1,8,0:1:0:0:
90,52,154988,1,8,0:1:0:0:
122,85,155073,1,8,0:1:0:0:
140,126,155158,6,0,P|233:115|282:104,1,127.5,12|0,0:0|0:0,0:0:0:0:
297,101,155500,1,8,0:1:0:0:
181,314,155672,1,8,0:0:0:0:
191,196,155843,1,8,0:1:0:0:
338,361,156015,1,8,0:1:0:0:
505,311,156186,22,8,L|442:291,1,42.5,12|8,0:0|0:1,0:1:0:0:
320,226,156358,2,8,L|392:215,1,42.5,8|8,0:1|0:1,0:1:0:0:
483,181,156529,2,0,B|470:149|470:149|470:70,1,85,8|8,0:1|0:1,0:0:0:0:
481,16,156872,5,8,0:1:0:0:
320,226,157043,1,8,0:1:0:0:
222,64,157215,1,8,0:1:0:0:
376,101,157386,1,8,0:1:0:0:
175,230,157558,1,8,0:1:0:0:
109,38,157729,1,8,0:1:0:0:
316,173,157900,6,0,P|362:175|409:181,1,85,12|8,0:0|0:1,0:0:0:0:
498,207,158158,1,8,0:1:0:0:
498,207,158243,1,8,0:1:0:0:
320,264,158415,5,8,0:0:0:0:
398,73,158586,1,8,0:1:0:0:
425,349,158758,1,8,0:1:0:0:
303,121,158929,21,12,0:0:0:0:
511,312,159100,1,8,0:1:0:0:
272,363,159272,5,8,0:1:0:0:
232,338,159358,1,8,0:1:0:0:
186,329,159443,1,8,0:1:0:0:
141,344,159529,1,8,0:1:0:0:
95,356,159615,1,8,0:1:0:0:
52,337,159700,1,8,0:1:0:0:
32,294,159786,1,8,0:1:0:0:
43,248,159872,1,8,0:1:0:0:
80,219,159958,5,8,0:1:0:0:
50,183,160043,1,8,0:1:0:0:
53,136,160129,1,8,0:1:0:0:
91,109,160215,1,8,0:1:0:0:
136,114,160300,2,8,P|156:131|169:152,1,46.7500014266968,8|8,0:1|0:1,0:1:0:0:
241,260,160472,1,8,0:1:0:0:
311,54,160643,6,0,P|401:58|475:35,1,140.25000428009,12|0,0:0|0:0,0:0:0:0:
470,35,160986,1,8,0:1:0:0:
400,242,161158,22,0,P|310:238|236:261,1,140.25000428009,12|0,0:0|0:0,0:0:0:0:
241,260,161500,1,8,0:1:0:0:
298,92,161672,6,8,P|300:46|295:0,1,93.5000028533936,8|8,0:1|0:1,0:1:0:0:
12,124,162015,5,8,0:1:0:0:
222,59,162186,1,8,0:1:0:0:
86,184,162358,5,8,0:1:0:0:
328,217,162529,1,8,0:1:0:0:
222,59,162700,21,8,0:1:0:0:
118,280,162872,1,8,0:1:0:0:
328,217,163043,6,0,P|284:199|238:197,1,93.5000028533936,8|0,0:1|0:1,0:1:0:0:
12,124,163386,5,12,0:0:0:0:
41,140,163473,1,8,0:1:0:0:
74,143,163560,1,8,0:1:0:0:
107,135,163647,1,8,0:1:0:0:
142,122,163734,1,8,0:1:0:0:
178,114,163822,1,8,0:1:0:0:
215,114,163909,1,8,0:1:0:0:
250,124,163996,1,8,0:1:0:0:
289,148,164083,5,8,0:1:0:0:
308,190,164170,1,8,0:1:0:0:
299,236,164258,1,8,0:1:0:0:
259,261,164345,1,8,0:1:0:0:
212,258,164432,1,8,0:1:0:0:
177,226,164519,1,8,0:1:0:0:
173,179,164606,1,8,0:1:0:0:
192,135,164694,1,8,0:1:0:0:
193,88,164781,21,8,0:1:0:0:
161,41,164868,1,8,0:1:0:0:
105,35,164955,1,8,0:1:0:0:
59,68,165042,1,8,0:1:0:0:
50,123,165130,1,8,0:1:0:0:
76,172,165217,1,8,0:1:0:0:
97,223,165304,1,8,0:1:0:0:
98,278,165391,1,8,0:1:0:0:
143,343,165479,54,0,B|175:352|215:356|202:329|239:332|280:345,1,127.5,10|2,0:0|0:0,0:0:0:0:
280,354,166089,1,2,0:0:0:0:
287,369,166191,54,0,P|258:298|260:237,1,127.5,14|8,0:0|0:1,0:0:0:0:
265,223,166533,1,8,0:0:0:0:
425,49,166705,2,0,B|406:242,1,170,8|8,0:1|0:1,0:0:0:0:
107,177,167219,2,0,P|100:123|100:87,1,85,8|8,0:0|0:1,0:0:0:0:
185,278,167562,22,0,B|148:297|148:297|57:290,1,127.5,8|8,0:1|0:1,0:0:0:0:
40,288,167905,1,8,0:0:0:0:
99,92,168076,1,8,0:1:0:0:
297,268,168248,2,0,P|300:320|303:377,1,85,8|8,0:1|0:1,0:1:0:0:
418,177,168591,1,8,0:0:0:0:
418,177,168762,1,0,0:0:0:0:
187,0,168933,6,0,P|179:64|176:127,1,127.5,8|8,0:1|0:1,0:0:0:0:
177,148,169276,1,8,0:0:0:0:
301,352,169448,2,0,B|377:376|399:308|484:346,1,170,8|8,0:1|0:1,0:0:0:0:
261,141,169962,2,0,L|163:148,1,85,8|8,0:0|0:1,0:0:0:0:
457,183,170305,6,0,P|467:118|482:59,1,127.5,8|8,0:1|0:1,0:0:0:0:
491,39,170648,1,8,0:0:0:0:
261,141,170819,1,8,0:1:0:0:
477,284,170991,1,8,0:1:0:0:
267,370,171162,1,8,0:1:0:0:
279,329,171248,1,8,0:1:0:0:
288,287,171333,1,10,0:0:0:0:
157,128,171505,5,8,0:1:0:0:
149,85,171591,1,8,0:1:0:0:
142,42,171676,2,0,P|52:39|17:18,1,127.5,10|8,0:0|0:1,0:0:0:0:
5,6,172019,1,8,0:0:0:0:
86,280,172191,2,0,B|143:254|143:254|258:266|258:266,1,170,8|8,0:1|0:1,0:0:0:0:
356,190,172705,1,8,0:0:0:0:
255,41,172876,2,8,P|248:16|243:-10,1,42.5,8|8,0:1|0:1,0:1:0:0:
391,43,173048,22,0,L|360:173,1,127.5,0|0,0:1|0:1,0:0:0:0:
356,190,173391,1,8,0:0:0:0:
142,221,173562,2,0,P|142:141|224:120,1,170,0|8,0:1|0:1,0:0:0:0:
270,266,174076,1,8,0:0:0:0:
115,361,174248,1,0,0:0:0:0:
73,368,174333,1,0,0:0:0:0:
33,384,174419,6,0,P|22:292|10:239,1,127.5,8|0,0:1|0:0,0:0:0:0:
7,238,174762,1,8,0:0:0:0:
193,46,174933,2,0,B|188:111|188:111|165:145|165:145|157:218,1,170,8|8,0:1|0:1,0:0:0:0:
437,166,175448,2,0,P|394:155|344:154,1,85,8|0,0:0|0:0,0:0:0:0:
251,289,175791,5,8,0:0:0:0:
364,17,175962,1,8,0:0:0:0:
181,175,176133,5,8,0:0:0:0:
437,166,176305,1,8,0:0:0:0:
172,26,176476,21,8,0:1:0:0:
200,56,176562,1,8,0:1:0:0:
210,97,176648,1,8,0:1:0:0:
204,139,176733,1,8,0:1:0:0:
181,175,176819,1,8,0:1:0:0:
158,210,176905,1,8,0:1:0:0:
143,250,176991,1,8,0:1:0:0:
151,291,177076,1,8,0:1:0:0:
180,321,177162,6,0,L|288:304,1,93.5000028533936,6|0,0:0|0:0,0:0:0:0:
365,297,177419,1,8,0:1:0:0:
365,297,177505,1,10,0:0:0:0:
210,97,177676,1,0,0:0:0:0:
458,163,177848,5,2,0:0:0:0:
193,191,178019,1,0,0:0:0:0:
356,0,178191,2,0,P|359:53|363:123,1,93.5000028533936,10|0,0:0|0:0,0:0:0:0:
225,305,178533,6,0,P|178:287|118:288,1,93.5000028533936,2|0,0:0|0:0,0:0:0:0:
44,309,178791,1,8,0:1:0:0:
44,309,178876,1,10,0:0:0:0:
192,191,179048,1,0,0:0:0:0:
33,72,179219,21,2,0:0:0:0:
135,284,179391,1,0,0:0:0:0:
174,19,179562,1,10,0:0:0:0:
0,192,179733,5,8,0:1:0:0:
0,192,179819,1,0,0:0:0:0:
0,192,179905,2,0,P|50:193|100:178,1,93.5000028533936,2|0,0:0|0:0,0:0:0:0:
176,140,180162,1,8,0:1:0:0:
176,140,180248,1,10,0:0:0:0:
274,323,180419,1,8,0:1:0:0:
473,164,180591,5,2,0:0:0:0:
264,215,180762,1,8,0:1:0:0:
460,357,180933,2,0,B|466:319|466:319|455:261,1,93.5000028533936,10|0,0:0|0:0,0:0:0:0:
349,25,181276,6,0,B|343:63|343:63|353:124,1,93.5000028533936,2|0,0:0|0:0,0:0:0:0:
377,208,181533,1,8,0:1:0:0:
377,208,181619,1,10,0:0:0:0:
104,111,181791,1,8,0:1:0:0:
351,117,181962,1,2,0:0:0:0:
132,285,182133,1,8,0:1:0:0:
291,350,182305,21,10,0:0:0:0:
313,309,182391,1,8,0:1:0:0:
313,263,182476,1,8,0:0:0:0:
293,222,182562,1,8,0:1:0:0:
253,200,182648,6,0,P|199:216|157:214,1,93.5000028533936,6|0,0:0|0:0,0:0:0:0:
68,206,182905,1,8,0:1:0:0:
68,206,182991,1,10,0:0:0:0:
188,81,183162,1,8,0:1:0:0:
196,323,183333,5,2,0:0:0:0:
68,206,183505,1,8,0:1:0:0:
292,110,183676,2,0,B|349:94|413:92,1,93.5000028533936,10|0,0:0|0:0,0:0:0:0:
512,329,184019,6,0,B|477:352|477:352|397:340,1,93.5000028533936,2|0,0:0|0:0,0:0:0:0:
333,331,184276,1,8,0:1:0:0:
333,331,184362,1,10,0:0:0:0:
228,161,184533,1,0,0:0:0:0:
488,83,184705,21,2,0:0:0:0:
377,253,184876,1,8,0:1:0:0:
293,0,185048,2,0,P|280:26|271:62,1,46.7500014266968,10|0,0:0|0:0,0:0:0:0:
182,81,185219,5,8,0:1:0:0:
208,118,185305,1,8,0:1:0:0:
228,161,185390,2,0,P|243:212|244:265,1,85,10|8,0:0|0:1,0:0:0:0:
405,368,185727,5,8,0:0:0:0:
409,321,185811,1,8,0:1:0:0:
425,277,185895,1,8,0:1:0:0:
453,241,185979,1,8,0:1:0:0:
498,222,186064,2,0,P|444:211|403:190,1,85,10|0,0:0|0:0,0:0:0:0:
134,361,186401,5,8,0:0:0:0:
171,341,186485,1,8,0:1:0:0:
213,336,186569,1,0,0:0:0:0:
256,339,186653,1,0,0:0:0:0:
299,347,186738,22,0,P|303:327|308:306,1,42.5,8|0,0:0|0:0,0:0:0:0:
129,91,186906,1,8,0:1:0:0:
129,91,186991,1,0,0:0:0:0:
129,91,187075,2,0,P|141:118|152:147,1,42.5
417,199,187243,6,0,P|391:184|366:166,1,42.5,8|0,0:0|0:0,0:0:0:0:
120,281,187411,1,8,0:1:0:0:
120,281,187496,1,0,0:0:0:0:
120,281,187581,2,0,P|150:277|181:277,1,42.5
312,40,187749,6,0,P|291:60|266:79,1,42.5,8|0,0:0|0:0,0:0:0:0:
209,189,187918,2,0,P|230:208|255:227,1,42.5,8|0,0:0|0:0,0:0:0:0:
271,358,188086,21,14,0:0:0:0:
137,231,190828,1,0,0:0:0:0:
254,320,193628,70,0,B|208:276|208:276|216:348,1,127.5
215,339,196370,2,0,L|199:262,2,63.7500024318696,2|2|2,0:0|0:0|0:0,0:0:0:0:
311,283,196872,2,0,L|328:211,2,63.7500024318696,2|2|2,0:0|0:0|0:0,0:0:0:0:
219,185,197375,2,0,L|202:107,2,63.7500024318696,2|2|2,0:0|0:0|0:0,0:0:0:0:
309,116,197878,2,0,L|328:40,2,63.7500024318696,2|2|2,0:0|0:0|0:0,0:0:0:0:
178,0,198381,6,0,B|145:16|145:16|164:43|164:43|132:45|132:45|132:78|132:78|107:61|107:61|91:89|91:89|74:61|74:61|49:77|49:77|50:45|50:45|18:43|18:43|34:17|34:17|4:-1,1,382.500014591218
47,208,199051,6,0,P|95:200|151:208,1,93.5000028533936,12|0,0:0|0:0,0:0:0:0:
249,285,199308,1,0,1:0:0:0:
258,306,199393,2,0,L|261:359,1,46.7500014266968,8|0,1:1|0:0,0:0:0:0:
107,375,199565,2,0,P|112:345|124:310,1,46.7500014266968,0|0,1:0|0:0,0:0:0:0:
248,177,199736,1,8,1:1:0:0:
231,194,199822,2,0,P|190:205|130:202,1,93.5000028533936,0|0,1:0|0:0,0:0:0:0:
80,12,200079,6,0,P|119:33|154:81,1,93.5000028533936,8|0,1:1|0:0,0:0:0:0:
231,194,200336,1,0,1:0:0:0:
248,177,200422,2,0,P|275:159|308:145,1,46.7500014266968,8|0,1:1|0:0,0:0:0:0:
326,29,200593,2,0,P|354:41|386:47,1,46.7500014266968,0|0,1:0|0:0,0:0:0:0:
512,132,200765,1,8,1:1:0:0:
496,149,200851,2,0,B|461:169|461:169|402:161,1,93.5000028533936,0|0,1:0|0:0,0:0:0:0:
486,0,201108,6,0,L|480:68,1,46.7500014266968,8|0,1:1|0:0,0:0:0:0:
394,176,201279,2,0,L|398:239,1,46.7500014266968,0|0,1:0|0:0,0:0:0:0:
469,351,201451,1,8,1:1:0:0:
427,330,201536,1,0,1:0:0:0:
379,330,201622,1,0,1:0:0:0:
337,350,201708,1,0,1:0:0:0:
304,383,201793,22,0,P|240:390|200:374,1,93.5000028533936,12|0,1:0|0:0,0:0:0:0:
138,287,202051,1,0,1:0:0:0:
130,265,202136,2,0,P|126:230|128:201,1,46.7500014266968,8|0,1:1|0:0,0:0:0:0:
261,114,202308,2,0,P|232:134|206:146,1,46.7500014266968,0|0,1:0|0:0,0:0:0:0:
15,42,202479,1,8,1:1:0:0:
37,48,202565,2,0,P|68:62|118:107,1,93.5000028533936,0|0,1:0|0:0,0:0:0:0:
239,247,202822,5,8,1:1:0:0:
285,265,202908,1,0,1:0:0:0:
330,258,202993,1,0,1:0:0:0:
369,233,203079,1,0,1:0:0:0:
387,190,203165,2,0,P|380:145|368:117,1,46.7500014266968,8|0,1:1|0:0,0:0:0:0:
263,0,203336,2,0,P|257:22|255:45,1,46.7500014266968,0|0,1:0|0:0,0:0:0:0:
455,59,203508,5,8,1:1:0:0:
412,39,203593,1,0,1:0:0:0:
365,44,203679,1,0,1:0:0:0:
324,69,203765,1,0,1:0:0:0:
301,111,203851,1,8,1:1:0:0:
266,141,203936,1,0,1:0:0:0:
219,148,204022,1,0,1:0:0:0:
173,134,204108,1,0,1:0:0:0:
141,99,204193,6,0,P|136:67|142:29,1,46.7500014266968,0|0,1:3|1:3,1:3:0:0:
281,227,204365,2,0,P|287:261|282:292,1,46.7500014266968,0|0,1:3|1:3,1:3:0:0:
102,368,204536,22,0,P|120:320|156:285,1,85,12|0,1:0|0:0,0:0:0:0:
219,148,204794,1,0,1:0:0:0:
200,157,204880,2,0,P|177:158|143:149,1,42.5,8|0,1:1|0:0,0:0:0:0:
0,218,205053,2,0,P|23:217|57:226,1,42.5,0|0,1:0|0:0,0:0:0:0:
176,54,205225,1,8,1:1:0:0:
149,21,205311,1,0,1:0:0:0:
107,11,205398,1,0,1:0:0:0:
65,21,205484,1,0,1:0:0:0:
37,53,205570,6,0,P|38:89|41:118,1,42.5,8|0,1:1|0:0,0:0:0:0:
138,334,205742,2,0,P|141:309|153:265,1,42.5,0|0,1:0|0:0,0:0:0:0:
282,108,205915,2,0,P|248:116|220:116,1,42.5,8|0,1:1|0:0,0:0:0:0:
1,268,206087,2,0,B|40:261|74:259,1,42.5,0|0,1:0|0:0,0:0:0:0:
280,284,206260,2,0,P|258:270|231:251,1,42.5,8|0,1:1|0:0,0:0:0:0:
150,52,206432,2,0,P|148:78|141:123,1,42.5,0|0,1:0|0:0,0:0:0:0:
138,334,206604,5,8,1:1:0:0:
166,317,206691,1,0,1:0:0:0:
198,312,206777,1,0,1:0:0:0:
230,315,206863,1,0,1:0:0:0:
258,330,206949,5,8,1:1:0:0:
302,355,207036,1,0,1:0:0:0:
352,362,207122,1,0,1:0:0:0:
399,342,207208,1,0,1:0:0:0:
436,306,207294,22,0,P|439:271|435:239,1,42.5,8|0,1:1|0:0,0:0:0:0:
361,161,207467,2,0,P|350:181|343:206,1,42.5,0|0,1:0|0:0,0:0:0:0:
480,97,207639,1,8,1:1:0:0:
462,58,207725,1,0,1:0:0:0:
426,34,207811,1,0,1:0:0:0:
383,30,207898,1,0,1:0:0:0:
342,41,207984,2,0,P|308:47|283:43,1,42.5,8|0,1:1|0:0,0:0:0:0:
141,179,208156,5,0,1:0:0:0:
160,170,208242,1,0,1:0:0:0:
183,166,208329,2,0,P|215:163|250:166,1,46.7500014266968,8|0,1:1|0:0,0:0:0:0:
397,140,208501,2,0,P|353:128|327:114,1,46.7500014266968,0|0,1:0|0:0,0:0:0:0:
258,21,208673,5,8,0:0:0:0:
240,36,208760,1,0,0:0:0:0:
219,46,208846,1,0,0:0:0:0:
196,51,208932,1,0,0:0:0:0:
176,48,209018,5,8,0:0:0:0:
129,38,209104,1,0,0:0:0:0:
82,43,209191,1,0,0:0:0:0:
44,69,209277,1,0,0:0:0:0:
22,110,209363,21,8,0:0:0:0:
18,156,209449,1,0,0:0:0:0:
36,198,209536,1,0,0:0:0:0:
73,223,209622,1,0,0:0:0:0:
128,225,209708,5,8,0:0:0:0:
163,181,209794,1,0,0:0:0:0:
150,125,209880,1,0,0:0:0:0:
106,112,209967,1,0,0:0:0:0:
100,162,210053,22,0,P|105:216|105:273,1,101.999996887207,6|0,0:0|0:0,0:0:0:0:
7,342,210311,1,0,0:0:0:0:
7,342,210398,2,0,L|17:272,1,50.9999984436036,10|0,0:0|0:0,0:0:0:0:
106,112,210570,2,0,L|97:187,1,50.9999984436036,8|0,0:1|0:0,0:0:0:0:
195,318,210742,21,2,0:0:0:0:
56,356,210915,2,0,P|22:347|-12:331,1,50.9999984436036,8|0,0:1|0:0,0:0:0:0:
195,318,211087,2,0,P|273:292|313:307,1,101.999996887207,10|8,0:2|0:1,0:0:0:0:
435,356,211346,1,0,0:0:0:0:
419,343,211432,6,0,P|406:297|408:268,1,50.9999984436036,2|0,0:0|0:0,0:0:0:0:
448,88,211604,2,0,P|461:134|459:162,1,50.9999984436036
293,215,211777,1,10,0:0:0:0:
512,212,211949,1,8,0:1:0:0:
293,215,212122,5,2,0:0:0:0:
448,88,212294,1,8,0:1:0:0:
286,25,212467,1,10,0:0:0:0:
286,25,212553,1,0,0:0:0:0:
286,25,212639,1,8,0:1:0:0:
293,215,212811,6,0,P|232:194|183:196,1,101.999996887207,2|0,0:0|0:0,0:0:0:0:
60,81,213070,1,0,0:0:0:0:
60,81,213156,2,0,P|89:88|129:87,1,50.9999984436036,10|0,0:0|0:0,0:0:0:0:
286,25,213329,1,8,0:1:0:0:
195,195,213501,21,2,0:0:0:0:
60,81,213673,1,8,0:1:0:0:
11,327,213846,1,10,0:0:0:0:
58,308,213932,1,0,0:0:0:0:
92,270,214018,1,8,0:1:0:0:
265,285,214191,6,0,P|288:309|304:335,1,50.9999984436036,2|0,0:0|0:0,0:0:0:0:
437,384,214363,2,0,P|442:364|464:323,1,50.9999984436036
506,197,214536,1,10,0:0:0:0:
292,205,214708,1,8,0:1:0:0:
506,197,214880,5,2,0:0:0:0:
462,171,214967,1,8,0:1:0:0:
411,178,215053,1,8,0:1:0:0:
373,212,215139,1,8,0:1:0:0:
355,259,215225,1,10,0:0:0:0:
318,293,215311,1,8,0:1:0:0:
265,293,215398,1,8,0:1:0:0:
225,260,215484,1,8,0:1:0:0:
216,209,215570,6,0,L|234:98,1,85,6|0,0:0|0:0,0:0:0:0:
304,17,215822,1,0,0:0:0:0:
304,17,215907,2,0,P|248:11|239:12,1,42.5,10|0,0:0|0:0,0:0:0:0:
96,157,216075,2,0,P|152:151|161:147,1,42.5,8|0,0:1|0:0,0:0:0:0:
229,125,216244,1,2,0:0:0:0:
32,26,216412,21,8,0:1:0:0:
26,50,216496,1,0,0:0:0:0:
25,75,216581,1,10,0:0:0:0:
163,287,216749,1,8,0:1:0:0:
169,263,216834,1,0,0:0:0:0:
170,238,216918,5,2,0:0:0:0:
95,158,217086,1,8,0:1:0:0:
298,202,217255,2,0,P|297:166|287:133,1,42.5,10|0,0:0|0:0,0:0:0:0:
161,2,217423,2,0,P|156:39|155:78,1,42.5,8|0,0:1|0:0,0:0:0:0:
351,51,217592,5,2,0:0:0:0:
326,45,217676,2,0,P|293:48|256:60,1,42.5
95,158,217845,1,0,0:0:0:0:
120,164,217929,2,0,P|153:161|190:149,1,42.5,10|0,0:0|0:0,0:0:0:0:
357,224,218098,2,0,L|303:236,1,42.5,8|0,0:0|0:0,0:0:0:0:
171,302,218266,6,0,P|161:336|157:371,3,42.5,10|0|0|0,0:0|0:0|0:0|0:0,0:0:0:0:
293,384,218603,2,0,P|289:358|279:331,3,42.5,10|0|0|0,0:0|0:0|0:0|0:0,0:0:0:0:
250,225,218940,21,10,0:0:0:0:
295,249,219025,1,0,0:0:0:0:
345,245,219109,1,0,0:0:0:0:
386,215,219193,1,0,0:0:0:0:
396,165,219277,2,0,L|363:120,3,42.5,10|0|0|0,0:0|0:0|0:0|0:0,0:0:0:0:
346,83,219614,5,10,0:0:0:0:
353,32,219699,1,0,0:0:0:0:
394,0,219783,1,0,0:0:0:0:
446,2,219867,1,0,0:0:0:0:
483,38,219952,1,10,0:0:0:0:
485,88,220036,1,0,0:0:0:0:
456,129,220120,1,0,0:0:0:0:
437,176,220204,1,0,0:0:0:0:
448,225,220289,5,10,0:0:0:0:
398,214,220373,1,0,0:0:0:0:
348,221,220457,1,8,0:1:0:0:
303,245,220541,1,8,0:1:0:0:
263,284,220626,5,10,0:0:0:0:
213,311,220710,1,8,0:1:0:0:
156,311,220794,1,8,0:1:0:0:
110,278,220878,1,8,0:1:0:0:
93,224,220963,21,12,0:0:0:0:
