osu file format v14

[General]
AudioFilename: audio.mp3
AudioLeadIn: 0
PreviewTime: 58675
Countdown: 0
SampleSet: Soft
StackLeniency: 0.7
Mode: 0
LetterboxInBreaks: 0
WidescreenStoryboard: 1

[Editor]
DistanceSpacing: 1.4
BeatDivisor: 4
GridSize: 4
TimelineZoom: 2.899999

[Metadata]
Title:first death (TV Size)
TitleUnicode:first death (TV Size)
Artist:TK from Ling tosite sigure
ArtistUnicode:TK from 凛として時雨
Creator:Hyokar
Version:Subjection
Source:チェンソーマン
Tags:chainsaw man csm anime japanese rock j-rock jrock ed ending 8 eight pepekcz tantan_ azphyx arronchu1207 -mikan bazz b マキマ Makima
BeatmapID:3955279
BeatmapSetID:1894989

[Difficulty]
HPDrainRate:4.5
CircleSize:4.4
OverallDifficulty:9.2
ApproachRate:9.6
SliderMultiplier:2.8
SliderTickRate:1

[Events]
//Background and Video events
0,0,"bg.jpg",0,0
Video,-90,"ed.mp4"
//Break Periods
//Storyboard Layer 0 (Background)
//Storyboard Layer 1 (Fail)
//Storyboard Layer 2 (Pass)
//Storyboard Layer 3 (Foreground)
//Storyboard Layer 4 (Overlay)
//Storyboard Sound Samples

[TimingPoints]
139,365.853658536585,4,2,1,65,1,0
139,-125,4,2,1,65,0,0
504,-83.3333333333333,4,2,1,65,0,0
870,-125,4,2,1,65,0,0
2517,-66.6666666666667,4,2,1,65,0,0
2699,-60.6060606060606,4,2,1,65,0,0
3065,-125,4,2,1,65,0,0
3431,-83.3333333333333,4,2,1,65,0,0
3797,-125,4,2,1,65,0,0
5443,-66.6666666666667,4,2,1,65,0,0
5626,-285.714285714286,4,2,1,65,0,0
5901,-285.714285714286,4,2,1,5,0,0
5992,-100,4,2,1,65,0,0
6907,-83.3333333333333,4,2,1,65,0,0
7090,-71.4285714285714,4,2,1,65,0,0
7364,-71.4285714285714,4,2,1,5,0,0
7456,-100,4,2,1,65,0,0
9834,-83.3333333333333,4,2,1,65,0,0
10017,-71.4285714285714,4,2,1,65,0,0
10291,-71.4285714285714,4,2,1,5,0,0
10382,-100,4,2,1,65,0,0
11480,-500,4,2,1,25,0,0
11846,-90.9090909090909,4,2,1,75,0,0
12760,-80,4,2,1,75,0,0
13126,-66.6666666666667,4,2,1,75,0,0
13492,-90.9090909090909,4,2,1,75,0,0
13675,-66.6666666666667,4,2,1,75,0,0
14041,-90.9090909090909,4,2,1,75,0,0
15687,-80,4,2,1,75,0,0
16053,-66.6666666666667,4,2,1,75,0,0
16099,-66.6666666666667,4,2,1,5,0,0
16145,-66.6666666666667,4,2,1,75,0,0
16190,-66.6666666666667,4,2,1,5,0,0
16236,-66.6666666666667,4,2,1,75,0,0
16282,-66.6666666666667,4,2,1,5,0,0
16328,-66.6666666666667,4,2,1,75,0,0
16373,-66.6666666666667,4,2,1,5,0,0
16419,-66.6666666666667,4,2,1,75,0,0
16465,-66.6666666666667,4,2,1,5,0,0
16510,-66.6666666666667,4,2,1,75,0,0
16556,-66.6666666666667,4,2,1,5,0,0
16602,-66.6666666666667,4,2,1,75,0,0
17151,-55.5555555555556,4,2,1,75,0,0
17242,-55.5555555555556,4,2,1,5,0,0
17334,-50,4,2,1,75,0,0
17699,-90.9090909090909,4,2,1,75,0,0
18614,-80,4,2,1,75,0,0
18980,-66.6666666666667,4,2,1,75,0,0
19346,-90.9090909090909,4,2,1,75,0,0
19529,-66.6666666666667,4,2,1,75,0,0
19895,-90.9090909090909,4,2,1,75,0,0
21541,-80,4,2,1,75,0,0
21907,-66.6666666666667,4,2,1,75,0,0
21953,-66.6666666666667,4,2,1,5,0,0
21998,-66.6666666666667,4,2,1,75,0,0
22044,-66.6666666666667,4,2,1,5,0,0
22090,-66.6666666666667,4,2,1,75,0,0
22135,-66.6666666666667,4,2,1,5,0,0
22181,-66.6666666666667,4,2,1,75,0,0
22227,-66.6666666666667,4,2,1,5,0,0
22273,-66.6666666666667,4,2,1,75,0,0
22318,-66.6666666666667,4,2,1,5,0,0
22364,-66.6666666666667,4,2,1,75,0,0
22410,-66.6666666666667,4,2,1,5,0,0
22456,-90.9090909090909,4,2,1,75,0,0
23096,-55.5555555555556,4,2,1,75,0,0
23553,-125,4,2,1,55,0,0
24651,-83.3333333333333,4,2,1,55,0,0
25017,-125,4,2,1,55,0,0
27578,-100,4,2,1,55,0,0
27852,-100,4,2,1,5,0,0
27943,-125,4,2,1,55,0,0
30093,-125,4,2,1,5,0,0
30138,-125,4,2,1,55,0,0
32882,-83.3333333333333,4,2,1,55,0,0
33157,-83.3333333333333,4,2,1,5,0,0
33248,-100,4,2,1,55,0,0
33797,-125,4,2,1,55,0,0
34529,-90.9090909090909,4,2,1,55,0,0
35260,-200,4,2,1,45,0,0
45504,-125,4,2,1,65,0,0
45870,-83.3333333333333,4,2,1,65,0,0
46236,-66.6666666666667,4,2,1,65,0,0
46602,-50,4,2,1,65,0,0
46876,-50,4,2,1,5,0,0
46968,-71.4285714285714,4,2,2,75,0,0
47699,-100,4,2,2,75,0,0
48065,-80,4,2,2,75,0,0
48340,-80,4,2,2,5,0,0
48431,-71.4285714285714,4,2,2,75,0,0
48980,-100,4,2,2,75,0,0
49346,-55.5555555555556,4,2,2,75,0,0
49803,-55.5555555555556,4,2,2,5,0,0
49895,-71.4285714285714,4,2,2,75,0,0
50992,-100,4,2,2,75,0,0
51358,-80,4,2,2,75,0,0
52090,-66.6666666666667,4,2,2,75,0,0
52181,-83.3333333333333,4,2,2,75,0,0
52273,-111.111111111111,4,2,2,75,0,0
52821,-83.3333333333333,4,2,2,75,0,0
53187,-100,4,2,2,75,0,0
54285,-100,4,2,2,75,0,0
55017,-66.6666666666667,4,2,2,75,0,0
55199,-125,4,2,2,75,0,0
55291,-125,4,2,2,5,0,0
55382,-125,4,2,2,75,0,0
55657,-125,4,2,2,5,0,0
55748,-125,4,2,2,75,0,0
56663,-83.3333333333333,4,2,2,75,0,0
57212,-83.3333333333333,4,2,2,75,0,0
57943,-66.6666666666667,4,2,1,75,0,0
58309,-66.6666666666667,4,2,1,80,0,0
58675,-45.4545454545455,4,2,1,90,0,1
59407,-66.6666666666667,4,2,1,90,0,1
60138,-45.4545454545455,4,2,1,90,0,1
60504,-55.5555555555556,4,2,1,90,0,1
60962,-55.5555555555556,4,2,1,5,0,1
61053,-50,4,2,1,90,0,1
61236,-45.4545454545455,4,2,1,90,0,1
61968,-66.6666666666667,4,2,1,90,0,1
62699,-55.5555555555556,4,2,1,90,0,1
62882,-50,4,2,1,90,0,1
63248,-66.6666666666667,4,2,1,90,0,1
63797,-55.5555555555556,4,2,1,90,0,1
63934,-55.5555555555556,4,2,1,5,0,1
63980,-55.5555555555556,4,2,1,90,0,1
64529,-55.5555555555556,4,2,1,80,0,1
64895,-83.3333333333333,4,2,1,80,0,1
65626,-125,4,2,1,80,0,1
65992,-55.5555555555556,4,2,1,80,0,1
66541,-83.3333333333333,4,2,1,80,0,1
67090,-83.3333333333333,4,2,1,80,0,1
67135,-83.3333333333333,4,2,1,5,0,1
67181,-71.4285714285714,4,2,1,80,0,1
67227,-71.4285714285714,4,2,1,5,0,1
67273,-62.5,4,2,1,80,0,1
67318,-62.5,4,2,1,5,0,1
67364,-55.5555555555556,4,2,1,80,0,1
67410,-55.5555555555556,4,2,1,5,0,1
67456,-50,4,2,1,80,0,1
67821,-55.5555555555556,4,2,1,80,0,1
68187,-83.3333333333333,4,2,1,80,0,1
68553,-55.5555555555556,4,2,1,80,0,1
68919,-83.3333333333333,4,2,1,80,0,1
69010,-83.3333333333333,4,2,1,5,0,1
69102,-83.3333333333333,4,2,1,80,0,1
70382,-45.4545454545455,4,2,1,90,0,1
71114,-66.6666666666667,4,2,1,90,0,1
71846,-43.4782608695652,4,2,1,90,0,1
72212,-50,4,2,1,90,0,1
72578,-66.6666666666667,4,2,1,90,0,1
72669,-66.6666666666667,4,2,1,5,0,1
72760,-50,4,2,1,90,0,1
72943,-45.4545454545455,4,2,1,90,0,1
74041,-66.6666666666667,4,2,1,90,0,1
74590,-50,4,2,1,90,0,1
74864,-50,4,2,1,5,0,1
74956,-55.5555555555556,4,2,1,90,0,1
75138,-50,4,2,1,90,0,1
75504,-66.6666666666667,4,2,1,90,0,1
75687,-50,4,2,1,90,0,1
75870,-50,4,2,1,90,0,1
75916,-50,4,2,1,5,0,1
75962,-62.5,4,2,1,90,0,1
76007,-62.5,4,2,1,5,0,1
76053,-83.3333333333333,4,2,1,90,0,1
76099,-83.3333333333333,4,2,1,5,0,1
76145,-100,4,2,1,90,0,1
76190,-100,4,2,1,5,0,1
76236,-50,4,2,1,80,0,1
76602,-66.6666666666667,4,2,1,80,0,1
76968,-50,4,2,1,80,0,1
77334,-55.5555555555556,4,2,1,80,0,1
77517,-50,4,2,1,80,0,1
77882,-66.6666666666667,4,2,1,80,0,1
78431,-55.5555555555556,4,2,1,80,0,1
79163,-45.4545454545455,4,2,1,80,0,1
79895,-83.3333333333333,4,2,1,80,0,1
80260,-55.5555555555556,4,2,1,80,0,1
80443,-45.4545454545455,4,2,1,80,0,1
80581,-45.4545454545455,4,2,1,5,0,1
80626,-66.6666666666667,4,2,1,80,0,1
80992,-55.5555555555556,4,2,1,80,0,1
81724,-66.6666666666667,4,2,1,80,0,1
82090,-90.9090909090909,4,2,1,75,0,0
83004,-80,4,2,1,75,0,0
83370,-66.6666666666667,4,2,1,75,0,0
83736,-90.9090909090909,4,2,1,75,0,0
83919,-66.6666666666667,4,2,1,75,0,0
84285,-90.9090909090909,4,2,1,75,0,0
85931,-80,4,2,1,75,0,0
86297,-66.6666666666667,4,2,1,75,0,0
86343,-66.6666666666667,4,2,1,5,0,0
86388,-66.6666666666667,4,2,1,75,0,0
86434,-66.6666666666667,4,2,1,5,0,0
86480,-66.6666666666667,4,2,1,75,0,0
86526,-66.6666666666667,4,2,1,5,0,0
86571,-66.6666666666667,4,2,1,75,0,0
86617,-66.6666666666667,4,2,1,5,0,0
86663,-66.6666666666667,4,2,1,75,0,0
86709,-66.6666666666667,4,2,1,5,0,0
86754,-66.6666666666667,4,2,1,75,0,0
86800,-66.6666666666667,4,2,1,5,0,0
86846,-90.9090909090909,4,2,1,75,0,0
87395,-45.4545454545455,4,2,1,75,0,0
87852,-45.4545454545455,4,2,1,5,0,0
87943,-45.4545454545455,4,2,1,75,0,0

[Colours]
Combo1 : 173,173,173
Combo2 : 78,146,142
Combo3 : 216,124,56

[HitObjects]
472,141,139,6,0,P|478:116|488:86,1,56,4|0,3:1|3:0,0:0:0:0:
399,68,321,2,0,P|393:93|383:126,1,56,2|0,3:2|3:0,0:0:0:0:
410,236,504,2,0,P|404:176|303:176,1,167.999994873047,2|8,1:2|3:0,0:0:0:0:
152,336,779,5,0,0:0:0:0:
163,327,870,2,0,P|174:295|189:257,1,56,2|0,0:0|0:0,0:0:0:0:
292,113,1053,2,0,P|301:139|310:165,1,56,0|0,3:0|0:0,0:0:0:0:
157,33,1236,6,0,P|159:24|163:15,12,14,0|0|0|0|0|0|0|0|2|0|0|0|0,1:0|0:0|0:0|0:0|0:0|0:0|0:0|0:0|0:0|0:0|0:0|0:0|0:0,0:0:0:0:
64,74,1602,5,0,3:0:0:0:
85,125,1693,1,0,3:0:0:0:
133,152,1785,1,2,3:2:0:0:
187,142,1876,1,0,3:0:0:0:
226,102,1968,2,0,P|257:113|292:120,1,56,0|0,1:2|3:0,0:0:0:0:
86,220,2151,1,8,3:0:0:0:
79,235,2242,1,0,0:0:0:0:
74,251,2334,2,0,P|46:257|20:267,1,56,2|0,0:3|0:0,0:0:0:0:
222,366,2517,6,0,B|240:346|236:317|236:317|245:345|272:353,1,105.000004005432,8|0,3:1|3:0,0:0:0:0:
440,261,2699,2,0,B|479:262|498:306|498:306|484:229|427:205|348:233|348:233|342:280|302:286,1,346.500003304482,8|0,1:0|0:0,0:0:0:0:
267,215,3065,6,0,P|258:189|248:163,1,56,0|0,3:0|3:0,0:0:0:0:
194,75,3248,2,0,P|184:101|168:141,1,56,2|0,3:2|3:0,0:0:0:0:
50,147,3431,2,0,P|124:134|153:220,1,167.999994873047,2|8,1:2|3:0,0:0:0:0:
290,357,3706,5,0,0:0:0:0:
301,365,3797,2,0,P|327:355|353:345,1,56,2|0,0:0|0:0,0:0:0:0:
512,227,3980,2,0,P|485:217|459:207,1,56,0|0,3:0|0:0,0:0:0:0:
306,97,4163,6,0,L|296:124,6,28,0|0|0|0|2|0|0,1:0|0:0|0:0|0:0|0:0|0:0|0:0,0:0:0:0:
267,11,4529,5,0,3:0:0:0:
321,1,4620,1,0,3:0:0:0:
375,16,4712,1,2,3:2:0:0:
408,60,4803,1,0,3:0:0:0:
408,116,4895,2,0,P|437:130|474:144,1,56,0|0,1:0|3:0,0:0:0:0:
305,254,5078,1,4,3:0:0:0:
297,265,5169,1,0,0:0:0:0:
290,276,5260,2,0,P|264:286|239:299,1,56,0|0,1:0|0:0,0:0:0:0:
15,370,5443,6,0,P|45:330|105:350,1,105.000004005432,8|0,0:1|0:0,0:0:0:0:
81,343,5626,2,0,P|46:337|25:365,1,73.4999977569581
23,266,5992,6,0,P|10:233|-5:195,1,70,6|0,3:2|3:0,0:0:0:0:
71,168,6175,2,0,P|84:201|99:239,1,70,8|0,3:0|3:0,0:0:0:0:
261,103,6358,6,0,P|274:70|289:32,1,70,2|0,1:2|3:0,0:0:0:0:
201,7,6541,2,0,P|188:40|173:78,1,70,8|0,3:0|3:0,0:0:0:0:
294,184,6724,5,2,0:3:0:0:
301,194,6815,1,0,0:0:0:0:
308,207,6907,2,0,P|349:207|377:241,1,83.9999974365235,0|0,3:2|0:0,0:0:0:0:
349,368,7090,2,0,B|329:310|368:260|428:248|409:299|482:281|512:243|484:166,1,293.999991027832,2|0,1:2|0:0,0:0:0:0:
436,82,7456,6,0,P|407:112|421:150,1,70,2|0,3:2|3:0,0:0:0:0:
484,166,7638,2,0,P|513:136|499:98,1,70,8|0,3:0|3:0,0:0:0:0:
205,237,7821,6,0,P|204:270|230:292,1,70,2|0,1:2|3:0,0:0:0:0:
312,248,8003,2,0,P|312:214|286:192,1,70,8|0,3:0|3:0,0:0:0:0:
195,95,8187,5,2,0:3:0:0:
190,85,8279,1,0,0:0:0:0:
184,74,8370,5,4,3:0:0:0:
132,25,8462,1,8,3:0:0:0:
62,25,8553,1,2,1:2:0:0:
15,77,8645,1,2,0:0:0:0:
15,146,8736,1,2,0:0:0:0:
64,195,8828,1,2,0:0:0:0:
132,205,8919,6,0,P|146:173|161:134,1,70,2|0,3:2|3:0,0:0:0:0:
232,173,9102,2,0,P|218:205|203:244,1,70,8|0,3:0|3:0,0:0:0:0:
463,74,9285,6,0,P|449:42|434:3,1,70,2|0,1:2|3:0,0:0:0:0:
355,49,9468,2,0,P|369:81|384:120,1,70,8|0,3:0|3:0,0:0:0:0:
512,230,9651,5,2,0:3:0:0:
506,218,9742,1,0,0:0:0:0:
500,205,9834,2,0,P|467:179|415:201,1,83.9999974365235,4|0,3:0|0:0,0:0:0:0:
172,301,10017,2,0,B|210:325|248:312|274:283|269:271|261:259|289:220|325:208|366:225|366:225|383:262|432:257,1,293.999991027832,2|2,1:2|0:0,0:0:0:0:
512,378,10382,6,0,B|485:351|489:314|489:314|478:348|436:359,1,140,2|8,3:2|3:0,0:0:0:0:
430,363,10626,5,8,3:0:0:0:
420,370,10687,5,4,3:0:0:0:
411,376,10748,5,4,1:2:0:0:
333,383,10840,1,8,3:0:0:0:
271,337,10931,1,4,3:0:0:0:
240,265,11023,1,8,3:0:0:0:
166,244,11114,5,4,1:0:0:0:
47,237,11206,5,0,1:0:0:0:
41,344,11297,5,4,1:3:0:0:
162,351,11388,5,8,1:3:0:0:
103,300,11480,6,2,P|107:286|101:300,1,42,2|2,1:2|0:0,0:0:0:0:
166,244,11846,5,4,3:2:0:0:
224,194,11937,1,2,3:2:0:0:
301,195,12029,1,2,3:2:0:0:
350,242,12120,1,2,3:2:0:0:
406,267,12212,1,2,1:2:0:0:
459,262,12303,1,2,3:2:0:0:
500,227,12395,1,2,3:2:0:0:
508,181,12486,1,2,3:2:0:0:
499,143,12578,6,0,P|465:111|421:116,1,77.0000023498536,2|4,3:2|3:0,0:0:0:0:
359,11,12760,2,0,P|392:92|418:176,1,175,8|0,3:0|1:0,0:0:0:0:
242,275,13126,6,0,B|213:284|202:303|209:331|209:331|251:278|307:267|364:297|364:297|375:339|415:339,1,315.000012016297,6|2,3:2|0:0,0:0:0:0:
432,272,13492,2,2,B|440:256|451:251|468:258|468:258|448:260|440:272,1,77.0000023498536,8|2,3:0|0:0,0:0:0:0:
282,384,13675,6,0,P|316:264|355:182,1,210.000008010865,2|2,1:2|3:2,0:0:0:0:
467,91,13949,1,2,1:2:0:0:
465,102,14041,2,0,P|436:131|387:123,1,77.0000023498536,2|0,3:2|0:0,0:0:0:0:
358,50,14224,2,0,P|387:21|436:29,1,77.0000023498536,4|0,3:0|0:0,0:0:0:0:
299,124,14407,5,2,1:2:0:0:
226,100,14498,5,0,1:0:0:0:
152,76,14590,5,2,1:2:0:0:
78,53,14681,5,0,1:0:0:0:
4,29,14773,5,2,3:2:0:0:
75,0,14864,1,2,3:2:0:0:
142,37,14956,1,2,3:2:0:0:
158,104,15047,1,2,3:2:0:0:
127,157,15138,1,6,1:2:0:0:
79,182,15230,1,2,3:2:0:0:
56,230,15321,1,2,3:2:0:0:
61,276,15413,1,2,1:2:0:0:
84,305,15504,6,0,L|175:329,1,77.0000023498536,2|4,3:2|3:0,0:0:0:0:
375,362,15687,2,0,B|329:367|288:326|322:319|284:281|228:284,1,175,8|0,3:0|1:0,0:0:0:0:
375,79,16053,6,0,P|384:50|419:40,1,52.5000020027161,4|0,3:1|0:0,0:0:0:0:
385,71,16145,6,0,P|414:64|440:90,1,52.5000020027161
393,75,16236,6,0,P|413:97|404:132,1,52.5000020027161,2|0,3:2|0:0,0:0:0:0:
396,88,16328,6,0,P|386:116|351:126,1,52.5000020027161
385,96,16419,6,0,P|355:102|329:76,1,52.5000020027161,4|0,3:0|0:0,0:0:0:0:
371,87,16510,6,0,P|350:64|359:29,1,52.5000020027161
508,146,16602,2,0,P|451:124|385:237,1,210.000008010865,2|2,1:2|3:2,0:0:0:0:
375,243,16876,1,2,1:2:0:0:
369,258,16968,2,0,P|419:235|467:215,1,105.000004005432,10|0,3:0|0:0,0:0:0:0:
227,109,17151,6,2,B|203:85|205:52|205:52|192:81|156:91,1,125.999996154785,2|0,3:2|0:0,0:1:0:0:
95,53,17334,1,0,1:0:0:0:
84,44,17425,2,0,B|57:30|43:0|43:0|37:34|12:53|12:53|3:91|36:126|48:96|93:137|86:184,1,280,0|0,1:0|1:3,0:0:0:0:
37,238,17699,5,2,3:2:0:0:
108,207,17791,1,2,3:2:0:0:
183,216,17882,1,2,3:2:0:0:
224,272,17974,1,2,3:2:0:0:
254,325,18065,1,6,1:2:0:0:
300,353,18157,1,2,3:2:0:0:
353,357,18248,1,2,3:2:0:0:
396,341,18340,1,2,3:2:0:0:
423,313,18431,6,0,L|399:231,1,77.0000023498536,2|4,3:2|3:0,0:0:0:0:
465,95,18614,2,0,B|492:92|504:74|504:74|489:135|449:156|403:130,1,175,8|0,3:0|1:0,0:0:0:0:
100,76,18980,6,0,B|92:29|53:0|53:0|182:63|182:63|182:116|233:127,1,315.000012016297,4|2,3:2|3:2,0:0:0:0:
256,60,19346,2,0,P|292:45|310:5,1,77.0000023498536,8|2,3:0|0:0,0:0:0:0:
132,145,19529,6,0,B|105:182|120:220|154:236|161:229|168:222|205:241|219:276|200:314,1,210.000008010865,2|2,1:2|3:2,0:0:0:0:
152,363,19803,1,2,1:2:0:0:
141,357,19895,2,0,P|101:368|60:385,1,77.0000023498536,2|0,3:2|0:0,0:0:0:0:
42,308,20078,2,0,P|81:297|123:280,1,77.0000023498536,4|0,3:0|0:0,0:0:0:0:
308,186,20260,5,2,1:2:0:0:
385,178,20352,5,0,1:0:0:0:
450,216,20443,5,2,1:2:0:0:
474,289,20535,5,0,1:0:0:0:
447,360,20626,5,2,3:2:0:0:
398,299,20718,1,2,3:2:0:0:
404,222,20809,1,2,3:2:0:0:
457,177,20901,1,2,3:2:0:0:
494,128,20992,1,6,1:2:0:0:
500,74,21084,1,2,3:2:0:0:
476,25,21175,1,2,3:2:0:0:
431,11,21267,1,2,1:2:0:0:
392,15,21358,6,0,L|317:48,1,77.0000023498536,2|4,3:2|3:0,0:0:0:0:
132,69,21541,2,0,P|231:71|239:136,1,175,8|0,3:0|1:0,0:0:0:0:
454,317,21907,6,0,P|445:346|410:356,1,52.5000020027161,4|0,3:1|0:0,0:0:0:0:
444,325,21999,6,0,P|415:332|389:306,1,52.5000020027161
436,321,22090,6,0,P|416:299|425:264,1,52.5000020027161,2|0,3:2|0:0,0:0:0:0:
433,308,22182,6,0,P|443:280|478:270,1,52.5000020027161
444,300,22273,6,0,P|474:294|500:320,1,52.5000020027161,4|0,3:0|0:0,0:0:0:0:
458,309,22364,6,0,P|479:332|470:367,1,52.5000020027161
455,323,22456,5,4,3:0:0:0:
400,249,22547,1,8,3:0:0:0:
421,175,22638,1,2,1:2:0:0:
474,130,22730,1,8,3:0:0:0:
484,69,22821,1,2,3:2:0:0:
475,56,22913,1,8,3:0:0:0:
466,43,23004,1,4,1:2:0:0:
459,32,23096,6,0,B|528:42|491:148|429:154|365:110|332:58|377:65|320:28|272:68|272:68|304:70|322:95,1,377.999988464356,4|8,3:0|3:0,0:0:0:0:
263,142,23462,5,8,3:0:0:0:
261,151,23553,2,0,P|248:176|241:203,1,56,4|0,3:2|0:0,0:0:0:0:
170,177,23736,2,0,P|181:151|190:124,1,56
75,186,23919,2,0,P|131:196|139:262,1,112,2|0,1:2|1:0,0:0:0:0:
325,345,24285,6,0,B|323:358|329:371|329:371|317:365|315:353|320:346,1,56,2|0,0:0|0:0,0:0:0:0:
315,276,24468,2,0,B|317:263|310:249|310:249|323:256|325:268|320:272,1,56,2|0,3:2|0:0,0:0:0:0:
244,340,24651,2,0,B|291:352|335:323|303:306|345:278|399:293,1,167.999994873047,0|2,1:0|0:0,0:0:0:0:
467,325,24925,5,0,0:0:0:0:
478,316,25017,2,0,P|495:292|491:261,1,56,0|0,3:0|0:0,0:0:0:0:
409,243,25199,1,0,0:0:0:0:
409,243,25291,1,8,3:0:0:0:
409,243,25382,2,0,P|392:267|396:298,1,56,2|0,1:2|3:0,0:0:0:0:
475,180,25565,1,0,1:0:0:0:
475,180,25748,5,2,1:2:0:0:
447,130,25840,1,0,1:0:0:0:
394,112,25931,1,2,3:2:0:0:
340,130,26023,1,8,3:0:0:0:
335,140,26114,5,0,1:0:0:0:
276,184,26206,1,0,1:0:0:0:
205,165,26297,1,2,1:2:0:0:
168,102,26388,1,0,1:0:0:0:
202,37,26480,6,0,B|229:35|229:35|256:54,1,56,2|0,3:2|0:0,0:0:0:0:
264,110,26663,2,0,B|248:87|248:87|251:54,1,56,2|4,0:0|0:3,0:0:0:0:
300,12,26846,2,0,B|288:36|288:36|258:50,1,56,2|0,1:2|0:0,0:0:0:0:
119,153,27029,6,0,B|95:133|98:103|98:103|87:131|54:138,1,112,2|2,3:2|0:0,0:0:0:0:
55,266,27303,1,0,0:0:0:0:
58,257,27395,2,0,L|76:195,1,56,2|0,3:2|0:0,0:0:0:0:
0,316,27578,2,0,B|41:295|73:304|94:336|88:344|82:351|106:382|139:393|177:374,1,210,2|0,1:2|0:0,0:0:0:0:
259,378,27943,6,0,P|215:346|241:279,1,112,0|2,3:0|0:0,0:0:0:0:
274,235,28218,1,8,0:3:0:0:
288,226,28309,2,0,P|314:161|338:111,1,112,2|0,1:2|0:0,0:0:0:0:
46,5,28675,5,2,1:2:0:0:
15,37,28767,1,0,1:0:0:0:
12,82,28858,1,0,1:0:0:0:
43,113,28949,1,4,0:3:0:0:
53,109,29041,5,0,1:0:0:0:
125,111,29132,1,0,1:0:0:0:
176,163,29224,1,2,1:2:0:0:
167,234,29315,1,0,1:0:0:0:
113,284,29407,6,0,P|90:272|61:262,1,56,2|0,3:1|0:0,0:0:0:0:
248,202,29590,2,0,P|271:190|299:180,1,56,8|2,3:0|3:1,0:0:0:0:
125,111,29773,5,0,1:0:0:0:
124,111,29956,2,0,P|128:65|176:47,1,84,4|0,3:0|0:0,0:0:0:0:
167,43,30138,2,0,B|177:45|188:43|193:30|193:30|182:39|168:38,1,56,2|0,0:3|0:0,0:0:0:0:
84,45,30321,2,0,B|81:34|73:25|59:28|59:28|73:33|79:46,1,56,2|0,3:2|0:0,0:0:0:0:
124,111,30504,2,0,B|115:119|112:130|121:141|121:141|119:126|127:114,1,56,0|0,1:0|0:0,0:0:0:0:
289,169,30687,5,2,0:0:0:0:
299,179,30779,1,0,0:0:0:0:
308,188,30870,2,0,P|368:207|431:233,1,112,2|0,3:1|0:0,0:0:0:0:
470,279,31145,1,2,3:1:0:0:
480,272,31236,2,0,P|492:243|507:204,1,56,2|0,1:2|0:0,0:0:0:0:
373,322,31419,2,0,P|383:348|393:373,1,56,4|0,3:0|0:3,0:0:0:0:
278,255,31602,5,2,1:2:0:0:
242,228,31693,1,0,1:0:0:0:
197,231,31785,1,8,3:0:0:0:
164,261,31876,1,0,1:0:0:0:
167,271,31968,5,0,1:0:0:0:
147,340,32059,1,0,1:0:0:0:
78,366,32151,1,2,1:2:0:0:
11,337,32242,1,0,1:0:0:0:
1,264,32334,6,0,L|29:191,1,56,2|0,3:1|0:0,0:0:0:0:
86,82,32517,1,2,0:0:0:0:
94,74,32608,1,2,3:1:0:0:
102,66,32699,2,0,L|122:118,1,56,2|0,1:2|0:0,0:0:0:0:
274,239,32882,6,0,B|306:249|323:270|316:299|316:299|277:248|213:235|157:277,1,251.999992309571,4|0,3:0|0:0,0:0:0:0:
102,317,33248,2,0,B|86:327|86:327|79:340|79:340|85:327|85:327|85:307,1,70,2|0,3:2|0:0,0:0:0:0:
90,231,33431,2,0,B|90:215|80:197|80:197|91:215|107:223,1,70,0|0,1:0|0:0,0:0:0:0:
166,270,33614,2,0,B|184:267|184:267|198:273|198:273|184:267|184:267|172:251,1,70,2|0,0:0|0:0,0:0:0:0:
2,166,33797,6,0,P|33:116|87:125,1,112,2|0,3:1|0:0,0:0:0:0:
148,85,34071,1,2,3:1:0:0:
157,77,34163,2,0,P|166:49|183:8,1,56,2|0,1:2|0:0,0:0:0:0:
309,167,34346,2,0,P|318:195|335:236,1,56,8|0,3:0|0:0,0:0:0:0:
204,364,34529,5,0,1:0:0:0:
198,287,34620,1,0,1:0:0:0:
253,232,34712,1,0,1:0:0:0:
327,219,34803,1,0,3:0:0:0:
407,263,34895,5,0,1:0:0:0:
430,359,34986,1,0,1:0:0:0:
333,328,35078,1,8,3:0:0:0:
392,314,35169,1,4,3:0:0:0:
392,314,35260,6,0,B|373:264|400:219|454:204|458:210|461:215|517:200|539:153|506:102,1,280,4|0,3:1|0:0,0:0:0:0:
505,101,36175,1,2,0:0:0:0:
225,175,36724,6,0,B|198:158|163:182|163:182|180:117|236:104|284:123|284:123|296:157|322:164,1,280,4|0,3:2|0:0,0:0:0:0:
443,294,38187,6,0,B|464:322|495:330|517:325|517:325|474:397|407:381|371:337|377:331|385:324|347:282|291:295|291:295|290:338|254:351,1,420,4|0,3:2|0:0,0:0:0:0:
94,76,39651,6,0,B|85:39|109:8|109:8|40:6|1:39|-10:105|4:152|42:177|82:184|82:184|98:136|157:138,1,420,4|0,3:2|0:0,0:0:0:0:
496,18,41114,6,0,P|483:54|473:95,1,70,4|0,3:1|0:0,0:0:0:0:
393,66,41480,2,0,P|405:33|414:0,1,70,0|0,3:0|0:0,0:0:0:0:
399,164,41846,2,0,P|359:94|298:109,1,140,0|0,3:0|3:0,0:0:0:0:
309,193,42395,1,0,0:0:0:0:
200,280,42578,6,0,P|208:314|221:346,1,70,4|0,3:2|0:0,0:0:0:0:
133,374,42944,2,0,P|124:339|111:307,1,70,0|0,3:0|0:0,0:0:0:0:
277,294,43309,2,0,B|321:289|355:315|328:326|364:357|410:346,1,140,0|0,3:0|3:0,0:0:0:0:
191,141,44041,6,0,P|214:94|139:54,1,140,4|0,3:2|3:0,0:0:0:0:
67,8,44590,1,0,0:0:0:0:
0,149,44773,6,0,P|16:193|24:224,1,70,0|0,3:0|0:0,0:0:0:0:
108,187,45138,2,0,P|92:143|84:112,1,70,0|0,3:0|0:0,0:0:0:0:
248,5,45504,5,2,1:2:0:0:
254,11,45596,1,0,0:0:0:0:
260,18,45687,2,0,P|296:24|320:55,1,56,8|4,3:0|3:0,0:0:0:0:
342,214,45870,5,2,1:2:0:0:
334,199,45962,1,0,0:0:0:0:
327,183,46053,2,0,P|312:145|329:104,1,83.9999974365235,0|8,3:0|3:0,0:0:0:0:
504,0,46236,5,2,1:2:0:0:
492,17,46328,1,0,0:0:0:0:
480,32,46419,2,0,P|448:70|395:77,1,105.000004005432,0|4,3:0|3:0,0:0:0:0:
167,176,46602,6,0,B|150:178|125:167|106:139|128:82|178:68|228:84|255:122|261:170|247:224|220:275|178:291|178:291|202:274|200:244,1,420,2|0,1:2|0:0,0:0:0:0:
79,287,46968,6,0,B|119:271|151:278|172:311|166:317|159:322|177:353|206:368|240:356,1,195.999994018555,4|0,1:2|0:0,0:0:0:0:
384,289,47242,1,8,1:0:0:0:
388,273,47334,2,0,B|377:253|387:233|387:233|340:211|287:237|282:295|308:326,1,195.999994018555,0|4,1:0|1:0,0:0:0:0:
45,198,47699,6,0,P|35:172|-2:152,1,70,2|2,0:1|0:1,0:0:0:0:
154,212,47882,2,0,P|172:190|213:184,1,70,2|0,0:0|0:0,0:0:0:0:
76,107,48065,2,0,B|71:93|71:93|114:72|128:-2|128:-2|123:73|156:109|156:109|142:120,1,262.5,0|0,3:0|0:0,0:0:0:0:
88,258,48431,6,0,B|93:274|112:280|112:280|86:293|75:332|75:332|79:293|59:271|59:271|78:272|88:258,1,195.999994018555,6|0,1:0|0:0,0:0:0:0:
92,246,48706,1,8,1:0:0:0:
94,236,48797,1,0,1:0:0:0:
501,288,48980,6,0,B|472:306|466:347|466:347|441:316|398:315,1,140,12|2,1:0|0:1,0:0:0:0:
400,323,49254,1,2,0:1:0:0:
394,330,49346,6,0,B|440:330|472:367|472:367|477:318|517:284|517:284|445:236|374:268|378:356|328:395|273:401|220:340|220:340|252:277|310:307,1,629.999980773926,2|0,0:1|0:0,0:0:0:0:
294,285,49895,6,0,B|281:231|324:189|341:217|386:179|359:116,1,195.999994018555,6|0,1:0|0:0,0:0:0:0:
391,45,50169,1,12,1:0:0:0:
400,38,50260,2,0,B|407:14|436:-5|436:-5|298:51,1,195.999994018555,0|14,0:0|1:0,0:0:0:0:
28,121,50626,6,0,B|29:101|8:80|8:80|97:118|97:118|89:157|133:175,1,195.999994018555,2|2,0:1|0:1,0:0:0:0:
269,197,50992,2,0,P|267:233|227:256,1,70,2|0,0:0|0:0,0:0:0:0:
160,216,51175,2,0,P|161:179|201:156,1,70,2|0,0:0|0:0,0:0:0:0:
303,312,51358,5,6,1:0:0:0:
355,370,51449,1,0,0:0:0:0:
434,370,51541,1,0,1:0:0:0:
487,325,51632,1,4,1:3:0:0:
505,257,51724,1,8,3:0:0:0:
474,204,51815,1,8,3:0:0:0:
416,181,51907,1,2,1:0:0:0:
378,144,51998,1,4,3:0:0:0:
367,92,52090,6,0,L|388:37,1,52.5000020027161,8|0,0:1|0:0,0:0:0:0:
379,82,52181,2,0,L|394:41,1,43.75,8|0,0:1|0:0,0:0:0:0:
391,70,52273,2,0,L|410:26,4,31.4999990386963,2|2|2|2|0,0:1|0:1|0:1|0:1|0:0,0:0:0:0:
113,17,52821,6,0,P|26:6|37:80,1,167.999994873047,6|0,1:0|3:0,0:0:0:0:
97,96,53096,1,8,3:0:0:0:
104,105,53187,2,0,P|92:140|79:174,1,70,4|0,3:0|3:0,0:0:0:0:
233,278,53370,2,0,P|221:243|208:209,1,70,2|0,1:0|0:0,0:0:0:0:
79,362,53553,5,12,0:1:0:0:
74,353,53736,2,0,L|23:369,4,35,2|2|2|2|2,0:1|0:1|0:1|0:1|0:1,0:0:0:0:
294,216,54285,6,0,P|330:209|366:242,1,70,6|0,1:0|0:0,0:0:0:0:
452,317,54468,1,8,3:0:0:0:
445,327,54559,1,4,3:0:0:0:
440,337,54651,2,0,P|415:309|426:261,1,70,0|0,3:0|0:0,0:0:0:0:
459,148,54834,2,0,P|452:184|408:205,1,70,2|2,1:0|3:1,0:0:0:0:
290,34,55017,6,0,P|277:4|291:33,1,105.000004005432,14|8,0:1|0:1,0:0:0:0:
286,27,55199,2,2,P|271:14|284:28,1,56,2|0,0:1|0:0,0:1:0:0:
365,58,55382,2,0,B|324:38|281:71|307:89|269:122|220:111,1,168
162,58,55748,6,0,P|154:32|143:2,1,56,6|0,1:0|0:0,0:0:0:0:
38,163,55931,2,0,P|28:189|20:216,1,56,4|2,3:0|1:0,0:0:0:0:
145,367,56114,5,10,1:0:0:0:
130,324,56206,1,4,3:0:0:0:
89,306,56297,1,2,1:0:0:0:
44,308,56388,1,0,1:0:0:0:
10,338,56480,2,0,L|70:364,1,56,10|0,0:1|0:0,0:0:0:0:
269,190,56663,6,0,B|298:179|298:179|253:151,1,83.9999974365235,2|0,3:1|0:0,0:0:0:0:
151,186,56846,2,0,B|133:236|133:236|162:226,1,83.9999974365235,8|2,3:0|0:1,0:0:0:0:
200,76,57029,2,0,B|167:52|167:52|149:108,1,83.9999974365235,2|2,3:1|0:1,0:0:0:0:
256,351,57212,5,6,1:0:0:0:
324,380,57303,1,0,1:0:0:0:
390,365,57395,1,8,3:0:0:0:
413,302,57486,1,4,3:0:0:0:
444,274,57578,1,2,3:1:0:0:
476,268,57669,1,2,1:1:0:0:
498,278,57760,2,0,L|465:170,1,83.9999974365235,2|0,1:0|3:0,0:0:0:0:
509,17,57943,5,0,1:0:0:0:
497,57,58035,1,0,1:0:0:0:
453,86,58126,1,0,1:0:0:0:
389,80,58218,1,0,1:0:0:0:
335,30,58309,1,0,1:0:0:0:
253,7,58401,1,8,1:3:0:0:
176,39,58492,1,0,1:0:0:0:
146,129,58584,1,4,1:3:0:0:
180,228,58675,6,0,B|216:245|219:281|219:281|157:236|103:243|58:291|58:291|63:328|30:350,1,308.000009399414,10|0,3:2|1:0,0:0:0:0:
135,383,58949,1,0,3:0:0:0:
145,374,59041,2,0,B|185:316|145:250|87:248|83:254|79:262|24:247|-4:194|25:141,1,308.000009399414,10|0,1:2|3:0,0:0:0:0:
2,18,59315,5,0,3:0:0:0:
6,30,59407,2,0,P|40:70|102:53,1,105.000004005432,10|0,3:2|1:0,0:0:0:0:
275,147,59590,2,0,P|224:143|192:182,1,105.000004005432,8|0,3:0|3:0,0:0:0:0:
38,343,59773,2,0,B|10:303|37:258|77:257|79:262|82:267|120:256|139:220|119:184,1,210.000008010865,10|8,1:2|3:0,0:0:0:0:
296,73,60047,5,0,0:0:0:0:
305,66,60138,2,0,B|301:23|256:4|256:4|393:43|393:43|397:97|447:110,1,308.000009399414,10|0,3:2|3:0,0:0:0:0:
466,39,60413,1,0,3:0:0:0:
466,39,60504,2,0,B|496:29|510:4|510:4|509:35|490:48|466:40,1,125.999996154785,10|0,1:2|3:0,0:0:0:0:
436,106,60687,2,0,B|429:136|444:161|444:161|417:145|415:122|435:105,1,125.999996154785,8|0,3:0|3:0,0:0:0:0:
391,49,60870,2,0,B|367:28|338:28|338:28|366:13|386:23|391:48,1,125.999996154785,4|0,3:0|0:0,0:0:0:0:
505,310,61053,6,0,B|479:284|482:247|482:247|471:283|431:296,1,140,8|0,1:1|3:0,0:0:0:0:
247,158,61236,2,0,B|222:168|213:190|221:216|221:216|251:165|299:150|361:177|361:177|375:220|414:226,1,308.000009399414,12|0,1:0|0:0,0:0:0:0:
63,328,61602,6,0,B|21:337|8:382|8:382|-10:332|14:294|56:277|62:282|67:286|98:270|116:232|90:187,1,308.000009399414,10|8,3:2|3:0,0:0:0:0:
10,156,61876,1,0,3:0:0:0:
3,148,61968,2,0,P|41:109|99:134,1,105.000004005432,10|0,1:2|3:0,0:0:0:0:
275,122,62151,2,0,P|225:130|191:92,1,105.000004005432,8|0,3:0|1:0,0:0:0:0:
170,2,62334,2,0,P|129:96|93:208,1,210.000008010865,10|8,3:2|3:0,0:0:0:0:
395,361,62608,5,0,0:0:0:0:
406,351,62699,2,0,P|421:295|370:250,1,125.999996154785,10|8,1:2|3:0,0:0:0:0:
282,191,62882,2,0,B|255:220|219:215|219:215|242:247|286:249|318:218|314:209|311:201|340:166|374:165|408:184,1,280,4|10,3:0|3:2,0:0:0:0:
447,104,63157,1,0,1:0:0:0:
452,99,63248,2,0,B|461:89|461:89|444:68|444:68|468:52|483:16|483:16|473:54|480:77|480:77|451:85|451:85|451:99,1,210.000008010865,8|8,3:0|1:2,0:0:0:0:
448,193,63523,1,0,3:0:0:0:
448,193,63614,2,0,B|422:202|408:228|408:228|414:200|401:178,1,105.000004005432,2|0,3:2|3:0,0:0:0:0:
225,18,63797,6,0,P|159:95|86:62,1,188.999994232178,4|0,3:0|0:0,0:0:0:0:
83,60,63980,2,0,B|66:89|66:89|76:129,1,62.9999980773926,8|0,3:1|3:0,0:0:0:0:
77,53,64071,2,0,B|110:52|110:52|140:23,1,62.9999980773926,0|0,1:0|0:0,0:0:0:0:
71,46,64163,2,0,B|54:17|54:17|14:6,1,62.9999980773926,8|0,1:0|0:0,0:0:0:0:
71,362,64346,5,4,3:0:0:0:
81,345,64437,1,4,3:0:0:0:
90,333,64529,2,0,B|68:292|23:277|23:277|89:295|118:242|167:262|217:314|217:314|230:366|295:364,1,377.999988464356,4|0,3:1|0:0,0:0:0:0:
327,233,64895,2,0,P|290:253|292:307,1,83.9999974365235,2|2,1:0|0:1,0:0:0:0:
502,375,65078,5,2,0:3:0:0:
497,361,65169,1,2,0:1:0:0:
493,348,65260,2,0,P|473:308|476:253,1,83.9999974365235,4|0,3:0|0:0,0:0:0:0:
379,296,65443,2,0,P|399:336|396:391,1,83.9999974365235,2|0,3:3|0:0,0:0:0:0:
145,180,65626,6,0,P|159:155|160:113,1,56,2|0,1:0|0:0,0:0:0:0:
248,154,65809,2,0,P|234:179|233:221,1,56,2|0,0:3|0:0,0:0:0:0:
73,28,65992,6,0,B|41:54|1:48|1:48|41:123|121:121|161:66|150:55|138:44|211:-4|272:47,1,377.999988464356,8|0,3:0|0:0,0:0:0:0:
320,79,66358,2,0,B|343:65|352:38|331:19|331:19|340:49|321:74,1,125.999996154785,2|0,1:0|0:0,0:0:0:0:
68,267,66541,5,2,0:3:0:0:
56,263,66632,1,0,0:0:0:0:
43,259,66724,2,0,P|20:227|32:187,1,83.9999974365235,4|0,3:0|0:0,0:0:0:0:
129,163,66907,2,0,P|153:193|143:234,1,83.9999974365235,2|0,3:3|0:0,0:0:0:0:
304,340,67090,6,0,P|286:350|276:369,1,41.9999987182618,2|0,1:0|0:0,0:0:0:0:
311,331,67181,6,0,P|288:340|276:361,1,48.9999985046387,0|0,1:0|0:0,0:0:0:0:
319,322,67273,6,0,P|292:330|277:353,1,56,4|0,3:0|3:0,0:0:0:0:
329,315,67364,6,0,P|298:318|280:343,1,62.9999980773926,8|0,3:0|3:0,0:0:0:0:
337,310,67456,6,0,B|302:306|280:342|280:342|280:279|327:252|376:258|380:261|384:264|415:274|460:252|475:194|475:194|453:229|410:224,1,420,4|0,3:1|0:0,0:0:0:0:
436,350,67821,2,0,P|393:233|332:112,1,251.999992309571,2|2,1:0|0:3,0:0:0:0:
426,14,68096,5,2,0:1:0:0:
435,22,68187,2,0,P|411:57|361:52,1,83.9999974365235,4|0,3:0|0:0,0:0:0:0:
338,191,68370,2,0,P|319:152|349:111,1,83.9999974365235,2|0,0:3|0:0,0:0:0:0:
80,102,68553,6,0,B|66:138|25:157|25:157|185:93,1,251.999992309571,2|2,1:0|0:3,0:0:0:0:
225,28,68828,1,0,0:0:0:0:
236,17,68919,2,0,P|278:20|298:66,1,83.9999974365235,8|0,3:0|0:0,0:0:0:0:
57,230,69102,5,0,1:0:0:0:
14,292,69193,1,0,1:0:0:0:
46,360,69285,1,0,1:0:0:0:
118,380,69376,1,8,3:0:0:0:
180,337,69468,5,8,3:0:0:0:
176,329,69559,1,6,3:0:0:0:
172,319,69651,5,0,1:0:0:0:
208,268,69742,1,4,3:0:0:0:
282,254,69834,1,8,3:0:0:0:
344,295,69925,1,8,3:0:0:0:
352,370,70017,5,4,3:0:0:0:
336,322,70108,5,0,1:0:0:0:
311,259,70199,5,8,3:3:0:0:
285,178,70291,5,4,3:0:0:0:
249,60,70382,6,0,B|245:2|292:-29|350:-22|389:13|393:64|362:100|329:106|329:106|348:91|348:62,1,308.000009399414,10|0,3:2|3:0,0:0:0:0:
411,135,70657,1,0,3:0:0:0:
416,144,70748,2,0,B|368:181|317:176|280:131|287:120|296:107|260:59|214:47|153:74,1,308.000009399414,10|8,1:2|3:0,0:0:0:0:
100,142,71023,5,0,1:0:0:0:
100,142,71114,2,0,B|77:132|68:108|68:108|61:127|78:148|99:147,1,105.000004005432,10|8,3:2|3:0,0:0:0:0:
130,219,71297,2,0,B|132:243|116:263|116:263|136:260|145:234|135:216,1,105.000004005432,4|0,3:0|3:0,0:0:0:0:
177,153,71480,2,0,B|197:138|222:142|222:142|209:126|182:131|172:149,1,105.000004005432,10|0,1:2|3:0,0:0:0:0:
68,315,71663,1,4,3:0:0:0:
61,325,71754,1,0,3:0:0:0:
55,339,71846,2,0,B|19:361|-13:348|-13:348|23:387|72:389|107:347|103:339|96:330|136:291|181:292|226:340,1,322.000006141663,10|8,3:2|3:0,0:0:0:0:
399,291,72120,5,0,0:0:0:0:
388,282,72212,2,0,B|362:232|374:187|421:161|430:169|440:179|489:155|507:115|492:56,1,280,10|4,1:2|3:0,0:0:0:0:
435,12,72486,1,0,3:0:0:0:
422,6,72578,2,0,P|371:10|347:55,1,105.000004005432,10|0,3:2|0:0,0:0:0:0:
82,181,72760,6,0,B|110:154|105:117|105:117|118:152|152:164,1,140,8|0,1:1|3:0,0:0:0:0:
347,53,72943,2,0,B|369:67|374:90|362:114|362:114|341:59|297:36|231:51|231:51|221:93|172:93,1,308.000009399414,12|0,1:0|0:0,0:0:0:0:
79,302,73309,6,0,B|46:322|46:364|46:364|30:331|13:315|13:315|-12:267|13:191|86:180,1,308.000009399414,10|4,3:2|3:0,0:0:0:0:
152,249,73584,1,0,3:0:0:0:
164,260,73675,2,0,B|208:245|250:256|268:294|263:300|257:306|274:343|306:360|370:337|370:337|333:340|310:302,1,308.000009399414,10|8,1:2|3:0,0:0:0:0:
379,166,73949,1,0,1:0:0:0:
391,175,74041,2,0,P|406:221|343:262,1,105.000004005432,10|4,3:2|3:0,0:0:0:0:
408,94,74224,2,0,P|440:58|507:92,1,105.000004005432,8|0,3:0|3:0,0:0:0:0:
336,102,74407,2,0,P|288:91|284:16,1,105.000004005432,10|2,1:2|3:0,0:0:0:0:
451,211,74590,6,0,B|481:215|499:238|490:268|490:268|445:216|394:187|322:202|264:259|264:259|310:266|316:317,1,420,2|0,3:2|1:0,0:0:0:0:
200,312,74956,2,0,B|173:328|180:354|180:354|201:328|226:319|256:329,1,125.999996154785,4|0,3:0|3:0,0:0:0:0:
440,361,75138,6,0,P|406:267|328:85,1,280,10|6,1:2|3:0,0:0:0:0:
205,18,75413,1,0,3:0:0:0:
196,11,75504,2,0,P|227:50|292:33,1,105.000004005432,10|0,3:2|1:0,0:0:0:0:
508,17,75687,2,0,P|436:7|412:78,1,140,0|0,1:0|1:0,0:0:0:0:
252,255,75870,6,0,P|225:236|176:244,1,70,4|0,3:0|0:0,0:0:0:0:
226,231,75962,6,0,P|193:228|163:250,1,56,4|0,3:0|0:0,0:0:0:0:
197,224,76053,6,0,P|168:232|151:254,1,41.9999987182618,8|0,3:0|0:0,0:0:0:0:
168,221,76145,6,0,P|149:237|143:265,1,35,0|0,1:0|1:0,0:0:0:0:
133,256,76236,6,0,B|107:204|120:167|165:133|173:138|181:142|228:117|241:79|202:19,1,280,4|2,3:1|0:3,0:0:0:0:
52,29,76510,1,0,0:0:0:0:
54,42,76602,2,0,P|92:76|154:60,1,105.000004005432,2|2,1:0|0:1,0:0:0:0:
360,126,76785,2,0,P|309:120|271:154,1,105.000004005432,2|2,0:3|0:1,0:0:0:0:
152,294,76968,2,0,B|142:331|114:351|114:351|230:299|230:299|234:248|281:238,1,280,4|2,3:0|0:3,0:0:0:0:
420,178,77242,5,0,0:0:0:0:
429,186,77334,2,0,B|445:159|477:161|477:161|458:146|429:153|425:180,1,125.999996154785,2|8,1:0|3:0,0:0:0:0:
435,349,77517,2,0,B|438:374|485:388|541:353|539:303|507:258|466:257|435:258|435:258|469:255|480:230,1,280,2|4,3:3|3:0,0:0:0:0:
363,298,77791,5,0,0:0:0:0:
353,307,77882,2,0,B|343:346|305:348|305:348|288:331|255:335,1,105.000004005432,2|0,3:3|0:0,0:0:0:0:
296,149,78065,2,0,B|334:138|355:170|355:170|349:193|369:219,1,105.000004005432,2|2,1:0|0:1,0:0:0:0:
187,273,78248,2,0,B|158:244|175:210|175:210|198:204|211:174,1,105.000004005432,2|2,0:3|0:1,0:0:0:0:
270,15,78431,6,0,B|234:4|206:14|189:47|195:52|200:59|184:90|152:103|111:83,1,188.999994232178,4|0,3:0|0:0,0:0:0:0:
106,80,78614,2,0,P|133:88|154:133,1,62.9999980773926,8|0,1:1|3:0,0:0:0:0:
95,75,78706,2,0,P|88:47|116:6,1,62.9999980773926,0|0,1:0|3:0,0:0:0:0:
86,71,78797,2,0,P|65:90|16:86,1,62.9999980773926,8|0,3:1|0:0,0:0:0:0:
13,326,78980,5,0,0:0:0:0:
24,333,79071,1,0,1:0:0:0:
34,340,79163,2,0,B|14:361|-18:359|-18:359|25:390|96:353|60:333|118:302|159:313|159:313|171:348|218:354,1,308.000009399414,4|2,3:1|0:3,0:0:0:0:
260,209,79437,1,0,0:0:0:0:
269,207,79529,2,0,B|304:194|311:155|311:155|356:207|331:274|282:305|282:305|260:272|212:284,1,308.000009399414,2|2,1:0|0:3,0:0:0:0:
147,169,79803,5,2,0:1:0:0:
141,160,79895,2,0,P|127:114|111:71,1,83.9999974365235,4|0,3:0|0:0,0:0:0:0:
205,59,80078,2,0,P|219:105|235:148,1,83.9999974365235,2|0,0:3|0:0,0:0:0:0:
76,214,80260,2,0,P|153:200|171:265,1,125.999996154785,2|0,1:0|0:0,0:0:0:0:
341,374,80443,6,0,B|319:338|337:293|374:271|382:278|390:286|428:272|449:237|429:189,1,231.000007049561,2|0,0:3|0:0,0:0:0:0:
428,185,80626,2,0,B|433:156|410:138|410:138|404:166|427:185,1,105.000004005432
486,14,80809,5,0,1:0:0:0:
477,26,80901,1,0,1:0:0:0:
469,39,80992,2,0,B|478:5|503:-13|503:-13|398:34|398:34|394:80|352:89,1,251.999992309571,0|8,1:0|3:0,0:0:0:0:
227,153,81267,1,0,1:0:0:0:
214,149,81358,2,0,P|214:32|328:28,1,251.999992309571,4|8,3:0|1:0,0:0:0:0:
509,138,81724,5,12,1:0:0:0:
483,217,81815,5,0,1:0:0:0:
454,296,81907,5,2,1:0:0:0:
427,375,81998,5,8,3:0:0:0:
488,328,82090,5,4,3:2:0:0:
468,253,82181,1,2,3:2:0:0:
395,224,82273,1,2,3:2:0:0:
327,239,82364,1,2,3:2:0:0:
267,223,82456,1,2,1:2:0:0:
229,184,82547,1,2,3:2:0:0:
222,130,82638,1,2,3:2:0:0:
243,89,82730,1,2,3:2:0:0:
272,64,82821,6,0,P|309:45|347:64,1,77.0000023498536,2|4,3:2|3:0,0:0:0:0:
502,100,83004,2,0,B|455:77|407:113|443:133|396:160|335:147,1,175,8|0,3:0|1:0,0:0:0:0:
86,299,83370,6,0,B|73:266|29:254|29:254|89:205|167:221|187:290|187:290|159:303|157:341,1,315.000012016297,6|2,3:2|0:0,0:0:0:0:
223,353,83736,2,2,B|233:368|246:371|258:363|258:363|242:361|225:352,1,77.0000023498536,8|2,3:0|0:0,0:0:0:0:
288,57,83919,6,0,P|319:143|225:188,1,210.000008010865,2|2,1:2|3:2,0:0:0:0:
135,108,84193,1,2,1:2:0:0:
129,117,84285,2,0,P|140:155|158:200,1,77.0000023498536,2|0,3:2|0:0,0:0:0:0:
75,212,84468,2,0,P|63:173|46:129,1,77.0000023498536,4|0,3:0|0:0,0:0:0:0:
14,376,84651,5,2,1:2:0:0:
86,350,84742,5,0,1:0:0:0:
159,324,84834,5,2,1:2:0:0:
232,299,84925,5,0,1:0:0:0:
305,275,85017,5,2,3:2:0:0:
256,334,85108,1,2,3:2:0:0:
180,323,85199,1,2,3:2:0:0:
142,264,85291,1,2,3:2:0:0:
164,207,85382,1,6,1:2:0:0:
213,184,85474,1,2,3:2:0:0:
255,151,85565,1,2,3:2:0:0:
273,108,85657,1,2,1:2:0:0:
259,64,85748,6,0,P|239:26|193:24,1,77.0000023498536,2|4,3:2|3:0,0:0:0:0:
23,144,85931,2,0,L|206:86,1,175,8|0,3:0|1:0,0:0:0:0:
475,57,86297,6,0,P|466:86|431:96,1,52.5000020027161,4|0,3:1|0:0,0:0:0:0:
465,65,86389,6,0,P|436:72|410:46,1,52.5000020027161
457,61,86480,6,0,P|437:39|446:4,1,52.5000020027161,2|0,3:2|0:0,0:0:0:0:
454,48,86572,6,0,P|464:20|499:10,1,52.5000020027161
465,40,86663,6,0,P|495:34|521:60,1,52.5000020027161,4|0,3:0|0:0,0:0:0:0:
479,49,86754,6,0,P|500:72|491:107,1,52.5000020027161
465,65,86846,5,2,1:2:0:0:
437,152,86937,5,0,1:0:0:0:
413,225,87029,5,2,3:2:0:0:
392,282,87120,5,2,1:2:0:0:
376,325,87212,5,2,1:2:0:0:
364,353,87303,5,0,1:0:0:0:
359,364,87395,6,2,B|329:380|296:372|278:332|284:296|322:277|353:287|353:287|386:297|447:280|457:212|425:153|359:155|320:189|320:189|278:223|232:218|195:199|169:155|165:101|203:63|251:41|302:52|323:100,1,770.000023498536,4|0,3:1|1:0,0:1:0:0:
319,91,87943,1,4,1:2:0:0:
