osu file format v14

[General]
AudioFilename: audio.mp3
AudioLeadIn: 0
PreviewTime: 58675
Countdown: 0
SampleSet: Soft
StackLeniency: 0.7
Mode: 0
LetterboxInBreaks: 0
WidescreenStoryboard: 0

[Editor]
DistanceSpacing: 1
BeatDivisor: 4
GridSize: 32
TimelineZoom: 1

[Metadata]
Title:first death (TV Size)
TitleUnicode:first death (TV Size)
Artist:TK from Ling tosite sigure
ArtistUnicode:TK from 凛として時雨
Creator:Hyokar
Version:Normal
Source:チェンソーマン
Tags:chainsaw man csm anime japanese rock j-rock jrock ed ending 8 eight pepekcz tantan_ azphyx arronchu1207 -mikan bazz b マキマ Makima
BeatmapID:3905332
BeatmapSetID:1894989

[Difficulty]
HPDrainRate:3
CircleSize:3.2
OverallDifficulty:4.5
ApproachRate:5.5
SliderMultiplier:1
SliderTickRate:1

[Events]
//Background and Video events
0,0,"bg.jpg",0,0
Video,-90,"ed.mp4"
//Break Periods
//Storyboard Layer 0 (Background)
//Storyboard Layer 1 (Fail)
//Storyboard Layer 2 (Pass)
//Storyboard Layer 3 (Foreground)
//Storyboard Layer 4 (Overlay)
//Storyboard Sound Samples

[TimingPoints]
139,365.853658536585,4,2,1,65,1,0
139,-100,4,2,1,65,0,0
11480,-100,4,2,1,25,0,0
11846,-90.9090909090909,4,2,1,75,0,0
16053,-90.9090909090909,4,2,1,75,0,0
21907,-90.9090909090909,4,2,1,75,0,0
23553,-100,4,2,1,55,0,0
35260,-133.333333333333,4,2,1,45,0,0
36724,-133.333333333333,4,2,1,45,0,0
38187,-133.333333333333,4,2,1,45,0,0
39651,-133.333333333333,4,2,1,45,0,0
41114,-111.111111111111,4,2,1,45,0,0
45504,-100,4,2,1,65,0,0
46968,-100,4,2,2,75,0,0
48431,-100,4,2,2,75,0,0
49895,-100,4,2,2,75,0,0
54285,-100,4,2,2,75,0,0
57943,-100,4,2,1,75,0,0
58309,-100,4,2,1,80,0,0
58675,-86.9565217391304,4,2,1,90,0,1
61053,-86.9565217391304,4,2,1,90,0,1
63980,-86.9565217391304,4,2,1,90,0,1
64529,-86.9565217391304,4,2,1,80,0,1
70382,-86.9565217391304,4,2,1,90,0,1
72760,-86.9565217391304,4,2,1,90,0,1
76236,-86.9565217391304,4,2,1,80,0,1
82090,-90.9090909090909,4,2,1,75,0,0
87943,-100,4,2,1,5,0,0

[Colours]
Combo1 : 173,173,173
Combo2 : 78,146,142
Combo3 : 216,124,56

[HitObjects]
14,361,139,6,0,L|85:341,1,50,4|2,3:1|3:2,0:0:0:0:
94,308,504,1,2,1:2:0:0:
186,347,870,2,0,P|218:372|286:340,1,100,2|0,0:0|1:0,0:0:0:0:
311,327,1419,1,2,0:0:0:0:
241,255,1785,2,0,L|216:142,1,100,2|8,3:2|3:0,0:0:0:0:
182,123,2334,2,0,L|203:57,1,50,2|8,0:3|3:1,0:0:0:0:
210,27,2699,1,8,1:0:0:0:
284,93,3065,6,0,L|348:111,1,50,0|2,3:0|3:2,0:0:0:0:
371,74,3431,1,2,1:2:0:0:
447,9,3797,2,0,P|478:37|470:100,1,100,2|0,0:0|1:0,0:0:0:0:
447,133,4346,1,2,0:0:0:0:
376,203,4712,2,0,L|406:307,1,100,2|4,3:2|3:0,0:0:0:0:
374,339,5260,2,0,P|343:355|316:373,1,50,0|8,1:0|0:1,0:0:0:0:
284,342,5626,1,0,0:0:0:0:
188,370,5992,6,0,B|152:360|152:360|136:344|136:344|88:329,1,100,6|2,3:2|1:2,0:0:0:0:
53,355,6541,1,8,3:0:0:0:
5,267,6907,1,0,3:2:0:0:
5,267,7090,2,0,L|34:203,1,50,2|0,1:2|0:0,0:0:0:0:
36,172,7456,6,0,B|72:161|72:161|88:145|88:145|136:130,1,100,2|2,3:2|1:2,0:0:0:0:
171,156,8005,1,8,3:0:0:0:
252,213,8370,2,0,P|286:179|268:115,1,100,4|2,3:0|0:0,0:0:0:0:
267,82,8919,6,0,B|230:71|230:71|214:55|214:55|166:40,1,100,2|2,3:2|1:2,0:0:0:0:
132,66,9468,1,8,3:0:0:0:
41,22,9834,1,4,3:0:0:0:
41,22,10017,1,2,1:2:0:0:
10,117,10382,6,0,L|35:181,1,50,2|8,3:2|3:0,0:0:0:0:
68,193,10748,2,0,L|44:250,1,50,4|4,1:2|3:0,1:2:0:0:
38,288,11114,2,0,P|72:324|119:310,1,100,4|2,1:0|1:2,0:0:0:0:
185,226,11846,6,0,L|251:247,1,55.0000016784668,4|2,3:2|3:2,0:0:0:0:
277,281,12212,2,0,L|389:255,1,110.000003356934,2|2,1:2|3:2,0:0:0:0:
412,208,12760,1,8,3:0:0:0:
498,284,13126,5,6,3:2:0:0:
498,284,13309,2,0,P|523:320|493:372,1,110.000003356934,2|2,3:2|1:2,0:0:0:0:
441,374,13858,1,2,3:2:0:0:
441,374,14041,2,0,L|369:355,1,55.0000016784668,2|4,3:2|3:0,0:0:0:0:
346,323,14407,1,2,1:2:0:0:
268,245,14773,6,0,L|289:187,1,55.0000016784668,2|2,3:2|3:2,0:0:0:0:
335,166,15138,2,0,L|305:54,1,110.000003356934,6|2,1:2|3:2,0:0:0:0:
285,8,15687,1,8,3:0:0:0:
223,99,16053,6,0,P|189:116|129:72,1,110.000003356934,4|4,3:1|3:0,0:0:0:0:
110,30,16602,1,2,1:2:0:0:
5,24,16968,1,10,3:0:0:0:
5,24,17151,2,2,P|22:71|41:129,1,110.000003356934,2|0,3:2|0:0,0:1:0:0:
70,165,17699,6,0,P|101:176|126:193,1,55.0000016784668,2|2,3:2|3:2,0:0:0:0:
148,234,18065,2,0,P|187:258|249:227,1,110.000003356934,6|2,1:2|3:2,0:0:0:0:
271,188,18614,1,8,3:0:0:0:
340,102,18980,6,0,P|392:118|454:138,1,110.000003356934,4|8,3:2|3:0,0:0:0:0:
459,188,19529,1,2,1:2:0:0:
500,277,19895,2,0,P|495:313|459:333,1,55.0000016784668,2|4,3:2|3:0,0:0:0:0:
445,357,20260,1,2,1:2:0:0:
358,309,20626,6,0,L|293:292,1,55.0000016784668,2|2,3:2|3:2,0:0:0:0:
279,245,20992,2,0,P|263:216|311:157,1,110.000003356934,6|2,1:2|3:2,0:0:0:0:
347,128,21541,1,8,3:0:0:0:
456,111,21907,6,0,P|485:73|462:19,1,110.000003356934,4|4,3:1|3:0,0:0:0:0:
411,1,22456,2,0,B|373:11|373:11|357:33|357:33|310:46,1,110.000003356934,4|2,3:0|3:2,0:0:0:0:
269,13,23004,1,4,1:2:0:0:
160,129,23553,5,4,3:2:0:0:
68,88,23919,1,2,1:2:0:0:
11,170,24285,1,2,0:0:0:0:
11,170,24468,2,0,L|32:235,1,50,2|0,3:2|1:0,0:0:0:0:
62,253,24834,6,0,P|110:247|134:301,1,100,2|0,0:0|0:0,0:0:0:0:
160,329,25382,1,2,1:2:0:0:
247,376,25748,2,0,L|262:328,1,50,2|2,1:2|3:2,0:0:0:0:
302,297,26114,2,0,L|286:249,1,50,0|2,1:0|1:2,0:0:0:0:
249,215,26480,6,0,L|276:108,1,100,2|2,3:2|1:2,0:0:0:0:
260,18,27212,2,0,L|326:43,1,50,2|2,0:0|3:2,0:0:0:0:
346,67,27578,1,2,1:2:0:0:
346,67,27760,2,0,P|376:37|435:54,1,100,2|2,0:0|0:0,0:0:0:0:
473,70,28309,1,2,1:2:0:0:
504,164,28675,2,0,L|485:219,1,50,2|0,1:2|1:0,0:0:0:0:
449,244,29041,2,0,L|468:299,1,50,0|2,1:0|1:2,0:0:0:0:
447,338,29407,6,0,P|417:368|355:354,1,100,2|0,3:1|1:0,0:0:0:0:
332,321,29956,2,0,P|302:291|240:305,1,100,4|2,3:0|3:2,0:0:0:0:
205,323,30504,1,0,1:0:0:0:
116,370,30870,6,0,L|85:266,1,100,2|2,3:1|1:2,0:0:0:0:
50,240,31419,2,0,L|68:183,1,50,4|2,3:0|1:2,0:0:0:0:
83,145,31785,1,8,3:0:0:0:
25,63,32151,1,2,1:2:0:0:
25,63,32334,6,0,P|55:32|112:42,1,100,2|2,3:1|1:2,0:0:0:0:
153,58,32882,2,0,P|205:71|258:91,1,100,4|2,3:0|3:2,0:0:0:0:
293,64,33431,1,0,1:0:0:0:
382,18,33797,6,0,P|417:2|478:49,1,100,2|2,3:1|1:2,0:0:0:0:
504,63,34346,1,8,3:0:0:0:
440,140,34712,2,0,L|475:257,1,100,0|8,1:0|3:0,0:0:0:0:
441,261,35260,6,0,B|400:241|345:259|318:300|325:312|332:323|300:374|239:392|192:357,1,300.000011444092,4|4,3:1|3:2,0:0:0:0:
72,81,38187,6,0,B|54:50|16:33|16:33|237:91,1,300.000011444092,4|4,3:2|3:2,0:0:0:0:
14,375,41114,6,0,P|-10:340|16:286,1,89.9999972534181,4|0,3:1|3:0,0:0:0:0:
8,206,41846,2,0,P|26:167|86:163,1,89.9999972534181,0|0,3:0|3:0,0:0:0:0:
109,135,42395,1,0,0:0:0:0:
109,135,42578,6,0,L|203:163,1,89.9999972534181,4|0,3:2|3:0,0:0:0:0:
257,225,43309,2,0,L|343:199,1,89.9999972534181,0|0,3:0|3:0,0:0:0:0:
414,143,44041,2,0,P|441:97|414:62,1,89.9999972534181,4|0,3:2|3:0,0:0:0:0:
396,34,44590,1,0,0:0:0:0:
396,34,44773,1,0,3:0:0:0:
319,80,45138,1,0,3:0:0:0:
241,16,45504,6,0,L|180:38,1,50,2|8,1:2|3:0,0:0:0:0:
147,53,45870,1,2,1:2:0:0:
95,138,46236,2,0,L|34:116,1,50,2|0,1:2|3:0,0:0:0:0:
1,102,46602,1,2,1:2:0:0:
21,199,46968,6,0,P|58:235|110:228,1,100,4|0,1:2|1:0,0:0:0:0:
192,186,47699,2,0,L|294:215,1,100,2|0,0:1|3:0,0:0:0:0:
363,279,48431,1,6,1:0:0:0:
438,213,48797,2,0,L|460:158,1,50,0|12,1:0|1:0,0:0:0:0:
492,131,49163,2,0,L|465:19,1,100,2|0,0:1|0:0,0:0:0:0:
372,3,49895,6,0,P|334:23|350:87,1,100,6|0,1:0|0:0,0:0:0:0:
365,115,50443,1,14,1:0:0:0:
365,115,50626,2,0,P|403:135|387:199,1,100,2|2,0:1|0:0,0:0:0:0:
332,259,51358,2,0,P|293:273|229:300,1,100,6|8,1:0|3:0,0:0:0:0:
203,330,51907,1,2,1:0:0:0:
203,330,52090,1,8,0:1:0:0:
8,376,52821,6,0,L|46:262,1,100,6|4,1:0|3:0,0:0:0:0:
76,247,53370,1,2,1:0:0:0:
76,247,53553,1,12,0:1:0:0:
17,165,53919,1,2,0:1:0:0:
89,95,54285,2,0,P|129:80|177:128,1,100,6|0,1:0|3:0,0:0:0:0:
194,156,54834,1,2,1:0:0:0:
194,156,55017,1,14,0:1:0:0:
253,346,55748,6,0,L|361:316,1,100,6|10,1:0|1:0,0:0:0:0:
384,283,56297,1,2,1:0:0:0:
384,283,56480,2,0,L|445:303,2,50,10|2|8,0:1|3:1|3:0,0:0:0:0:
372,183,57212,6,0,P|363:138|414:101,1,100,6|2,1:0|3:1,0:0:0:0:
441,76,57760,1,2,1:0:0:0:
441,76,57943,2,0,B|400:80|361:54|391:39|349:15|300:26,1,150,0|0,1:0|1:0,0:0:0:0:
264,62,58675,5,10,3:2:0:0:
173,112,59041,1,10,1:2:0:0:
88,51,59407,2,0,P|45:91|78:160,1,115.000002193451,10|10,3:2|1:2,0:0:0:0:
132,209,60138,2,0,L|168:333,1,115.000002193451,10|10,3:2|1:2,0:0:0:0:
207,357,60687,1,8,3:0:0:0:
207,357,60870,2,0,P|239:368|277:386,1,57.5000010967255,4|8,3:0|1:1,0:0:0:0:
305,351,61236,1,12,1:0:0:0:
363,265,61602,6,0,P|392:257|423:242,1,57.5000010967255,10|8,3:2|3:0,0:0:0:0:
465,227,61968,1,10,1:2:0:0:
385,160,62334,2,0,P|354:113|297:123,1,115.000002193451,10|10,3:2|1:2,0:0:0:0:
251,105,62882,2,0,P|195:108|175:163,1,115.000002193451,4|8,3:0|3:0,0:0:0:0:
148,202,63431,1,8,1:2:0:0:
84,283,63797,2,0,L|21:263,1,57.5000010967255,4|8,3:0|3:1,0:0:0:0:
1,221,64163,1,8,1:0:0:0:
76,150,64529,6,0,P|101:85|129:26,1,115.000002193451,4|2,3:1|1:0,0:0:0:0:
215,2,65260,1,4,3:0:0:0:
277,84,65626,1,2,1:0:0:0:
362,25,65992,2,0,P|429:18|460:69,1,115.000002193451,8|2,3:0|1:0,0:0:0:0:
494,86,66541,1,2,0:3:0:0:
494,86,66724,2,0,L|459:208,1,115.000002193451,4|2,3:0|1:0,0:0:0:0:
486,297,67456,6,0,P|419:304|388:253,1,115.000002193451,4|2,3:1|1:0,0:0:0:0:
333,186,68187,1,4,3:0:0:0:
246,242,68553,1,2,1:0:0:0:
293,333,68919,2,0,P|230:351|179:373,1,115.000002193451,8|0,3:0|1:0,0:0:0:0:
140,341,69468,1,8,3:0:0:0:
140,341,69651,2,0,P|97:286|138:237,1,115.000002193451,0|4,1:0|3:0,0:0:0:0:
189,181,70382,6,0,P|208:109|226:53,1,115.000002193451,10|10,3:2|1:2,0:0:0:0:
140,3,71114,2,0,P|87:24|23:48,1,115.000002193451,10|10,3:2|1:2,0:0:0:0:
6,89,71663,1,4,3:0:0:0:
6,89,71846,2,0,P|48:145|101:118,1,115.000002193451,10|10,3:2|1:2,0:0:0:0:
173,84,72578,2,0,L|242:61,1,57.5000010967255,10|8,3:2|1:1,0:0:0:0:
261,26,72943,1,12,1:0:0:0:
325,107,73309,6,0,L|440:146,1,115.000002193451,10|10,3:2|1:2,0:0:0:0:
503,220,74041,2,0,P|519:280|466:317,1,115.000002193451,10|10,3:2|1:2,0:0:0:0:
453,354,74590,2,0,L|409:221,1,115.000002193451,2|4,3:2|3:0,0:0:0:0:
379,209,75138,2,0,L|400:142,1,57.5000010967255,10|6,1:2|3:0,0:0:0:0:
432,117,75504,2,0,L|408:50,2,57.5000010967255,10|0|4,3:2|1:0|3:0,0:0:0:0:
329,99,76236,6,0,P|264:104|246:158,1,115.000002193451,4|2,3:1|1:0,0:0:0:0:
210,183,76785,1,2,0:3:0:0:
210,183,76968,1,4,3:0:0:0:
289,249,77334,2,0,L|272:311,1,57.5000010967255,2|2,1:0|3:3,0:0:0:0:
237,341,77699,2,0,P|189:374|126:345,1,115.000002193451,4|2,3:0|1:0,0:0:0:0:
53,298,78431,2,0,L|79:235,1,57.5000010967255,4|8,3:0|1:1,0:0:0:0:
113,209,78797,2,0,L|87:146,1,57.5000010967255,8|0,3:1|0:0,0:0:0:0:
82,104,79163,6,0,P|152:119|179:71,1,115.000002193451,4|2,3:1|1:0,0:0:0:0:
210,53,79712,1,2,0:3:0:0:
210,53,79895,1,4,3:0:0:0:
301,5,80260,1,2,1:0:0:0:
301,5,80443,2,0,L|422:44,1,115.000002193451,2|0,0:3|1:0,0:0:0:0:
456,15,80992,1,0,1:0:0:0:
510,103,81358,1,4,3:0:0:0:
450,187,81724,1,12,1:0:0:0:
350,175,82090,6,0,L|282:202,1,55.0000016784668,4|2,3:2|3:2,0:0:0:0:
263,238,82456,2,0,L|150:204,1,110.000003356934,2|2,1:2|3:2,0:0:0:0:
135,156,83004,1,8,3:0:0:0:
49,224,83370,5,6,3:2:0:0:
49,224,83553,2,0,P|6:258|21:313,1,110.000003356934,2|2,3:2|1:2,0:0:0:0:
52,347,84102,1,2,3:2:0:0:
52,347,84285,2,0,L|113:371,1,55.0000016784668,2|4,3:2|3:0,0:0:0:0:
150,338,84651,1,2,1:2:0:0:
204,242,85017,6,0,L|263:222,1,55.0000016784668,2|2,3:2|3:2,0:0:0:0:
298,189,85382,2,0,P|345:178|383:222,1,110.000003356934,6|2,1:2|3:2,0:0:0:0:
390,274,85931,1,8,3:0:0:0:
495,305,86297,6,0,L|462:183,1,110.000003356934,4|4,3:1|3:0,0:0:0:0:
438,151,86846,2,0,L|460:98,1,55.0000016784668,2|2,1:2|3:2,0:0:0:0:
448,45,87212,1,2,1:2:0:0:
448,45,87395,6,2,B|402:33|357:62|389:78|351:106|297:90,1,165.000005035401,4|4,3:1|1:2,0:1:0:0:
