osu file format v14

[General]
AudioFilename: audio.mp3
AudioLeadIn: 0
PreviewTime: 58675
Countdown: 0
SampleSet: Soft
StackLeniency: 0.7
Mode: 0
LetterboxInBreaks: 0
WidescreenStoryboard: 1

[Editor]
DistanceSpacing: 1.3
BeatDivisor: 4
GridSize: 32
TimelineZoom: 2.3

[Metadata]
Title:first death (TV Size)
TitleUnicode:first death (TV Size)
Artist:TK from Ling tosite sigure
ArtistUnicode:TK from 凛として時雨
Creator:Hyokar
Version:Hard
Source:チェンソーマン
Tags:chainsaw man csm anime japanese rock j-rock jrock ed ending 8 eight pepekcz tantan_ azphyx arronchu1207 -mikan bazz b マキマ Makima
BeatmapID:3905331
BeatmapSetID:1894989

[Difficulty]
HPDrainRate:4
CircleSize:3.6
OverallDifficulty:6.5
ApproachRate:8
SliderMultiplier:1.38
SliderTickRate:1

[Events]
//Background and Video events
0,0,"bg.jpg",0,0
Video,-90,"ed.mp4"
//Break Periods
//Storyboard Layer 0 (Background)
//Storyboard Layer 1 (Fail)
//Storyboard Layer 2 (Pass)
//Storyboard Layer 3 (Foreground)
//Storyboard Layer 4 (Overlay)
//Storyboard Sound Samples

[TimingPoints]
139,365.853658536585,4,2,1,65,1,0
139,-100,4,2,1,65,0,0
11480,-100,4,2,1,25,0,0
11846,-90.9090909090909,4,2,1,75,0,0
16053,-90.9090909090909,4,2,1,75,0,0
17334,-90.9090909090909,4,2,1,75,0,0
21907,-90.9090909090909,4,2,1,75,0,0
23553,-100,4,2,1,55,0,0
35260,-133.333333333333,4,2,1,45,0,0
41114,-111.111111111111,4,2,1,45,0,0
45504,-100,4,2,1,65,0,0
46876,-100,4,2,1,5,0,0
46968,-100,4,2,2,75,0,0
48431,-100,4,2,2,75,0,0
49895,-100,4,2,2,75,0,0
54285,-100,4,2,2,75,0,0
57943,-100,4,2,1,75,0,0
58309,-100,4,2,1,80,0,0
58675,-83.3333333333333,4,2,1,90,0,1
61053,-83.3333333333333,4,2,1,90,0,1
64529,-83.3333333333333,4,2,1,80,0,1
70382,-83.3333333333333,4,2,1,90,0,1
76236,-83.3333333333333,4,2,1,80,0,1
82090,-90.9090909090909,4,2,1,75,0,0
87852,-90.9090909090909,4,2,1,5,0,0
87943,-90.9090909090909,4,2,1,75,0,0

[Colours]
Combo1 : 173,173,173
Combo2 : 78,146,142
Combo3 : 216,124,56

[HitObjects]
499,26,139,6,0,P|485:70|476:104,1,69,4|2,3:1|3:2,0:0:0:0:
415,165,504,1,2,1:2:0:0:
415,165,687,1,8,3:0:0:0:
449,255,870,2,0,P|495:273|525:287,2,69,2|0|0,0:0|3:0|1:0,0:0:0:0:
370,312,1419,5,2,0:0:0:0:
370,312,1602,2,0,L|319:331,3,34.5,0|0|2|0,3:0|3:0|3:2|3:0,0:0:0:0:
301,356,1968,1,0,1:2:0:0:
226,293,2151,1,8,3:0:0:0:
226,293,2334,2,0,L|251:216,1,69,2|8,0:3|3:1,0:0:0:0:
261,180,2608,1,0,3:0:0:0:
261,180,2699,1,8,1:0:0:0:
372,21,3065,5,0,3:0:0:0:
359,27,3157,1,0,3:0:0:0:
346,33,3248,1,2,3:2:0:0:
333,39,3340,1,0,3:0:0:0:
320,45,3431,2,0,L|237:18,1,69,2|8,1:2|3:0,0:0:0:0:
171,74,3797,2,0,L|94:102,1,69,2|0,0:0|3:0,0:0:0:0:
27,40,4163,1,0,1:0:0:0:
0,132,4346,5,2,0:0:0:0:
0,132,4529,2,0,L|22:191,3,34.5,0|0|2|0,3:0|3:0|3:2|3:0,0:0:0:0:
49,194,4895,2,0,L|16:279,1,69,0|4,1:0|3:0,0:0:0:0:
76,339,5260,1,0,1:0:0:0:
153,281,5443,1,8,0:1:0:0:
216,354,5626,2,0,P|262:369|296:333,1,103.5
338,298,5992,6,0,P|381:311|417:324,1,69,6|8,3:2|3:0,0:0:0:0:
417,315,6267,1,0,3:0:0:0:
429,308,6358,1,2,1:2:0:0:
485,229,6541,2,0,P|502:185|518:155,1,69,8|2,3:0|0:3,0:0:0:0:
491,70,6907,1,0,3:2:0:0:
399,99,7090,2,0,P|352:113|314:58,1,103.5,2|0,1:2|0:0,0:0:0:0:
280,45,7456,6,0,L|229:66,3,34.5,2|0|8|0,3:2|3:0|3:0|3:0,0:0:0:0:
205,36,7821,1,2,1:2:0:0:
191,131,8004,2,0,P|209:170|225:209,1,69,8|2,3:0|0:3,0:0:0:0:
323,210,8370,1,4,3:0:0:0:
323,210,8462,1,8,3:0:0:0:
323,210,8553,2,0,P|312:230|305:255,3,34.5,2|2|2|2,1:2|0:0|0:0|0:0,0:0:0:0:
281,281,8919,6,0,P|252:304|210:289,1,69,2|8,3:2|3:0,0:0:0:0:
215,289,9193,1,0,3:0:0:0:
209,277,9285,1,2,1:2:0:0:
139,210,9468,2,0,P|93:231|66:240,1,69,8|2,3:0|0:3,0:0:0:0:
0,305,9834,1,4,3:0:0:0:
72,363,10017,2,0,P|101:330|164:348,1,103.5,2|2,1:2|0:0,0:0:0:0:
197,362,10382,6,0,L|278:379,1,69,2|8,3:2|3:0,0:0:0:0:
331,305,10748,1,4,1:2:0:0:
343,299,10840,1,8,3:0:0:0:
355,293,10931,1,4,3:0:0:0:
367,287,11023,1,8,3:0:0:0:
378,280,11114,2,0,L|432:255,3,34.5,4|0|4|8,1:0|1:0|1:3|1:3,0:0:0:0:
447,235,11480,2,2,P|468:184|432:153,1,103.5,2|2,1:2|0:0,0:0:0:0:
379,106,11846,6,0,L|336:90,3,37.9500011581421,4|2|2|2,3:2|3:2|3:2|3:2,0:0:0:0:
321,52,12212,2,0,L|274:75,3,37.9500011581421,2|2|2|2,1:2|3:2|3:2|3:2,0:0:0:0:
248,43,12578,1,2,3:2:0:0:
165,5,12760,2,0,P|129:-1|98:33,1,75.9000023162842,8|0,3:0|1:0,0:0:0:0:
74,110,13126,6,0,B|29:150|29:150|83:251,1,151.800004632568,6|8,3:2|3:0,0:0:0:0:
78,243,13584,1,2,0:0:0:0:
83,256,13675,2,0,P|46:278|10:306,1,75.9000023162842,2|2,1:2|3:2,0:0:0:0:
102,344,14041,1,2,3:2:0:0:
186,292,14224,1,4,3:0:0:0:
273,338,14407,2,0,P|304:364|335:383,1,75.9000023162842,2|2,1:2|1:2,0:0:0:0:
348,378,14681,1,0,1:0:0:0:
361,373,14773,6,0,L|405:359,3,37.9500011581421,2|2|2|2,3:2|3:2|3:2|3:2,0:0:0:0:
419,322,15138,2,0,L|462:343,3,37.9500011581421,6|2|2|2,1:2|3:2|3:2|1:2,0:0:0:0:
494,318,15504,1,2,3:2:0:0:
497,228,15687,2,0,P|479:177|465:141,1,75.9000023162842,8|0,3:0|1:0,0:0:0:0:
474,65,16053,6,0,B|437:55|397:82|421:101|383:126|339:112,1,151.800004632568,4|4,3:1|3:0,0:0:0:0:
255,77,16602,2,0,P|214:68|179:95,1,75.9000023162842,2|2,1:2|3:2,0:0:0:0:
176,97,16876,1,2,1:2:0:0:
167,109,16968,1,10,3:0:0:0:
108,190,17151,1,2,3:2:0:0:
17,152,17334,1,0,1:0:0:0:
8,143,17425,2,0,L|40:50,1,75.9000023162842,0|0,1:0|1:3,0:0:0:0:
44,51,17699,6,0,L|90:74,3,37.9500011581421,2|2|2|2,3:2|3:2|3:2|3:2,0:0:0:0:
110,36,18065,2,0,L|156:17,3,37.9500011581421,6|2|2|2,1:2|3:2|3:2|3:2,0:0:0:0:
180,49,18431,1,2,3:2:0:0:
139,130,18614,2,0,P|187:150|194:183,1,75.9000023162842,8|0,3:0|1:0,0:0:0:0:
282,195,18980,6,0,P|210:202|133:253,1,151.800004632568,4|8,3:2|3:0,0:0:0:0:
132,256,19437,1,2,0:0:0:0:
123,267,19529,1,2,1:2:0:0:
54,338,19712,1,2,3:2:0:0:
54,338,19803,1,2,1:2:0:0:
54,338,19895,2,0,P|91:370|130:359,1,75.9000023162842,2|4,3:2|3:0,0:0:0:0:
204,326,20260,1,2,1:2:0:0:
223,332,20352,1,0,1:0:0:0:
242,338,20443,1,2,1:2:0:0:
261,344,20535,1,0,1:0:0:0:
275,349,20626,6,0,L|334:368,3,37.9500011581421,2|2|2|2,3:2|3:2|3:2|3:2,0:0:0:0:
337,323,20992,2,0,L|380:280,3,37.9500011581421,6|2|2|2,1:2|3:2|3:2|1:2,0:0:0:0:
351,252,21358,1,2,3:2:0:0:
277,198,21541,2,0,P|240:212|199:230,1,75.9000023162842,8|0,3:0|1:0,0:0:0:0:
141,161,21907,6,0,P|141:85|221:60,1,151.800004632568,4|4,3:1|3:0,0:0:0:0:
282,100,22456,2,0,P|306:110|338:118,3,37.9500011581421,4|8|2|8,3:0|3:0|1:2|3:0,0:0:0:0:
361,104,22821,1,2,3:2:0:0:
458,91,23004,2,0,B|465:131|437:170|417:147|389:179|401:231,1,151.800004632568,4|8,1:2|3:0,0:0:0:0:
460,296,23553,6,0,P|420:309|383:326,1,69,4|0,3:2|0:0,0:0:0:0:
387,330,23828,1,0,0:0:0:0:
379,341,23919,1,2,1:2:0:0:
301,284,24102,1,0,1:0:0:0:
245,363,24285,2,0,L|169:337,1,69,2|2,0:0|3:2,0:0:0:0:
90,380,24651,1,0,1:0:0:0:
0,217,25017,6,0,P|14:181|28:133,1,69,0|0,3:0|0:0,0:0:0:0:
19,141,25291,1,8,3:0:0:0:
14,129,25382,1,2,1:2:0:0:
51,39,25565,1,0,1:0:0:0:
133,89,25748,1,2,1:2:0:0:
133,89,25840,1,0,1:0:0:0:
133,89,25931,1,2,3:2:0:0:
199,18,26114,2,0,L|214:57,3,34.5,0|0|2|0,1:0|1:0|1:2|1:0,0:0:0:0:
250,79,26480,6,0,P|284:95|321:78,1,69,2|2,3:2|0:0,0:0:0:0:
321,78,26754,1,4,0:3:0:0:
330,71,26846,1,2,1:2:0:0:
404,9,27029,1,2,3:2:0:0:
487,57,27212,2,0,P|508:93|489:129,1,69,2|2,0:0|3:2,0:0:0:0:
434,188,27578,2,0,B|451:239|451:239|454:242|454:242|472:296,1,103.5,2|0,1:2|0:0,0:0:0:0:
439,323,27943,6,0,P|406:339|373:358,1,69,0|2,3:0|0:0,0:0:0:0:
368,347,28218,1,8,0:3:0:0:
358,340,28309,1,2,1:2:0:0:
265,367,28492,1,0,0:0:0:0:
207,289,28675,1,2,1:2:0:0:
207,289,28767,1,0,1:0:0:0:
207,289,28858,1,0,1:0:0:0:
261,209,29041,2,0,P|284:218|312:227,3,34.5,0|0|2|0,1:0|1:0|1:2|1:0,0:0:0:0:
338,203,29407,6,0,P|370:169|357:129,1,69,2|8,3:1|3:0,0:0:0:0:
365,137,29681,1,2,3:1:0:0:
359,125,29773,1,0,1:0:0:0:
307,43,29956,2,0,L|221:74,1,69,4|2,3:0|0:3,0:0:0:0:
168,128,30321,2,0,L|103:104,1,69,2|0,3:2|1:0,0:0:0:0:
31,38,30687,1,2,0:0:0:0:
31,38,30870,6,0,P|15:75|-3:120,1,69,2|0,3:1|0:0,0:0:0:0:
10,113,31145,1,2,3:1:0:0:
17,124,31236,1,2,1:2:0:0:
74,201,31419,1,4,3:0:0:0:
3,267,31602,1,2,1:2:0:0:
3,267,31693,1,0,1:0:0:0:
3,267,31785,1,8,3:0:0:0:
79,325,31968,2,0,L|94:278,3,34.5,0|0|2|0,1:0|1:0|1:2|1:0,0:0:0:0:
130,265,32334,6,0,P|177:251|204:278,1,69,2|2,3:1|0:0,0:0:0:0:
204,269,32608,1,2,3:1:0:0:
213,277,32699,1,2,1:2:0:0:
273,352,32882,2,0,B|348:362|317:300|409:317,1,138,4|2,3:0|3:2,0:0:0:0:
487,356,33431,1,0,1:0:0:0:
508,261,33614,1,2,0:0:0:0:
508,261,33706,1,0,0:0:0:0:
508,261,33797,6,0,L|481:169,1,69,2|0,3:1|0:0,0:0:0:0:
485,181,34071,1,2,3:1:0:0:
482,169,34163,1,2,1:2:0:0:
490,72,34346,2,0,P|452:98|418:83,1,69,8|0,3:0|1:0,0:0:0:0:
422,86,34620,1,0,1:0:0:0:
411,77,34712,1,0,1:0:0:0:
329,25,34895,2,0,L|286:11,3,34.5,0|0|8|4,1:0|1:0|3:0|3:0,0:0:0:0:
255,36,35260,5,4,3:1:0:0:
224,105,36724,1,4,3:2:0:0:
49,366,38187,5,4,3:2:0:0:
18,297,39651,1,4,3:2:0:0:
471,94,41114,6,0,P|500:126|456:193,1,124.199996209717,4|0,3:1|3:0,0:0:0:0:
407,253,41663,1,0,0:0:0:0:
407,253,41846,2,0,L|274:213,1,124.199996209717,0|0,3:0|3:0,0:0:0:0:
129,143,42578,6,0,B|94:178|94:178|126:253,1,124.199996209717,4|0,3:2|3:0,0:0:0:0:
183,309,43126,1,0,0:0:0:0:
183,309,43309,2,0,L|208:235,1,62.0999981048585,0|0,3:0|0:0,0:0:0:0:
272,196,43675,2,0,L|247:122,1,62.0999981048585,0|0,3:0|0:0,0:0:0:0:
189,76,44041,6,0,P|222:101|298:69,1,124.199996209717,4|0,3:2|3:0,0:0:0:0:
365,25,44590,1,0,0:0:0:0:
365,25,44773,2,0,P|393:36|421:50,1,62.0999981048585,0|0,3:0|0:0,0:0:0:0:
456,130,45138,2,0,P|502:108|529:99,1,62.0999981048585,0|0,3:0|0:0,0:0:0:0:
481,204,45504,6,0,P|439:212|406:189,1,69,2|8,1:2|3:0,0:0:0:0:
408,207,45779,1,4,3:0:0:0:
400,215,45870,2,0,P|357:235|334:251,1,69,2|0,1:2|3:0,0:0:0:0:
275,320,46236,1,2,1:2:0:0:
197,261,46419,1,0,3:0:0:0:
197,261,46510,1,4,3:0:0:0:
197,261,46602,2,0,L|232:141,1,103.5,2|0,1:2|0:0,0:0:0:0:
242,116,46968,5,4,1:2:0:0:
120,38,47242,1,8,1:0:0:0:
48,164,47517,1,4,1:0:0:0:
97,360,48431,5,6,1:0:0:0:
147,223,48706,1,8,1:0:0:0:
271,297,48980,1,12,1:0:0:0:
271,297,49163,2,0,B|315:284|348:293|367:324|362:333|354:342|377:371|411:380|458:365,1,207,2|0,0:1|0:0,0:0:0:0:
507,284,49895,5,6,1:0:0:0:
390,198,50169,1,12,1:0:0:0:
509,117,50443,1,14,1:0:0:0:
292,38,51358,5,6,1:0:0:0:
363,114,51541,1,0,1:0:0:0:
363,114,51632,1,4,1:3:0:0:
363,114,51724,1,8,3:0:0:0:
300,196,51906,1,2,1:0:0:0:
300,196,52090,2,0,B|248:182|248:182|226:158|226:158|164:142,1,138,8|0,0:1|0:0,0:0:0:0:
76,2,52821,6,0,L|58:46,3,34.5,6|0|0|8,1:0|0:0|3:0|3:0,0:0:0:0:
88,75,53187,2,0,L|106:119,3,34.5,4|0|2|0,3:0|3:0|1:0|0:0,0:0:0:0:
72,146,53553,1,12,0:1:0:0:
16,366,54285,6,0,L|-2:322,3,34.5,6|0|8|4,1:0|0:0|3:0|3:0,0:0:0:0:
28,293,54651,2,0,L|46:249,3,34.5,0|0|2|2,3:0|0:0|1:0|3:1,0:0:0:0:
12,222,55017,2,0,P|3:170|83:155,1,138,14|0,0:1|0:0,0:0:0:0:
212,279,55748,6,0,L|285:309,1,69,6|4,1:0|3:0,0:0:0:0:
283,316,56023,1,2,1:0:0:0:
291,328,56114,2,0,L|334:315,3,34.5,10|4|2|0,1:0|3:0|1:0|0:0,0:0:0:0:
368,340,56480,1,10,0:1:0:0:
443,281,56663,2,0,P|467:318|454:349,2,69,2|8|2,3:1|3:0|3:1,0:0:0:0:
360,230,57212,6,0,P|376:181|390:146,1,69,6|8,1:0|3:0,0:0:0:0:
449,94,57578,2,0,P|433:45|419:10,1,69,2|2,3:1|1:0,0:0:0:0:
347,83,57943,2,0,L|308:98,3,34.5,0|0|0|0,1:0|1:0|1:0|1:0,0:0:0:0:
308,107,58309,1,0,1:0:0:0:
301,119,58401,1,8,1:3:0:0:
294,131,58492,1,0,1:0:0:0:
287,143,58584,1,4,1:3:0:0:
280,157,58675,6,0,B|236:164|236:164|188:128,1,82.7999974731446,10|0,3:2|1:0,0:0:0:0:
105,138,59041,2,0,B|133:172|133:172|125:232,1,82.7999974731446,10|0,1:2|3:0,0:0:0:0:
176,298,59407,2,0,B|191:256|191:256|247:232,1,82.7999974731446,10|8,3:2|3:0,0:0:0:0:
266,333,59773,1,10,1:2:0:0:
266,333,59956,1,8,3:0:0:0:
328,256,60138,6,0,L|303:158,1,82.7999974731446,10|0,3:2|3:0,0:0:0:0:
234,107,60504,1,10,1:2:0:0:
301,34,60687,1,8,3:0:0:0:
206,2,60870,2,0,P|152:24|117:37,1,82.7999974731446,4|8,3:0|1:1,0:0:0:0:
118,27,61145,1,0,3:0:0:0:
106,21,61236,1,12,1:0:0:0:
6,192,61602,6,0,P|54:189|80:227,1,82.7999974731446,10|8,3:2|3:0,0:0:0:0:
166,169,61968,2,0,P|192:209|172:250,1,82.7999974731446,10|8,1:2|3:0,0:0:0:0:
260,303,62334,2,0,P|238:346|192:349,1,82.7999974731446,10|8,3:2|3:0,0:0:0:0:
120,306,62699,1,10,1:2:0:0:
44,370,62882,6,0,B|7:337|7:337|53:217,1,165.599994946289,4|8,3:0|3:0,0:0:0:0:
124,163,63431,2,0,L|98:76,1,82.7999974731446,8|2,1:2|3:2,0:0:0:0:
6,50,63797,2,0,P|20:9|61:-2,1,82.7999974731446,4|8,3:0|3:1,0:0:0:0:
69,0,64071,1,0,1:0:0:0:
81,4,64163,1,8,1:0:0:0:
172,43,64346,1,4,3:0:0:0:
172,43,64437,1,4,3:0:0:0:
172,43,64529,6,0,B|225:35|262:66|237:80|278:116|329:98,1,165.599994946289,4|2,3:1|1:0,0:0:0:0:
409,139,65078,1,2,0:3:0:0:
460,54,65260,2,0,P|525:97|512:174,1,165.599994946289,4|2,3:0|1:0,0:0:0:0:
438,242,65809,1,2,0:3:0:0:
341,220,65992,6,0,B|283:244|283:244|258:278|258:278|185:304,2,165.599994946289,8|2|4,3:0|1:0|3:0,0:0:0:0:
438,242,66907,1,2,3:3:0:0:
508,304,67090,2,0,P|511:349|477:373,1,82.7999974731446,2|4,1:0|3:0,0:0:0:0:
473,374,67364,1,8,3:0:0:0:
461,376,67456,6,0,B|416:386|377:352|401:333|359:304|312:313,1,165.599994946289,4|2,3:1|1:0,0:0:0:0:
245,244,68004,1,2,0:3:0:0:
320,179,68187,2,0,P|301:118|268:14,1,165.599994946289,4|2,3:0|1:0,0:0:0:0:
171,5,68736,1,2,0:3:0:0:
124,92,68919,6,0,P|46:115|5:33,2,165.599994946289,8|0|0,3:0|1:0|1:0,0:0:0:0:
200,156,69834,1,8,3:0:0:0:
200,156,70017,2,0,L|253:176,3,41.3999987365723,4|0|8|4,3:0|1:0|3:3|3:0,0:0:0:0:
285,155,70382,6,0,B|318:127|318:127|372:144,1,82.7999974731446,10|0,3:2|3:0,0:0:0:0:
447,99,70748,2,0,B|454:141|454:141|413:179,1,82.7999974731446,10|8,1:2|3:0,0:0:0:0:
411,267,71114,2,0,B|370:252|370:252|357:197,1,82.7999974731446,10|4,3:2|3:0,0:0:0:0:
285,155,71480,1,10,1:2:0:0:
285,155,71663,1,4,3:0:0:0:
212,223,71846,6,0,L|113:256,1,82.7999974731446,10|8,3:2|3:0,0:0:0:0:
42,207,72212,1,10,1:2:0:0:
6,299,72395,1,4,3:0:0:0:
79,366,72578,2,0,L|157:339,1,82.7999974731446,10|8,3:2|1:1,0:0:0:0:
168,346,72852,1,0,3:0:0:0:
180,353,72943,1,12,1:0:0:0:
377,378,73309,6,0,P|357:351|389:298,1,82.7999974731446,10|4,3:2|3:0,0:0:0:0:
274,281,73675,2,0,P|287:250|349:251,1,82.7999974731446,10|8,1:2|3:0,0:0:0:0:
310,143,74041,2,0,P|343:139|373:193,1,82.7999974731446,10|8,3:2|3:0,0:0:0:0:
442,245,74407,1,10,1:2:0:0:
511,173,74590,6,0,L|465:10,1,165.599994946289,2|4,3:2|3:0,0:0:0:0:
395,84,75138,2,0,P|346:103|309:126,1,82.7999974731446,10|6,1:2|3:0,0:0:0:0:
242,55,75504,2,0,P|193:36|156:13,1,82.7999974731446,10|0,3:2|1:0,0:0:0:0:
157,13,75779,1,0,1:0:0:0:
145,7,75870,1,4,3:0:0:0:
78,81,76053,1,8,3:0:0:0:
78,81,76145,1,0,1:0:0:0:
78,81,76236,6,0,P|68:119|51:170,1,82.7999974731446,4|2,3:1|0:3,0:0:0:0:
150,189,76602,2,0,P|160:148|173:109,1,82.7999974731446,2|2,1:0|0:3,0:0:0:0:
239,184,76968,2,0,P|188:187|163:300,1,165.599994946289,4|2,3:0|1:0,0:0:0:0:
197,371,77517,2,0,L|285:347,1,82.7999974731446,2|4,3:3|3:0,0:0:0:0:
347,278,77882,1,2,3:3:0:0:
416,348,78065,2,0,P|453:317|443:273,1,82.7999974731446,2|2,1:0|0:3,0:0:0:0:
506,202,78431,2,0,P|497:154|454:141,1,82.7999974731446,4|8,3:0|1:1,0:0:0:0:
458,132,78706,1,0,1:0:0:0:
447,125,78797,1,8,3:1:0:0:
349,12,79071,5,0,1:0:0:0:
339,21,79163,2,0,L|176:75,1,165.599994946289,4|2,3:1|1:0,0:0:0:0:
98,17,79712,1,2,0:3:0:0:
24,83,79895,2,0,P|-4:128|24:162,1,82.7999974731446,4|2,3:0|0:3,0:0:0:0:
70,226,80260,1,2,1:0:0:0:
165,199,80443,6,0,B|210:240|210:240|163:337,1,165.599994946289,2|0,0:3|1:0,0:0:0:0:
157,345,80901,1,0,1:0:0:0:
150,358,80992,1,0,1:0:0:0:
53,381,81175,1,8,3:0:0:0:
4,294,81358,2,0,L|36:204,1,82.7999974731446,4|8,3:0|1:0,0:0:0:0:
109,153,81724,2,0,L|66:33,1,124.199996209717,12|8,1:0|3:0,0:0:0:0:
78,23,82090,6,0,L|135:47,3,37.9500011581421,4|2|2|2,3:2|3:2|3:2|3:2,0:0:0:0:
156,61,82456,2,0,L|192:46,3,37.9500011581421,2|2|2|2,1:2|3:2|3:2|3:2,0:0:0:0:
221,8,82821,1,2,3:2:0:0:
294,73,83004,2,0,P|323:94|362:86,1,75.9000023162842,8|0,3:0|1:0,0:0:0:0:
453,53,83370,6,0,L|400:217,1,151.800004632568,6|8,3:2|3:0,0:0:0:0:
395,206,83828,1,2,0:0:0:0:
385,216,83919,2,0,L|417:299,1,75.9000023162842,2|2,1:2|3:2,0:0:0:0:
508,321,84285,1,2,3:2:0:0:
508,321,84468,1,4,3:0:0:0:
428,379,84651,2,0,L|338:355,1,75.9000023162842,2|2,1:2|1:2,0:0:0:0:
344,348,84925,1,0,1:0:0:0:
336,338,85017,6,0,L|284:360,3,37.9500011581421,2|2|2|2,3:2|3:2|3:2|3:2,0:0:0:0:
265,318,85382,2,0,L|207:297,3,37.9500011581421,6|2|2|2,1:2|3:2|3:2|1:2,0:0:0:0:
193,339,85748,1,2,3:2:0:0:
97,365,85931,2,0,L|23:384,1,75.9000023162842,8|0,3:0|1:0,0:0:0:0:
40,286,86297,6,0,B|27:243|51:205|70:229|97:189|87:152,1,151.800004632568,4|4,3:1|3:0,0:0:0:0:
27,79,86846,1,2,1:2:0:0:
106,27,87029,1,2,3:2:0:0:
112,36,87120,1,2,1:2:0:0:
118,46,87212,1,2,1:2:0:0:
123,55,87303,1,0,1:0:0:0:
131,63,87395,2,2,P|205:90|265:9,1,189.750005790711,4|0,3:1|1:0,0:1:0:0:
270,3,87943,5,4,1:2:0:0:
