osu file format v14

[General]
AudioFilename: audio.mp3
AudioLeadIn: 0
PreviewTime: 58584
Countdown: 0
SampleSet: Soft
StackLeniency: 0.4
Mode: 0
LetterboxInBreaks: 0
WidescreenStoryboard: 1

[Editor]
Bookmarks: 11846,23553,35260,46968,58675
DistanceSpacing: 0.9
BeatDivisor: 4
GridSize: 32
TimelineZoom: 2.7

[Metadata]
Title:first death (TV Size)
TitleUnicode:first death (TV Size)
Artist:TK from Ling tosite sigure
ArtistUnicode:TK from 凛として時雨
Creator:Bazz B
Version:vanya's insane
Source:チェンソーマン
Tags:-mikan mikan bazz_b petal matha -_Matha_- vanya2 Big Sis Vaporfly God Haachama chainsaw man csm anime japanese rock j-rock jrock ed ending 8 eight
BeatmapID:3905667
BeatmapSetID:1894662

[Difficulty]
HPDrainRate:4
CircleSize:4.2
OverallDifficulty:8.4
ApproachRate:9
SliderMultiplier:1.8
SliderTickRate:1

[Events]
//Background and Video events
0,0,"102503233_p0_master1200.jpg",0,0
Video,-90,"dfdsaf.mp4"
//Break Periods
//Storyboard Layer 0 (Background)
//Storyboard Layer 1 (Fail)
//Storyboard Layer 2 (Pass)
//Storyboard Layer 3 (Foreground)
//Storyboard Layer 4 (Overlay)
//Storyboard Sound Samples

[TimingPoints]
139,365.853658536586,4,2,1,65,1,0
5992,-83.3333333333333,4,2,1,65,0,0
11503,-83.3333333333333,4,2,1,25,0,0
11846,-83.3333333333333,4,2,1,75,0,0
16007,-83.3333333333333,4,2,1,75,0,0
16053,-83.3333333333333,4,2,1,75,0,0
17288,-83.3333333333333,4,2,1,75,0,0
17334,-83.3333333333333,4,2,1,75,0,0
17471,-83.3333333333333,4,2,1,5,0,0
17517,-83.3333333333333,4,2,1,75,0,0
21861,-83.3333333333333,4,2,1,75,0,0
21907,-83.3333333333333,4,2,1,75,0,0
23553,-111.111111111111,4,2,1,55,0,0
23690,-111.111111111111,4,2,1,5,0,0
23736,-111.111111111111,4,2,1,55,0,0
25154,-111.111111111111,4,2,1,5,0,0
25199,-111.111111111111,4,2,1,55,0,0
26617,-111.111111111111,4,2,1,5,0,0
26663,-111.111111111111,4,2,1,55,0,0
28081,-111.111111111111,4,2,1,5,0,0
28126,-111.111111111111,4,2,1,55,0,0
35260,-111.111111111111,4,2,1,45,0,0
36632,-111.111111111111,4,2,1,45,0,0
36724,-111.111111111111,4,2,1,45,0,0
38004,-111.111111111111,4,2,1,45,0,0
38187,-111.111111111111,4,2,1,45,0,0
39559,-111.111111111111,4,2,1,45,0,0
39651,-111.111111111111,4,2,1,45,0,0
40931,-111.111111111111,4,2,1,45,0,0
41114,-111.111111111111,4,2,1,45,0,0
45504,-83.3333333333333,4,2,1,65,0,0
46968,-83.3333333333333,4,2,2,75,0,0
48385,-83.3333333333333,4,2,2,75,0,0
48431,-83.3333333333333,4,2,2,75,0,0
49849,-83.3333333333333,4,2,2,75,0,0
49895,-83.3333333333333,4,2,2,75,0,0
54239,-83.3333333333333,4,2,2,75,0,0
54285,-83.3333333333333,4,2,2,75,0,0
57943,-83.3333333333333,4,2,1,75,0,0
58309,-83.3333333333333,4,2,1,80,0,0
58675,-66.6666666666667,4,2,1,90,0,1
61007,-66.6666666666667,4,2,1,90,0,1
61053,-66.6666666666667,4,2,1,90,0,1
63934,-66.6666666666667,4,2,1,90,0,1
63980,-66.6666666666667,4,2,1,90,0,1
64529,-66.6666666666667,4,2,1,80,0,1
65764,-66.6666666666667,4,2,1,5,0,1
65809,-66.6666666666667,4,2,1,80,0,1
68690,-66.6666666666667,4,2,1,5,0,1
68736,-66.6666666666667,4,2,1,80,0,1
69056,-66.6666666666667,4,2,1,80,0,1
69102,-66.6666666666667,4,2,1,80,0,1
70382,-66.6666666666667,4,2,1,90,0,1
72715,-66.6666666666667,4,2,1,90,0,1
72760,-66.6666666666667,4,2,1,90,0,1
76236,-66.6666666666667,4,2,1,80,0,1
82090,-83.3333333333333,4,2,1,75,0,0
87989,-83.3333333333333,4,2,1,75,0,0

[Colours]
Combo1 : 241,220,67
Combo2 : 192,192,192
Combo3 : 64,255,112
Combo4 : 0,128,255
Combo5 : 255,162,68
Combo6 : 255,74,74

[HitObjects]
447,136,139,5,4,3:1:0:0:
329,239,321,1,2,3:2:0:0:
485,228,504,2,0,L|441:216,1,45,2|0,1:2|3:0,0:0:0:0:
357,81,687,1,8,3:0:0:0:
345,89,779,2,0,B|272:100|310:131|241:167,1,135,0|0,0:0|3:0,0:0:0:0:
143,13,1236,2,0,P|186:8|223:33,1,90,0|2,1:0|0:0,0:0:0:0:
63,157,1602,21,0,3:0:0:0:
72,154,1693,1,0,3:0:0:0:
68,148,1785,2,0,L|56:104,1,45,2|0,3:2|3:0,0:0:0:0:
209,270,1968,2,0,L|232:183,2,90,0|8|2,1:2|3:0|0:3,0:0:0:0:
70,384,2517,53,8,3:1:0:0:
282,312,2699,1,8,1:0:0:0:
228,262,2882,1,0,0:0:0:0:
130,294,3065,21,0,3:0:0:0:
243,177,3248,1,2,3:2:0:0:
335,290,3431,2,0,L|291:301,1,45,2|0,1:2|3:0,0:0:0:0:
128,203,3614,1,8,3:0:0:0:
132,213,3706,2,0,P|195:225|244:182,1,135,0|0,0:0|3:0,0:0:0:0:
413,79,4163,54,0,B|385:2|385:2|412:52,1,135,0|0,1:0|0:0,0:0:0:0:
495,0,4529,21,0,3:0:0:0:
504,3,4620,1,0,3:0:0:0:
500,9,4712,2,0,L|488:52,1,45,2|0,3:2|3:0,0:0:0:0:
324,213,4895,53,0,1:0:0:0:
483,137,5078,1,4,3:0:0:0:
324,43,5260,21,0,1:0:0:0:
396,68,5443,1,8,0:1:0:0:
273,101,5626,1,0,0:0:0:0:
273,101,5992,54,0,B|208:111|241:139|179:171,1,107.999996704102,6|8,3:2|3:0,0:0:0:0:
184,176,6267,1,0,3:0:0:0:
179,167,6358,2,0,L|126:152,1,53.9999983520508,2|0,1:2|3:0,0:0:0:0:
284,296,6541,22,0,P|338:241|413:260,1,161.999995056153,8|0,3:0|0:0,0:0:0:0:
424,274,6907,2,0,L|409:327,1,53.9999983520508,0|0,3:2|0:0,0:0:0:0:
288,215,7090,2,0,L|332:370,1,161.999995056153,2|0,1:2|0:0,0:0:0:0:
346,376,7456,53,2,3:2:0:0:
166,238,7639,1,8,3:0:0:0:
318,133,7821,1,2,1:2:0:0:
294,206,8004,2,0,B|274:132|274:132|276:124|276:124|256:49,1,161.999995056153,8|0,3:0|0:0,0:0:0:0:
188,6,8370,21,4,3:0:0:0:
192,14,8462,1,8,3:0:0:0:
183,14,8553,2,0,L|131:28,1,53.9999983520508,2|2,1:2|0:0,0:0:0:0:
89,92,8736,2,0,L|37:106,1,53.9999983520508,2|2,0:0|0:0,0:0:0:0:
166,238,8919,54,0,B|231:248|198:276|260:308,1,107.999996704102,2|8,3:2|3:0,0:0:0:0:
256,309,9193,1,0,3:0:0:0:
260,298,9285,2,0,L|208:312,1,53.9999983520508,2|0,1:2|3:0,0:0:0:0:
272,384,9468,22,0,L|316:229,1,161.999995056153,8|0,3:0|0:0,0:0:0:0:
388,208,9834,2,0,L|425:246,1,53.9999983520508,4|0,3:0|0:0,0:0:0:0:
302,231,10017,2,0,B|317:190|282:158|282:158|248:129|264:85,1,161.999995056153,2|2,1:2|0:0,0:0:0:0:
273,76,10382,53,2,3:2:0:0:
103,148,10565,2,0,L|68:138,3,35.9999989013672,8|0|0|4,3:0|0:0|0:0|1:2,0:0:0:0:
178,1,10931,21,4,3:0:0:0:
169,4,11022,1,8,3:0:0:0:
177,12,11114,2,0,L|197:81,1,53.9999983520508,4|0,1:0|1:0,0:0:0:0:
317,179,11297,2,0,L|297:248,1,53.9999983520508,4|8,1:3|1:3,0:0:0:0:
131,342,11480,54,2,B|117:351|59:332|56:215|208:223|227:321,1,215.999993408203,2|4,1:2|3:2,0:0:0:0:
247,347,11937,1,2,3:2:0:0:
258,355,12029,2,0,P|284:354|308:341,1,53.9999983520508,2|2,3:2|3:2,0:0:0:0:
382,343,12212,2,0,P|395:319|395:292,3,53.9999983520508,2|2|2|2,1:2|3:2|3:2|3:2,0:0:0:0:
339,244,12578,38,0,P|325:220|325:193,1,53.9999983520508,2|4,3:2|3:0,0:0:0:0:
498,192,12760,2,0,B|430:173|430:173|403:201,1,107.999996704102,8|0,3:0|1:0,0:0:0:0:
228,45,13126,2,0,P|251:31|278:31,1,53.9999983520508,6|2,3:2|3:2,0:0:0:0:
269,106,13309,38,0,L|165:75,1,107.999996704102,2|8,3:2|3:0,0:0:0:0:
105,121,13584,1,2,0:0:0:0:
96,130,13675,2,0,L|44:145,1,53.9999983520508,2|2,1:2|0:0,0:0:0:0:
148,188,13858,2,0,L|199:203,1,53.9999983520508,2|2,3:2|1:2,0:0:0:0:
99,299,14041,38,0,L|86:246,1,53.9999983520508,2|0,3:2|0:0,0:0:0:0:
174,276,14224,2,0,B|179:304|210:311|210:311|239:317|244:347,1,107.999996704102,4|2,3:0|1:2,0:0:0:0:
291,343,14499,1,0,1:0:0:0:
317,304,14590,1,2,1:2:0:0:
302,260,14682,1,0,1:0:0:0:
258,244,14773,38,0,L|245:191,1,53.9999983520508,2|2,3:2|3:2,0:0:0:0:
288,125,14956,2,0,L|275:72,1,53.9999983520508,2|2,3:2|3:2,0:0:0:0:
371,217,15139,2,0,L|358:164,3,53.9999983520508,6|2|2|2,1:2|3:2|3:2|1:2,0:0:0:0:
405,101,15504,2,0,L|392:48,1,53.9999983520508,2|4,3:2|3:0,0:0:0:0:
479,197,15687,38,0,P|437:229|385:222,1,107.999996704102,8|0,3:0|1:0,0:0:0:0:
199,349,16053,38,0,B|198:375|198:375|215:346,5,53.9999983520508,4|2|2|2|4|2,3:1|3:2|3:2|3:2|3:0|3:2,0:0:0:0:
209,271,16602,1,2,1:2:0:0:
171,244,16693,1,2,3:2:0:0:
127,244,16784,1,2,3:2:0:0:
92,272,16876,1,2,1:2:0:0:
79,314,16967,1,10,3:0:0:0:
223,273,17151,38,2,B|244:215|199:175|199:175|152:132|173:80|230:61|264:97|263:160|211:176,1,323.999990112305,2|2,3:2|3:2,0:1:0:0:
164,118,17791,1,2,3:2:0:0:
152,110,17883,2,0,P|126:111|102:124,1,53.9999983520508,2|2,3:2|3:2,0:0:0:0:
47,178,18065,2,0,L|60:231,3,53.9999983520508,6|2|2|2,1:2|3:2|3:2|3:2,0:0:0:0:
130,273,18431,38,0,L|143:326,1,53.9999983520508,2|4,3:2|3:0,0:0:0:0:
21,294,18614,2,0,L|125:263,1,107.999996704102,8|0,3:0|1:0,0:0:0:0:
270,357,18980,2,0,L|217:370,1,53.9999983520508,4|2,3:2|3:2,0:0:0:0:
320,264,19163,38,0,P|361:296|413:289,1,107.999996704102,2|8,3:2|3:0,0:0:0:0:
486,288,19437,1,2,0:0:0:0:
498,286,19529,2,0,P|510:262|512:235,1,53.9999983520508,2|2,1:2|0:0,0:0:0:0:
485,166,19712,2,0,P|461:153|434:151,1,53.9999983520508,2|2,3:2|1:2,0:0:0:0:
288,112,19895,2,0,P|288:138|300:162,1,53.9999983520508,2|0,3:2|0:0,0:0:0:0:
402,82,20078,2,0,P|379:95|364:118,1,53.9999983520508,4|0,3:0|0:0,0:0:0:0:
235,196,20260,37,2,1:2:0:0:
199,226,20351,1,0,1:0:0:0:
152,217,20442,1,2,1:2:0:0:
130,176,20534,1,0,1:0:0:0:
147,133,20626,38,0,P|170:120|197:118,1,53.9999983520508,2|2,3:2|3:2,0:0:0:0:
125,278,20809,2,0,P|125:251|137:227,1,53.9999983520508,2|2,3:2|3:2,0:0:0:0:
239,369,20992,2,0,P|216:355|201:332,3,53.9999983520508,6|2|2|2,1:2|3:2|3:2|1:2,0:0:0:0:
388,323,21358,38,0,P|399:298|399:272,1,53.9999983520508,2|4,3:2|3:0,0:0:0:0:
284,245,21541,2,0,L|315:349,1,107.999996704102,8|0,3:0|1:0,0:0:0:0:
479,153,21907,38,0,B|505:152|505:152|476:169,5,53.9999983520508,4|2|2|2|4|2,3:1|3:2|3:2|3:2|3:0|3:2,0:0:0:0:
403,170,22456,1,4,3:0:0:0:
355,167,22547,1,8,3:0:0:0:
324,132,22638,1,2,1:2:0:0:
329,84,22730,1,8,3:0:0:0:
366,55,22821,1,2,3:2:0:0:
377,49,22913,1,8,3:0:0:0:
378,60,23004,38,0,B|270:81|327:93|226:113,1,161.999995056153,4|0,1:2|3:0,0:0:0:0:
159,81,23370,2,0,B|142:59|142:59|167:28,1,53.9999983520508,8|8,3:0|3:0,0:0:0:0:
0,197,23553,70,0,P|60:182|103:249,1,121.499996292114,4|0,3:2|0:0,0:0:0:0:
109,227,23919,1,2,1:2:0:0:
181,251,24102,1,0,3:0:0:0:
77,348,24285,2,0,P|28:359|-14:375,1,80.9999975280763,2|2,0:0|3:2,0:0:0:0:
10,285,24651,1,0,1:0:0:0:
202,384,24834,6,0,P|232:350|223:298,1,80.9999975280763,2|0,0:0|3:0,0:0:0:0:
100,126,25199,1,0,0:0:0:0:
107,124,25291,1,0,0:0:0:0:
105,133,25382,2,0,P|111:172|114:213,1,80.9999975280763,2|0,1:2|3:0,0:0:0:0:
301,281,25748,69,2,1:2:0:0:
311,273,25840,2,0,P|314:232|320:192,1,80.9999975280763,0|8,1:0|3:0,0:0:0:0:
385,153,26114,1,0,1:0:0:0:
394,150,26206,1,0,1:0:0:0:
385,143,26297,2,0,P|383:122|380:102,1,40.4999987640381,2|0,1:2|1:0,0:0:0:0:
322,44,26480,6,0,P|265:27|222:66,1,121.499996292114,2|4,3:2|0:3,0:0:0:0:
215,76,26846,1,2,1:2:0:0:
237,153,27029,1,2,3:2:0:0:
143,244,27212,2,0,P|94:255|52:271,1,80.9999975280763,2|2,0:0|3:2,0:0:0:0:
247,384,27578,2,0,P|236:335|220:293,1,80.9999975280763,2|2,1:2|0:0,0:0:0:0:
306,245,27943,70,0,B|387:229|344:220|420:205,1,121.499996292114,0|8,3:0|0:3,0:0:0:0:
480,247,28309,2,0,P|489:285|472:320,1,80.9999975280763,2|0,1:2|3:0,0:0:0:0:
317,163,28675,5,2,1:2:0:0:
307,154,28767,2,0,P|297:115|314:80,1,80.9999975280763,0|4,1:0|0:3,0:0:0:0:
379,48,29041,1,0,1:0:0:0:
382,39,29133,1,0,1:0:0:0:
389,48,29224,2,0,P|410:50|430:53,1,40.4999987640381,2|0,1:2|1:0,0:0:0:0:
294,163,29407,70,0,P|253:166|213:172,1,80.9999975280763,2|8,3:1|3:0,0:0:0:0:
149,139,29681,1,2,3:1:0:0:
139,144,29773,2,0,P|118:146|98:148,1,40.4999987640381,0|0,1:0|0:0,0:0:0:0:
14,208,29956,2,0,P|70:191|113:230,1,121.499996292114,4|0,3:0|0:0,0:0:0:0:
114,245,30321,1,2,3:2:0:0:
20,350,30504,2,0,P|48:322|87:319,1,80.9999975280763,0|2,1:0|0:0,0:0:0:0:
255,384,30870,6,0,B|239:303|230:346|215:270,1,121.499996292114,2|2,3:1|3:1,0:0:0:0:
275,221,31236,2,0,P|303:249|342:251,1,80.9999975280763,2|4,1:2|3:0,0:0:0:0:
480,115,31602,69,2,1:2:0:0:
469,110,31693,2,0,P|429:112|401:140,1,80.9999975280763,0|0,1:0|0:0,0:0:0:0:
327,123,31968,1,0,1:0:0:0:
318,126,32060,1,0,1:0:0:0:
327,133,32151,2,0,P|329:154|332:174,1,40.4999987640381,2|0,1:2|1:0,0:0:0:0:
485,221,32334,6,0,P|451:244|420:269,1,80.9999975280763,2|2,3:1|0:0,0:0:0:0:
367,326,32608,1,2,3:1:0:0:
375,334,32699,2,0,P|377:355|380:375,1,40.4999987640381,2|0,1:2|0:0,0:0:0:0:
301,285,32882,2,0,P|245:268|202:307,1,121.499996292114,4|0,3:0|0:0,0:0:0:0:
188,317,33248,1,2,3:2:0:0:
40,233,33431,2,0,P|37:191|31:152,1,80.9999975280763,0|2,1:0|0:0,0:0:0:0:
257,88,33797,70,0,P|251:128|248:168,1,80.9999975280763,2|0,3:1|0:0,0:0:0:0:
178,202,34071,1,2,3:1:0:0:
170,193,34163,2,0,P|172:172|174:152,1,40.4999987640381,2|0,1:2|0:0,0:0:0:0:
306,268,34346,1,8,3:0:0:0:
437,158,34529,5,0,1:0:0:0:
444,154,34620,2,0,P|438:113|435:73,1,80.9999975280763,0|0,1:0|3:0,0:0:0:0:
363,16,34895,1,0,1:0:0:0:
372,19,34987,1,0,1:0:0:0:
363,26,35078,2,0,P|361:47|358:67,1,40.4999987640381,8|4,3:0|3:0,0:0:0:0:
296,113,35260,5,4,3:1:0:0:
91,343,36724,69,4,3:2:0:0:
34,62,38187,5,4,3:2:0:0:
432,296,39651,69,4,3:2:0:0:
85,214,41114,5,4,3:1:0:0:
127,151,41480,1,0,3:0:0:0:
199,171,41846,1,0,3:0:0:0:
202,246,42212,1,0,3:0:0:0:
340,48,42578,69,4,3:2:0:0:
382,111,42944,1,0,3:0:0:0:
454,91,43310,1,0,3:0:0:0:
457,16,43676,1,0,3:0:0:0:
474,236,44041,5,4,3:2:0:0:
411,278,44407,1,0,3:0:0:0:
431,350,44773,1,0,3:0:0:0:
506,353,45139,1,0,3:0:0:0:
305,305,45504,70,0,B|282:312|282:312|197:237,1,107.999996704102,2|8,1:2|3:0,0:0:0:0:
156,377,45779,5,4,3:0:0:0:
148,380,45870,2,0,B|130:363|130:363|152:252,1,107.999996704102,2|0,1:2|3:0,0:0:0:0:
11,286,46145,69,8,3:0:0:0:
4,281,46236,2,0,B|9:257|9:257|116:221,1,107.999996704102,2|0,1:2|3:0,0:0:0:0:
16,115,46511,5,4,3:0:0:0:
17,106,46602,2,0,B|40:99|40:99|124:174,1,107.999996704102,2|0,1:2|0:0,0:0:0:0:
294,120,46968,70,0,P|326:78|319:26,1,107.999996704102,4|0,1:2|0:0,0:0:0:0:
308,18,47242,1,8,1:0:0:0:
305,30,47334,2,0,L|356:45,1,53.9999983520508
404,101,47517,1,0,0:0:0:0:
300,201,47699,2,0,L|197:231,1,107.999996704102,2|2,0:1|0:0,0:0:0:0:
216,307,47974,2,0,L|318:276,1,107.999996704102
375,223,48248,1,2,0:0:0:0:
220,98,48431,54,0,P|167:104|125:73,1,107.999996704102,6|0,1:0|0:0,0:0:0:0:
127,61,48706,1,8,1:0:0:0:
116,69,48797,2,0,L|100:120,1,53.9999983520508
145,180,48980,1,12,1:0:0:0:
51,296,49163,21,2,0:1:0:0:
46,305,49254,2,0,B|20:318|-31:296|-2:200|97:216|125:272|125:272|147:319|238:325|203:212|130:277,1,377.999988464356,0|6,0:0|1:0,0:0:0:0:
365,384,50169,53,12,1:0:0:0:
377,378,50260,2,0,P|389:354|391:327,1,53.9999983520508
350,267,50443,1,14,1:0:0:0:
512,173,50626,2,0,P|459:179|417:148,1,107.999996704102,2|2,0:1|0:1,0:0:0:0:
285,24,50992,2,0,P|232:17|190:48,1,107.999996704102,2|2,0:0|0:0,0:0:0:0:
397,46,51358,22,0,B|369:51|362:82|362:82|356:111|326:116,1,107.999996704102,6|0,1:0|1:0,0:0:0:0:
322,127,51632,1,0,0:0:0:0:
313,118,51724,2,0,L|262:102,1,53.9999983520508,8|0,3:0|0:0,0:0:0:0:
52,36,51907,2,0,L|103:51,1,53.9999983520508,2|0,1:0|0:0,0:0:0:0:
171,222,52090,54,0,B|143:297|143:297|125:314|125:314|101:384|101:384|121:278|121:278|121:178,1,377.999988464356,8|0,0:1|0:0,0:0:0:0:
171,307,52821,22,0,L|274:337,1,107.999996704102,6|0,1:0|3:0,0:0:0:0:
283,346,53096,1,8,3:0:0:0:
289,333,53187,2,0,L|304:282,1,53.9999983520508,4|0,3:0|0:0,0:0:0:0:
271,216,53370,1,0,0:0:0:0:
447,109,53553,54,0,P|479:151|472:203,1,107.999996704102,12|2,0:1|0:1,0:0:0:0:
330,68,53919,2,0,P|350:19|398:0,1,107.999996704102,2|0,0:1|0:0,0:0:0:0:
155,86,54285,22,0,P|196:118|248:111,1,107.999996704102,6|8,1:0|3:0,0:0:0:0:
261,112,54559,1,4,3:0:0:0:
254,100,54651,2,0,L|239:49,1,53.9999983520508,0|0,3:0|0:0,0:0:0:0:
183,155,54834,1,2,1:0:0:0:
339,283,55017,54,0,B|442:299|344:102|510:310|654:200|397:-22|259:203|366:284,1,431.999986816407,14|6,0:1|1:0,0:0:0:0:
512,373,56023,21,2,1:0:0:0:
502,374,56114,2,0,L|451:359,1,53.9999983520508,10|0,1:0|0:0,0:0:0:0:
407,302,56297,1,2,1:0:0:0:
199,377,56480,2,0,P|167:335|174:282,1,107.999996704102,10|2,0:1|3:1,0:0:0:0:
330,144,56846,1,8,3:0:0:0:
130,37,57029,1,0,0:0:0:0:
176,120,57212,53,6,1:0:0:0:
379,32,57395,1,8,3:0:0:0:
387,36,57486,1,4,3:0:0:0:
386,26,57578,1,2,3:1:0:0:
512,207,57760,1,2,1:0:0:0:
326,293,57943,2,0,L|275:278,1,53.9999983520508,0|0,1:0|1:0,0:0:0:0:
93,367,58126,21,0,1:0:0:0:
101,373,58218,1,0,1:0:0:0:
102,362,58309,1,0,1:0:0:0:
132,318,58400,1,8,1:3:0:0:
121,267,58491,1,0,1:0:0:0:
75,240,58583,1,4,1:3:0:0:
14,274,58675,6,0,B|64:292|105:248|105:248|142:206|196:226,1,202.500007724762,10|0,3:2|3:0,0:0:0:0:
326,293,59041,2,0,P|351:371|272:347,1,202.500007724762,10|0,1:2|3:0,0:0:0:0:
209,308,59407,2,0,L|192:241,1,67.5000025749208,10|0,3:2|1:0,0:0:0:0:
317,126,59590,2,0,L|300:59,1,67.5000025749208,8|0,3:0|3:0,0:0:0:0:
150,1,59773,2,0,P|88:24|65:85,1,135.000005149842,10|8,1:2|3:0,0:0:0:0:
119,143,60047,69,0,3:0:0:0:
128,153,60139,2,0,B|190:169|190:169|194:173|194:173|257:190,1,135.000005149842,10|0,3:2|3:0,0:0:0:0:
508,84,60504,1,10,1:2:0:0:
392,230,60687,1,8,3:0:0:0:
287,60,60870,1,4,3:0:0:0:
461,179,61053,2,0,B|484:202|484:202|475:235,1,67.5000025749208,8|0,1:1|0:0,0:0:0:0:
311,334,61236,2,0,B|291:280|333:243|333:243|377:202|359:152,1,202.500007724762,12|0,1:0|3:0,0:0:0:0:
269,177,61602,6,0,B|278:229|337:242|337:242|391:253|401:310,1,202.500007724762,10|0,3:2|3:0,0:0:0:0:
436,216,61968,2,0,L|239:265,1,202.500007724762,10|0,1:2|1:0,0:0:0:0:
120,366,62334,2,0,P|90:350|75:320,1,67.5000025749208,10|0,3:2|1:0,0:0:0:0:
1,294,62517,2,0,P|0:260|17:233,1,67.5000025749208,8|0,3:0|3:0,0:0:0:0:
197,151,62699,1,10,1:2:0:0:
89,0,62882,70,0,B|105:62|105:62|109:66|109:66|126:128,1,135.000005149842,4|10,3:0|3:2,0:0:0:0:
69,184,63156,1,0,1:0:0:0:
65,173,63248,2,0,L|-2:156,1,67.5000025749208,8|0,3:0|3:0,0:0:0:0:
177,21,63431,2,0,L|308:53,1,135.000005149842,8|2,1:2|3:2,0:0:0:0:
361,105,63706,1,0,3:0:0:0:
372,109,63797,1,4,3:0:0:0:
286,306,63980,1,8,3:1:0:0:
509,228,64163,5,8,1:0:0:0:
477,194,64254,1,0,3:0:0:0:
431,189,64346,1,4,3:0:0:0:
394,216,64437,1,4,3:0:0:0:
383,261,64529,70,0,B|355:287|355:287|166:237|166:237|140:262,3,270.000010299683,4|2|4|2,3:1|1:0|3:0|1:0,0:0:0:0:
271,228,65809,1,2,0:3:0:0:
85,334,65992,2,0,B|-6:309|-6:309|-37:249|17:216,1,202.500007724762,8|0,3:0|0:0,0:0:0:0:
34,221,66358,2,0,P|50:283|7:332,1,135.000005149842,2|2,1:0|0:3,0:0:0:0:
241,383,66724,2,0,B|259:333|215:292|215:292|173:255|193:201,1,202.500007724762,4|0,3:0|0:0,0:0:0:0:
251,151,67090,1,2,1:0:0:0:
16,67,67273,37,4,3:0:0:0:
21,76,67364,1,8,3:0:0:0:
10,75,67456,2,0,B|136:40|136:40|138:35|138:35|267:0,3,270.000010299683,4|2|4|2,3:1|1:0|3:0|1:0,0:0:0:0:
396,120,68736,1,2,0:3:0:0:
269,216,68919,38,0,P|253:153|299:108,1,135.000005149842,8|0,3:0|1:0,0:0:0:0:
310,98,69193,1,0,1:0:0:0:
316,112,69285,2,0,L|383:129,1,67.5000025749208,0|8,1:0|3:0,0:0:0:0:
428,237,69468,2,0,L|361:254,1,67.5000025749208,8|6,3:0|3:0,0:0:0:0:
308,305,69651,1,0,1:0:0:0:
132,201,69834,1,8,3:0:0:0:
142,197,69925,1,8,3:0:0:0:
132,189,70017,2,0,L|115:122,1,67.5000025749208,4|0,3:0|1:0,0:0:0:0:
40,260,70199,5,8,3:3:0:0:
30,256,70290,1,4,3:0:0:0:
40,248,70382,2,0,L|91:47,1,202.500007724762,10|0,3:2|3:0,0:0:0:0:
216,197,70748,2,0,L|165:-4,1,202.500007724762,10|0,1:2|1:0,0:0:0:0:
86,0,71114,2,0,B|63:23|63:23|72:56,1,67.5000025749208,10|8,3:2|3:0,0:0:0:0:
274,125,71297,2,0,B|283:92|283:92|260:69,1,67.5000025749208,4|0,3:0|3:0,0:0:0:0:
93,147,71480,69,10,1:2:0:0:
181,15,71663,1,4,3:0:0:0:
229,205,71846,6,0,B|291:221|291:221|295:225|295:225|358:242,1,135.000005149842,10|8,3:2|3:0,0:0:0:0:
154,384,72212,2,0,P|111:333|122:268,1,135.000005149842,10|4,1:2|3:0,0:0:0:0:
310,343,72578,1,10,3:2:0:0:
201,127,72760,2,0,L|217:192,1,67.5000025749208,8|0,1:1|0:0,0:0:0:0:
90,333,72943,2,0,P|29:277|109:259,1,202.500007724762,12|0,1:0|3:0,0:0:0:0:
321,351,73309,70,0,P|381:294|300:277,1,202.500007724762,10|0,3:2|3:0,0:0:0:0:
238,384,73675,2,0,B|256:334|212:293|212:293|170:256|190:202,1,202.500007724762,10|0,1:2|1:0,0:0:0:0:
262,170,74041,2,0,L|327:186,1,67.5000025749208,10|4,3:2|3:0,0:0:0:0:
151,55,74224,2,0,L|85:71,1,67.5000025749208,8|0,3:0|3:0,0:0:0:0:
203,0,74407,1,10,1:2:0:0:
13,99,74590,6,0,L|143:132,1,135.000005149842,2|8,3:2|3:2,0:0:0:0:
211,102,74864,1,0,1:0:0:0:
224,99,74956,2,0,L|289:82,1,67.5000025749208,4|0,3:0|3:0,0:0:0:0:
153,256,75139,2,0,B|106:209|106:209|40:227,1,135.000005149842,10|6,1:2|3:0,0:0:0:0:
0,288,75413,1,0,3:0:0:0:
5,299,75504,1,10,3:2:0:0:
130,384,75687,1,0,1:0:0:0:
285,236,75870,69,4,3:0:0:0:
336,224,75961,1,4,3:0:0:0:
380,253,76052,1,8,3:0:0:0:
389,304,76144,1,0,1:0:0:0:
359,347,76236,22,0,L|228:312,1,135.000005149842,4|2,3:1|0:3,0:0:0:0:
395,152,76602,1,2,1:0:0:0:
245,46,76785,1,2,0:3:0:0:
348,0,76968,2,0,B|360:33|330:60|330:60|302:85|315:121,1,135.000005149842,4|2,3:0|0:3,0:0:0:0:
251,164,77334,1,2,1:0:0:0:
128,4,77517,54,0,B|66:20|66:20|62:24|62:24|0:41,1,135.000005149842,2|0,3:3|0:0,0:0:0:0:
151,152,77882,1,2,3:3:0:0:
60,299,78065,1,2,1:0:0:0:
135,328,78248,1,2,0:3:0:0:
77,190,78431,21,4,3:0:0:0:
73,180,78522,1,0,1:0:0:0:
65,190,78614,2,0,L|-2:207,1,67.5000025749208,8|0,1:1|1:0,0:0:0:0:
215,265,78797,2,0,L|345:298,1,135.000005149842,8|0,3:1|0:0,0:0:0:0:
358,307,79071,1,0,1:0:0:0:
364,296,79163,54,0,B|346:246|390:205|390:205|432:168|412:114,1,202.500007724762,4|0,3:1|0:0,0:0:0:0:
337,105,79529,2,0,P|360:166|422:188,1,135.000005149842,2|2,1:0|0:3,0:0:0:0:
248,92,79895,1,4,3:0:0:0:
376,10,80078,1,2,0:3:0:0:
273,187,80260,1,2,1:0:0:0:
116,0,80443,22,0,B|131:62|131:62|135:66|135:66|152:128,1,135.000005149842,2|0,0:3|0:0,0:0:0:0:
38,290,80809,1,0,1:0:0:0:
49,286,80901,1,0,1:0:0:0:
40,278,80992,2,0,B|31:247|31:247|29:245|29:245|21:214,1,67.5000025749208,0|0,1:0|0:0,0:0:0:0:
216,332,81175,2,0,B|224:301|224:301|226:299|226:299|234:268,1,67.5000025749208,8|0,3:0|1:0,0:0:0:0:
88,377,81358,53,4,3:0:0:0:
225,254,81541,1,8,1:0:0:0:
410,370,81724,21,12,1:0:0:0:
461,380,81815,1,4,3:0:0:0:
504,350,81906,1,4,3:0:0:0:
512,299,81998,1,8,3:0:0:0:
480,257,82090,54,0,L|427:244,1,53.9999983520508,4|2,3:2|3:2,0:0:0:0:
393,177,82273,2,0,L|340:164,1,53.9999983520508,2|2,3:2|3:2,0:0:0:0:
455,130,82456,2,0,L|508:143,3,53.9999983520508,2|2|2|2,1:2|3:2|3:2|3:2,0:0:0:0:
366,44,82821,38,0,L|419:57,1,53.9999983520508,2|4,3:2|3:0,0:0:0:0:
324,154,83004,2,0,B|259:164|292:192|230:224,1,107.999996704102,8|0,3:0|1:0,0:0:0:0:
81,67,83370,2,0,L|96:14,1,53.9999983520508,6|2,3:2|3:2,0:0:0:0:
20,111,83553,38,0,P|72:104|114:135,1,107.999996704102,2|8,3:2|3:0,0:0:0:0:
160,193,83828,1,2,0:0:0:0:
151,203,83919,2,0,L|135:255,1,53.9999983520508,2|2,1:2|0:0,0:0:0:0:
44,293,84102,2,0,L|28:240,1,53.9999983520508,2|2,3:2|1:2,0:0:0:0:
191,325,84285,38,0,L|206:272,1,53.9999983520508,2|0,3:2|0:0,0:0:0:0:
317,201,84468,2,0,L|347:304,1,107.999996704102,4|2,3:0|1:2,0:0:0:0:
387,328,84743,1,0,1:0:0:0:
431,311,84834,1,2,1:2:0:0:
444,266,84926,1,0,1:0:0:0:
417,227,85017,38,0,P|403:204|402:177,1,53.9999983520508,2|2,3:2|3:2,0:0:0:0:
329,133,85199,2,0,P|328:159|314:182,1,53.9999983520508,2|2,3:2|3:2,0:0:0:0:
434,107,85382,2,0,P|460:121|473:145,3,53.9999983520508,6|2|2|2,1:2|3:2|3:2|1:2,0:0:0:0:
436,31,85748,38,0,P|409:31|386:45,1,53.9999983520508,2|4,3:2|3:0,0:0:0:0:
319,123,85931,2,0,L|214:97,1,107.999996704102,8|0,3:0|1:0,0:0:0:0:
26,289,86297,38,0,B|0:290|0:290|29:273,5,53.9999983520508,4|2|2|2|4|2,3:1|3:2|3:2|3:2|3:0|3:2,0:0:0:0:
93,255,86846,1,2,1:2:0:0:
113,212,86937,1,2,3:2:0:0:
95,168,87028,1,2,3:2:0:0:
50,152,87120,1,2,1:2:0:0:
9,174,87212,1,2,1:2:0:0:
99,266,87395,6,2,B|246:176|139:344|341:242|214:422|365:341,1,323.999990112305,4|4,3:1|3:2,0:1:0:0:
