osu file format v14

[General]
AudioFilename: audio.mp3
AudioLeadIn: 0
PreviewTime: 58584
Countdown: 0
SampleSet: Soft
StackLeniency: 0.7
Mode: 0
LetterboxInBreaks: 0
WidescreenStoryboard: 0

[Editor]
Bookmarks: 11846,23553,35260,46968,58675
DistanceSpacing: 0.4
BeatDivisor: 4
GridSize: 32
TimelineZoom: 2.7

[Metadata]
Title:first death (TV Size)
TitleUnicode:first death (TV Size)
Artist:TK from Ling tosite sigure
ArtistUnicode:TK from 凛として時雨
Creator:Bazz B
Version:suicide
Source:チェンソーマン
Tags:-mikan mikan bazz_b petal matha -_Matha_- vanya2 Big Sis Vaporfly God Haachama chainsaw man csm anime japanese rock j-rock jrock ed ending 8 eight
BeatmapID:3904548
BeatmapSetID:1894662

[Difficulty]
HPDrainRate:4.4
CircleSize:4
OverallDifficulty:9.4
ApproachRate:9.6
SliderMultiplier:2.7
SliderTickRate:1

[Events]
//Background and Video events
0,0,"102503233_p0_master1200.jpg",0,0
Video,-90,"dfdsaf.mp4"
//Break Periods
//Storyboard Layer 0 (Background)
//Storyboard Layer 1 (Fail)
//Storyboard Layer 2 (Pass)
//Storyboard Layer 3 (Foreground)
//Storyboard Layer 4 (Overlay)
//Storyboard Sound Samples

[TimingPoints]
139,365.853658536586,4,2,1,65,1,0
139,-100,4,2,1,65,0,0
504,-125,4,2,1,65,0,0
1236,-100,4,2,1,65,0,0
2151,-125,4,2,1,65,0,0
2517,-100,4,2,1,65,0,0
2699,-76.9230769230769,4,2,1,65,0,0
3614,-125,4,2,1,65,0,0
5078,-111.111111111111,4,2,1,65,0,0
5443,-133.333333333333,4,2,1,65,0,0
5992,-125,4,2,1,65,0,0
6907,-100,4,2,1,65,0,0
7090,-250,4,2,1,65,0,0
7456,-125,4,2,1,65,0,0
8370,-128.205128205128,4,2,1,65,0,0
8919,-125,4,2,1,65,0,0
9285,-111.111111111111,4,2,1,65,0,0
9834,-166.666666666666,4,2,1,65,0,0
10382,-76.9230769230769,4,2,1,65,0,0
10748,-100,4,2,1,65,0,0
11480,-142.857142857143,4,2,1,65,0,0
11503,-142.857142857143,4,2,1,25,0,0
11846,-142.857142857143,4,2,1,75,0,0
12578,-111.111111111111,4,2,1,75,0,0
13126,-125,4,2,1,75,0,0
14041,-100,4,2,1,75,0,0
15870,-181.818181818182,4,2,1,75,0,0
16007,-181.818181818182,4,2,1,5,0,0
16053,-181.818181818182,4,2,1,75,0,0
16419,-133.333333333333,4,2,1,75,0,0
16968,-181.818181818181,4,2,1,75,0,0
17151,-66.6666666666667,4,2,1,75,0,0
17288,-66.6666666666667,4,2,1,5,0,0
17334,-66.6666666666667,4,2,1,75,0,0
17425,-133.333333333333,4,2,1,75,0,0
18431,-111.111111111111,4,2,1,75,0,0
18980,-100,4,2,1,75,0,0
19895,-125,4,2,1,75,0,0
21358,-100,4,2,1,75,0,0
21724,-200,4,2,1,75,0,0
21861,-200,4,2,1,5,0,0
21907,-200,4,2,1,75,0,0
22273,-125,4,2,1,75,0,0
22456,-100,4,2,1,75,0,0
23004,-76.9230769230769,4,2,1,75,0,0
23553,-333.333333333333,4,2,1,55,0,0
24285,-111.111111111111,4,2,1,55,0,0
24742,-166.666666666667,4,2,1,55,0,0
25017,-333.333333333333,4,2,1,55,0,0
25474,-222.222222222222,4,2,1,55,0,0
25748,-111.111111111111,4,2,1,55,0,0
26480,-249.999999999999,4,2,1,55,0,0
26846,-166.666666666666,4,2,1,55,0,0
27212,-100,4,2,1,55,0,0
27578,-58.8235294117647,4,2,1,55,0,0
27943,-133.333333333333,4,2,1,55,0,0
28309,-55.5555555555556,4,2,1,55,0,0
28767,-100,4,2,1,55,0,0
29407,-83.3333333333333,4,2,1,55,0,0
30139,-100,4,2,1,55,0,0
30870,-83.3333333333333,4,2,1,55,0,0
31693,-125,4,2,1,55,0,0
32334,-83.3333333333333,4,2,1,55,0,0
33065,-166.666666666667,4,2,1,55,0,0
33431,-100,4,2,1,55,0,0
33797,-71.4285714285714,4,2,1,55,0,0
34163,-133.333333333333,4,2,1,55,0,0
34620,-76.9230769230769,4,2,1,55,0,0
35260,-200,4,2,1,45,0,0
36632,-200,4,2,1,5,0,0
36724,-666.666666666667,4,2,1,45,0,0
38004,-666.666666666667,4,2,1,5,0,0
38187,-200,4,2,1,45,0,0
39559,-200,4,2,1,5,0,0
39651,-666.666666666667,4,2,1,45,0,0
40931,-666.666666666667,4,2,1,5,0,0
41114,-333.333333333333,4,2,1,45,0,0
42578,-250,4,2,1,45,0,0
44041,-200,4,2,1,45,0,0
45504,-76.9230769230769,4,2,1,65,0,0
46236,-125,4,2,1,65,0,0
46968,-50,4,2,2,75,0,0
47517,-166.666666666666,4,2,2,75,0,0
48065,-111.111111111111,4,2,2,75,0,0
48248,-153.846153846153,4,2,2,75,0,0
48385,-153.846153846153,4,2,2,5,0,0
48431,-50,4,2,2,75,0,0
48980,-125,4,2,2,75,0,0
49529,-333.333333333333,4,2,2,75,0,0
49849,-333.333333333333,4,2,2,5,0,0
49895,-50,4,2,2,75,0,0
50443,-100,4,2,2,75,0,0
50992,-200,4,2,2,75,0,0
51358,-50,4,2,2,75,0,0
51724,-125,4,2,2,75,0,0
52090,-100,4,2,2,75,0,0
52821,-50,4,2,2,75,0,0
53187,-100,4,2,2,75,0,0
53919,-200,4,2,2,75,0,0
54102,-166.666666666667,4,2,2,75,0,0
54239,-166.666666666667,4,2,2,5,0,0
54285,-50,4,2,2,75,0,0
54651,-100,4,2,2,75,0,0
55199,-250,4,2,2,75,0,0
56114,-100,4,2,2,75,0,0
56480,-55.5555555555556,4,2,2,75,0,0
56846,-66.6666666666667,4,2,2,75,0,0
57486,-100,4,2,2,75,0,0
57760,-76.9230769230769,4,2,2,75,0,0
57943,-76.9230769230769,4,2,1,75,0,0
58309,-76.9230769230769,4,2,1,80,0,0
58675,-66.6666666666667,4,2,1,90,0,1
59041,-100,4,2,1,90,0,1
59773,-66.6666666666667,4,2,1,90,0,1
60230,-100,4,2,1,90,0,1
60870,-76.9230769230769,4,2,1,90,0,1
61007,-76.9230769230769,4,2,1,5,0,1
61053,-76.9230769230769,4,2,1,90,0,1
61236,-50,4,2,1,90,0,1
61602,-66.6666666666667,4,2,1,90,0,1
61968,-100,4,2,1,90,0,1
62882,-76.9230769230769,4,2,1,90,0,1
63065,-100,4,2,1,90,0,1
63431,-142.857142857143,4,2,1,90,0,1
63797,-66.6666666666667,4,2,1,90,0,1
63934,-66.6666666666667,4,2,1,5,0,1
63980,-100,4,2,1,90,0,1
64529,-100,4,2,1,80,0,1
64895,-125,4,2,1,80,0,1
65626,-100,4,2,1,80,0,1
66541,-125,4,2,1,80,0,1
67273,-100,4,2,1,80,0,1
67821,-125,4,2,1,80,0,1
68553,-100,4,2,1,80,0,1
68919,-200,4,2,1,80,0,1
69056,-200,4,2,1,5,0,1
69102,-200,4,2,1,80,0,1
70017,-100,4,2,1,80,0,1
70382,-45.4545454545455,4,2,1,90,0,1
70748,-100,4,2,1,90,0,1
71480,-125,4,2,1,90,0,1
71846,-66.6666666666667,4,2,1,90,0,1
72578,-58.8235294117647,4,2,1,90,0,1
72715,-58.8235294117647,4,2,1,5,0,1
72760,-100,4,2,1,90,0,1
72943,-50,4,2,1,90,0,1
73309,-58.8235294117647,4,2,1,90,0,1
73675,-100,4,2,1,90,0,1
74864,-125,4,2,1,90,0,1
75504,-200,4,2,1,90,0,1
76236,-100,4,2,1,80,0,1
76602,-125,4,2,1,80,0,1
76968,-100,4,2,1,80,0,1
77517,-66.6666666666667,4,2,1,80,0,1
77699,-125,4,2,1,80,0,1
78614,-100,4,2,1,80,0,1
78797,-58.8235294117647,4,2,1,80,0,1
79163,-66.6666666666667,4,2,1,80,0,1
79529,-125,4,2,1,80,0,1
80443,-66.6666666666667,4,2,1,80,0,1
80992,-100,4,2,1,80,0,1
81724,-50,4,2,1,80,0,1
82090,-66.6666666666667,4,2,1,75,0,0
82821,-100,4,2,1,75,0,0
83370,-125,4,2,1,75,0,0
83736,-100,4,2,1,75,0,0
84285,-125,4,2,1,75,0,0
84651,-100,4,2,1,75,0,0
85748,-125,4,2,1,75,0,0
86114,-166.666666666667,4,2,1,75,0,0
86663,-125,4,2,1,75,0,0
87395,-40,4,2,1,75,0,0
87943,-66.6666666666667,4,2,1,75,0,0
87989,-66.6666666666667,4,2,1,5,0,0

[Colours]
Combo1 : 241,220,67
Combo2 : 192,192,192
Combo3 : 64,255,112
Combo4 : 0,128,255
Combo5 : 255,162,68
Combo6 : 255,74,74

[HitObjects]
0,129,139,6,0,P|46:121|74:110,1,67.5,4|0,3:1|3:0,0:0:0:0:
320,147,321,2,0,P|271:158|243:171,1,67.5,2|0,3:2|3:0,0:0:0:0:
118,306,504,21,2,1:2:0:0:
112,312,596,1,0,3:0:0:0:
125,375,687,2,0,P|128:351|138:317,1,54,8|0,3:0|0:0,0:0:0:0:
160,217,870,53,2,0:0:0:0:
166,211,962,1,0,0:0:0:0:
153,148,1053,2,0,P|150:172|140:206,1,54,0|0,3:0|0:0,0:0:0:0:
459,324,1236,22,0,L|489:317,9,22.5,0|0|0|0|0|0|2|0|0|0,1:0|0:0|0:0|0:0|0:0|0:0|0:0|0:0|0:0|0:0,0:0:0:0:
415,257,1602,53,0,3:0:0:0:
384,243,1693,1,0,3:0:0:0:
350,242,1785,1,2,3:2:0:0:
320,257,1876,1,0,3:0:0:0:
290,334,1968,21,0,1:2:0:0:
241,241,2059,1,0,3:0:0:0:
290,334,2151,54,0,P|266:338|234:349,1,54,8|0,3:0|0:0,0:0:0:0:
1,287,2334,1,2,0:3:0:0:
13,282,2425,1,0,0:0:0:0:
46,382,2517,22,0,P|76:348|64:309,1,67.5,8|0,3:1|3:0,0:0:0:0:
19,39,2699,2,0,B|38:13|100:26|100:26|75:8|8:27|-19:120|32:148,1,263.249987949372,8|0,1:0|0:0,0:0:0:0:
86,187,3065,53,0,3:0:0:0:
114,157,3157,1,0,3:0:0:0:
153,148,3248,1,2,3:2:0:0:
192,158,3340,1,0,3:0:0:0:
241,241,3431,21,2,1:2:0:0:
291,160,3523,1,0,3:0:0:0:
241,241,3614,54,0,P|273:250|295:259,1,54,8|0,3:0|0:0,0:0:0:0:
488,109,3797,21,2,0:0:0:0:
497,105,3889,1,0,0:0:0:0:
491,40,3980,2,0,L|480:99,1,54,0|0,3:0|0:0,0:0:0:0:
377,228,4163,54,0,L|383:202,6,27,0|0|0|0|2|0|0,1:0|0:0|0:0|0:0|0:0|0:0|0:0,0:0:0:0:
291,160,4529,21,0,3:0:0:0:
258,140,4620,1,0,3:0:0:0:
254,102,4712,1,2,3:2:0:0:
277,72,4803,1,0,3:0:0:0:
355,45,4895,53,0,1:0:0:0:
243,0,4986,1,0,3:0:0:0:
355,45,5078,22,0,P|392:45|419:34,1,60.7499981460572,4|0,3:0|0:0,0:0:0:0:
147,148,5260,2,0,P|122:135|88:132,1,60.7499981460572,0|0,1:0|0:0,0:0:0:0:
34,71,5443,54,0,L|42:43,1,25.3125009655953,8|0,0:1|0:0,0:0:0:0:
40,46,5992,22,0,P|22:58|18:103,1,54,6|0,3:2|3:0,0:0:0:0:
118,90,6175,2,0,P|112:115|90:131,1,54,8|0,3:0|3:0,0:0:0:0:
243,342,6358,54,0,P|221:325|215:300,1,54,2|0,1:2|3:0,0:0:0:0:
318,299,6541,2,0,P|313:273|291:257,1,54,8|0,3:0|3:0,0:0:0:0:
82,250,6724,21,2,0:3:0:0:
67,246,6815,1,0,0:0:0:0:
13,282,6907,2,0,P|48:271|78:264,1,67.5,0|0,3:2|0:0,0:0:0:0:
413,36,7090,54,0,L|325:61,1,81,2|0,1:2|0:0,0:0:0:0:
261,32,7456,22,0,P|269:10|276:-39,1,54,2|0,3:2|3:0,0:0:0:0:
401,125,7639,2,0,P|390:155|385:189,1,54,8|0,3:0|3:0,0:0:0:0:
291,257,7821,54,0,P|282:222|267:191,1,54,2|0,1:2|3:0,0:0:0:0:
491,43,8004,2,0,P|500:78|515:109,1,54,8|0,3:0|3:0,0:0:0:0:
413,36,8187,21,2,0:3:0:0:
420,21,8279,1,0,0:0:0:0:
390,1,8370,53,4,3:0:0:0:
329,52,8462,1,8,3:0:0:0:
349,127,8553,1,2,1:2:0:0:
426,147,8645,1,2,0:0:0:0:
491,189,8736,1,2,0:0:0:0:
486,268,8828,1,2,0:0:0:0:
411,316,8919,22,0,P|378:306|335:300,1,54,2|0,3:2|3:0,0:0:0:0:
226,198,9102,2,0,P|259:208|302:214,1,54,8|0,3:0|3:0,0:0:0:0:
491,189,9285,54,0,P|458:199|415:205,1,60.7499981460572,2|0,1:2|3:0,0:0:0:0:
156,347,9468,2,0,P|189:337|232:331,1,60.7499981460572,8|0,3:0|3:0,0:0:0:0:
258,268,9651,1,2,0:3:0:0:
247,258,9742,1,0,0:0:0:0:
278,211,9834,22,0,L|268:262,1,40.4999987640381,4|0,3:0|0:0,0:0:0:0:
289,383,10017,2,0,L|296:352,6,20.2499993820191,2|2|2|2|2|2|2,1:2|0:0|0:0|0:0|0:0|0:0|0:0,0:0:0:0:
274,205,10382,54,0,B|216:183|178:237|178:237|167:284|115:281,1,175.499991966248,2|8,3:2|3:0,0:0:0:0:
110,272,10626,21,8,3:0:0:0:
114,255,10687,53,4,3:0:0:0:
118,242,10748,21,4,1:2:0:0:
100,164,10840,1,8,3:0:0:0:
149,106,10931,1,4,3:0:0:0:
104,40,11023,1,8,3:0:0:0:
179,0,11114,53,4,1:0:0:0:
32,103,11206,1,0,1:0:0:0:
187,89,11297,21,4,1:3:0:0:
23,14,11389,1,8,1:3:0:0:
104,40,11480,54,2,L|105:51,12,11.8124996395111,2|2|2|2|2|2|2|2|2|2|2|2|2,1:2|0:0|0:0|0:0|0:0|0:0|0:0|0:0|0:0|0:0|0:0|0:0|0:0,0:0:0:0:
21,177,11846,37,4,3:2:0:0:
1,197,11937,1,2,3:2:0:0:
0,225,12029,1,2,3:2:0:0:
18,246,12120,1,2,3:2:0:0:
101,247,12212,37,2,1:2:0:0:
174,221,12303,1,2,3:2:0:0:
246,256,12395,1,2,3:2:0:0:
265,334,12486,1,2,3:2:0:0:
196,384,12578,38,0,P|191:354|181:326,1,60.7499981460572,2|4,3:2|3:0,0:0:0:0:
177,0,12760,2,0,P|182:28|194:59,1,60.7499981460572,8|0,3:0|3:0,0:0:0:0:
432,170,12943,37,0,1:0:0:0:
442,180,13035,1,0,3:0:0:0:
375,218,13126,38,0,P|405:203|440:204,1,54,6|2,3:2|3:2,0:0:0:0:
512,108,13309,2,0,P|478:107|453:89,1,54,2|2,3:2|0:0,0:0:0:0:
394,44,13492,38,2,L|406:6,2,27,8|2|2,3:0|0:0|0:0,0:0:0:0:
502,248,13675,2,0,P|486:291|481:313,1,54,2|2,1:2|0:0,0:0:0:0:
412,343,13858,37,2,3:2:0:0:
498,381,13949,1,2,1:2:0:0:
412,343,14041,38,0,L|332:366,1,67.5,2|0,3:2|0:0,0:0:0:0:
69,271,14224,2,0,L|153:252,1,67.5,4|0,3:0|0:0,0:0:0:0:
375,218,14407,37,2,1:2:0:0:
286,234,14498,37,0,1:0:0:0:
222,171,14590,37,2,1:2:0:0:
238,85,14681,37,0,1:0:0:0:
344,0,14773,37,2,3:2:0:0:
351,26,14864,1,2,3:2:0:0:
342,52,14956,1,2,3:2:0:0:
323,69,15047,1,2,3:2:0:0:
238,85,15139,37,6,1:2:0:0:
168,49,15230,1,2,3:2:0:0:
110,100,15321,1,2,3:2:0:0:
38,74,15413,1,2,1:2:0:0:
0,133,15504,38,0,P|48:115|76:110,1,67.5,2|4,3:2|3:0,0:0:0:0:
494,0,15687,2,0,P|446:18|418:23,1,67.5,8|0,3:0|3:0,0:0:0:0:
286,234,15870,38,0,P|280:264|297:300,1,55.6875016994477,0|0,1:0|0:0,0:0:0:0:
305,295,16053,37,4,3:1:0:0:
320,269,16114,37,2,3:2:0:0:
311,240,16175,37,2,3:2:0:0:
286,234,16236,37,2,3:2:0:0:
258,216,16297,37,2,3:2:0:0:
255,186,16358,37,2,3:2:0:0:
274,163,16419,38,0,L|258:113,2,33.7500012874604,4|2|2,3:0|3:2|3:2,0:0:0:0:
329,35,16602,38,0,L|323:69,2,33.7500012874604,2|2|2,1:2|3:2|3:2,0:0:0:0:
396,134,16785,37,2,3:2:0:0:
470,106,16876,1,2,1:2:0:0:
512,138,16968,38,0,L|471:124,1,37.1250011329651,10|0,3:0|0:0,0:0:0:0:
51,88,17151,38,2,B|138:95|109:25|214:41,1,151.875005793572,2|0,3:2|0:0,0:1:0:0:
190,39,17334,1,0,1:0:0:0:
263,130,17425,38,0,B|237:138|227:165|227:165|229:133|201:106,1,101.250003862381,0|0,1:0|1:3,0:0:0:0:
125,0,17699,37,2,3:2:0:0:
103,21,17791,1,2,3:2:0:0:
95,49,17882,1,2,3:2:0:0:
107,77,17974,1,2,3:2:0:0:
45,137,18065,37,6,1:2:0:0:
122,157,18157,1,2,3:2:0:0:
164,225,18248,1,2,3:2:0:0:
147,299,18340,1,2,3:2:0:0:
69,367,18431,38,0,P|40:358|-4:352,1,60.7499981460572,2|4,3:2|3:0,0:0:0:0:
305,295,18614,2,0,P|334:304|378:310,1,60.7499981460572,8|0,3:0|3:0,0:0:0:0:
449,375,18797,37,0,1:0:0:0:
437,367,18889,1,0,3:0:0:0:
490,303,18980,38,0,P|461:335|465:371,1,67.5,4|2,3:2|3:2,0:0:0:0:
241,227,19163,2,0,P|270:195|266:159,1,67.5,2|2,3:2|3:2,0:0:0:0:
318,110,19346,38,0,P|312:91|308:69,2,33.75,8|2|2,3:0|0:0|0:0,0:0:0:0:
305,295,19529,2,0,P|312:319|315:353,2,33.75,2|2|2,1:2|0:0|0:0,0:0:0:0:
412,125,19712,37,2,3:2:0:0:
424,116,19803,1,2,1:2:0:0:
474,170,19895,38,0,P|434:153|404:150,1,54,2|0,3:2|0:0,0:0:0:0:
461,48,20078,2,0,P|501:65|531:68,1,54,4|0,3:0|0:0,0:0:0:0:
318,110,20260,37,2,1:2:0:0:
232,150,20352,37,0,1:0:0:0:
142,119,20443,37,2,1:2:0:0:
111,31,20535,37,0,1:0:0:0:
187,0,20626,37,2,3:2:0:0:
207,25,20718,1,2,3:2:0:0:
199,56,20809,1,2,3:2:0:0:
173,76,20901,1,2,3:2:0:0:
60,116,20992,37,6,1:2:0:0:
5,170,21084,1,2,3:2:0:0:
16,246,21175,1,2,3:2:0:0:
87,280,21267,1,2,1:2:0:0:
92,372,21358,38,0,P|137:351|165:347,1,67.5,2|4,3:2|3:0,0:0:0:0:
372,245,21541,2,0,L|299:225,1,67.5,8|0,3:0|3:0,0:0:0:0:
444,313,21724,38,0,L|505:303,1,50.625,0|0,1:0|0:0,0:0:0:0:
511,289,21907,37,4,3:1:0:0:
481,274,21968,37,2,3:2:0:0:
451,286,22029,37,2,3:2:0:0:
444,313,22090,37,2,3:2:0:0:
427,345,22151,37,2,3:2:0:0:
395,362,22212,37,2,3:2:0:0:
361,349,22273,38,0,L|371:387,2,36,4|2|2,3:0|3:2|3:2,0:0:0:0:
294,289,22456,38,0,B|287:280|287:280|314:212,1,67.5,4|8,3:0|3:0,0:0:0:0:
207,25,22639,37,2,1:2:0:0:
248,122,22730,1,8,3:0:0:0:
306,38,22821,37,2,3:2:0:0:
302,53,22913,1,8,3:0:0:0:
159,110,23004,38,0,B|117:97|117:97|158:130,1,87.749995983124,4|4,1:2|3:0,0:0:0:0:
387,192,23187,38,0,B|429:179|429:179|388:212,1,87.749995983124,0|0,3:0|3:0,0:0:0:0:
167,383,23370,37,8,3:0:0:0:
213,283,23462,1,8,3:0:0:0:
167,383,23553,38,0,P|200:373|229:371,1,60.7499981460572,4|0,3:2|0:0,0:0:0:0:
213,283,23919,70,0,P|180:293|151:295,1,60.7499981460572,2|0,1:2|0:0,0:0:0:0:
167,383,24285,6,0,P|200:373|229:371,1,60.7499981460572,2|0,0:0|0:0,0:0:0:0:
213,283,24468,2,0,P|180:293|151:295,1,60.7499981460572,2|0,3:2|0:0,0:0:0:0:
68,335,24651,69,0,1:0:0:0:
66,345,24742,2,0,L|56:389,2,40.4999987640381,0|2|0,0:0|0:0|0:0,0:0:0:0:
316,96,25017,6,0,P|316:61|296:26,1,60.7499981460572,0|8,3:0|3:0,0:0:0:0:
222,56,25382,69,2,1:2:0:0:
222,56,25474,2,0,P|222:91|241:125,1,60.7499981460572,0|0,3:0|0:0,0:0:0:0:
316,96,25748,5,2,1:2:0:0:
316,96,25840,2,0,P|316:61|296:26,2,60.7499981460572,0|2|8,1:0|3:2|3:0,0:0:0:0:
512,218,26114,69,0,1:0:0:0:
491,173,26206,1,0,1:0:0:0:
444,153,26297,1,2,1:2:0:0:
394,167,26389,1,0,1:0:0:0:
345,226,26480,6,0,L|358:267,1,27,2|0,3:2|0:0,0:0:0:0:
370,315,26663,2,0,L|379:274,1,27,2|4,0:0|0:3,0:0:0:0:
273,282,26846,70,0,L|232:292,1,40.4999987640381,2|0,1:2|0:0,0:0:0:0:
443,364,27029,2,0,L|484:374,1,40.4999987640381,2|0,3:2|0:0,0:0:0:0:
394,167,27212,6,0,B|382:109|382:109|390:93|390:93|367:5,1,135,2|2,0:0|3:2,0:0:0:0:
379,29,27486,1,0,0:0:0:0:
485,56,27578,70,0,B|465:90|465:90|305:116|305:116|279:166,1,229.500004377365,2|2,1:2|0:0,0:0:0:0:
292,141,27852,1,0,0:0:0:0:
220,80,27943,6,0,P|195:75|172:68,1,50.6250019311906,0|0,3:0|0:0,0:0:0:0:
79,146,28126,1,2,0:0:0:0:
79,146,28218,1,8,0:3:0:0:
131,213,28309,70,0,B|168:160|135:9|76:-25|4:87|184:187,1,364.499988876343,2|0,1:2|0:0,0:0:0:0:
414,269,28675,5,2,1:2:0:0:
487,301,28767,2,0,P|422:309|385:368,1,135,0|4,1:0|0:3,0:0:0:0:
385,363,29041,69,0,1:0:0:0:
428,329,29132,1,0,1:0:0:0:
414,269,29224,1,2,1:2:0:0:
341,227,29315,1,0,1:0:0:0:
332,139,29407,6,0,P|397:145|495:180,1,161.999995056153,2|8,3:1|3:0,0:0:0:0:
356,35,29681,1,2,3:1:0:0:
356,35,29773,2,0,P|438:63|523:73,1,161.999995056153,0|4,1:0|3:0,0:0:0:0:
172,69,30047,69,0,0:0:0:0:
172,69,30139,2,0,P|143:74|104:86,1,67.5,2|0,0:3|0:0,0:0:0:0:
45,134,30321,6,0,P|24:97|32:63,1,67.5,2|0,3:2|0:0,0:0:0:0:
227,16,30504,1,0,1:0:0:0:
235,22,30596,2,0,P|256:59|248:93,1,67.5,0|2,0:0|0:0,0:0:0:0:
49,283,30779,69,0,0:0:0:0:
84,354,30870,2,0,P|94:261|137:196,1,161.999995056153,2|0,3:1|0:0,0:0:0:0:
176,384,31145,1,2,3:1:0:0:
176,384,31236,2,0,P|215:314|221:233,1,161.999995056153,2|4,1:2|3:0,0:0:0:0:
94,79,31510,5,0,0:3:0:0:
179,138,31602,69,2,1:2:0:0:
185,132,31694,1,0,1:0:0:0:
172,69,31785,2,0,P|169:93|159:127,1,54,8|0,3:0|0:0,0:0:0:0:
221,233,31968,5,0,1:0:0:0:
262,259,32059,1,0,1:0:0:0:
336,236,32151,1,2,1:2:0:0:
394,179,32242,1,0,1:0:0:0:
475,202,32334,70,0,P|443:294|430:381,1,161.999995056153,2|2,3:1|0:0,0:0:0:0:
296,148,32608,1,2,3:1:0:0:
300,152,32699,2,0,P|284:231|256:307,1,161.999995056153,2|4,1:2|3:0,0:0:0:0:
430,77,32974,5,0,0:0:0:0:
430,77,33065,2,0,L|415:24,1,40.4999987640381,2|0,0:3|0:0,0:0:0:0:
495,22,33248,2,0,L|506:60,1,40.4999987640381,2|0,3:2|0:0,0:0:0:0:
362,135,33431,70,0,P|301:138|214:159,1,135,0|2,1:0|0:0,0:0:0:0:
80,0,33706,5,0,0:0:0:0:
0,26,33797,2,0,B|51:5|85:56|85:56|116:113|191:77,1,188.999994232178,2|0,3:1|0:0,0:0:0:0:
160,88,34071,1,2,3:1:0:0:
245,70,34163,70,0,P|233:39|232:5,1,50.6250019311906,2|0,1:2|0:0,0:0:0:0:
66,109,34346,2,0,P|78:140|79:174,1,50.6250019311906,8|0,3:0|0:0,0:0:0:0:
253,309,34529,5,0,1:0:0:0:
190,372,34620,2,0,B|280:368|250:292|356:300,1,175.499991966248,0|0,1:0|3:0,0:0:0:0:
402,373,34895,69,0,1:0:0:0:
438,270,34986,1,0,1:0:0:0:
502,350,35078,5,8,3:0:0:0:
496,335,35169,1,4,3:0:0:0:
342,299,35260,6,0,B|227:233|296:23|406:1|488:58|493:160|370:193,1,506.25,4|0,3:1|0:0,0:0:0:0:
274,118,36724,70,0,P|237:87|278:113,1,141.749995674133,4|0,3:2|0:0,0:0:0:0:
0,26,38187,6,0,B|76:52|149:144|136:331|20:307|-50:247|1:128|112:103,1,506.25,4|0,3:2|0:0,0:0:0:0:
200,50,39651,70,0,P|236:19|195:45,1,141.749995674133,4|0,3:2|0:0,0:0:0:0:
430,328,41114,6,0,P|424:351|421:380,1,40.4999987640381,4|0,3:1|0:0,0:0:0:0:
506,340,41480,2,0,P|502:360|497:379,1,40.4999987640381,0|0,3:0|0:0,0:0:0:0:
325,256,41846,70,0,P|331:279|334:308,1,40.4999987640381,0|0,3:0|0:0,0:0:0:0:
249,268,42212,2,0,P|252:288|257:307,1,40.4999987640381,0|0,3:0|0:0,0:0:0:0:
480,47,42578,6,0,P|439:59|414:61,1,54,4|0,3:2|0:0,0:0:0:0:
452,148,42943,2,0,P|493:136|518:134,1,54,0|0,3:0|0:0,0:0:0:0:
165,121,43309,70,0,P|124:109|99:107,1,54,0|0,3:0|0:0,0:0:0:0:
137,20,43674,2,0,P|178:32|203:34,1,54,0|0,3:0|0:0,0:0:0:0:
333,190,44041,6,0,P|336:232|320:260,1,67.5,4|0,3:2|0:0,0:0:0:0:
491,278,44407,2,0,P|485:245|499:215,1,67.5,0|0,3:0|0:0,0:0:0:0:
18,180,44773,70,0,P|38:207|46:240,1,67.5,0|0,3:0|0:0,0:0:0:0:
192,180,45139,2,0,P|172:152|164:120,1,67.5,0|0,3:0|0:0,0:0:0:0:
167,114,45413,1,0,0:0:0:0:
135,32,45504,6,0,B|116:13|116:13|61:7|25:100|95:128,1,175.499991966248,2|8,1:2|3:0,0:0:0:0:
278,228,45779,1,4,3:0:0:0:
226,302,45870,70,0,B|224:270|202:259|202:259|268:127,1,175.499991966248,2|0,1:2|3:0,0:0:0:0:
427,60,46145,1,8,3:0:0:0:
376,4,46236,6,0,B|371:13|371:13|388:62,1,54,2|0,1:2|0:0,0:0:0:0:
363,136,46419,1,0,3:0:0:0:
422,192,46510,1,4,3:0:0:0:
376,258,46602,70,0,L|343:250,6,27,2|0|0|0|0|0|0,1:2|0:0|0:0|0:0|0:0|0:0|0:0,0:0:0:0:
449,384,46968,54,0,B|498:343|490:213|397:193|296:297|527:341|573:292,1,270,4|0,1:2|0:0,0:0:0:0:
491,307,47242,22,0,B|407:320|295:363|295:363|276:332|235:321,1,270,8|0,1:0|0:0,0:0:0:0:
181,273,47517,54,0,P|144:290|111:291,1,40.4999987640381,4|0,1:0|1:0,0:0:0:0:
19,381,47699,2,0,P|44:367|77:370,1,40.4999987640381,2|2,0:1|0:1,0:0:0:0:
132,380,47882,21,2,0:0:0:0:
0,38,48065,2,0,P|-13:19|3:35,1,60.7499981460572,0|0,3:0|0:0,0:0:0:0:
79,119,48248,54,0,P|61:150|61:198,1,65.812496987343,2|0,0:0|0:0,0:0:0:0:
57,179,48431,22,0,B|14:105|53:45|151:-4|210:121|150:147|141:143,1,270,6|0,1:0|0:0,0:0:0:0:
1,248,48706,54,0,P|101:182|260:167,1,270,8|0,1:0|0:0,0:0:0:0:
374,103,48980,22,0,P|395:70|384:40,1,54,12|0,1:0|0:0,0:0:0:0:
312,0,49163,1,2,0:1:0:0:
316,15,49254,1,2,0:1:0:0:
327,19,49346,1,2,0:1:0:0:
499,215,49529,54,2,P|460:202|432:184,1,70.8749978370667,0|0,0:0|0:0,0:1:0:0:
429,189,49895,22,0,B|340:138|301:238|323:322|434:286|456:235|408:183,1,270,6|0,1:0|0:0,0:0:0:0:
304,124,50169,54,0,B|333:134|333:134|374:241|387:336|387:336|432:354,1,270,12|0,1:0|0:0,0:0:0:0:
499,375,50443,22,0,P|518:364|499:371,1,67.5,14|0,1:0|0:0,0:0:0:0:
181,323,50626,53,2,0:1:0:0:
139,328,50718,1,2,0:1:0:0:
112,364,50809,1,2,0:1:0:0:
50,321,50992,22,0,P|71:334|106:337,1,33.75,2|0,0:0|0:0,0:0:0:0:
257,375,51175,2,0,P|233:379|214:392,1,33.75,2|0,0:0|0:0,0:0:0:0:
149,141,51358,54,0,B|71:62|183:-61|288:63|192:134|143:113,1,270,6|0,1:0|1:0,0:0:0:0:
90,76,51632,21,4,1:3:0:0:
90,76,51724,2,0,P|56:84|29:104,1,54,8|0,3:0|0:0,0:0:0:0:
230,14,51907,2,0,L|282:35,1,54,2|0,1:0|0:0,0:0:0:0:
402,172,52090,54,0,P|426:153|427:136,1,33.75,8|0,0:1|0:0,0:0:0:0:
438,150,52181,2,0,P|442:124|434:106,1,33.75,8|0,0:1|0:0,0:0:0:0:
388,60,52273,22,0,L|395:35,6,16.875,2|2|2|2|2|2|2,0:1|0:1|0:1|0:1|0:1|0:1|0:1,0:0:0:0:
388,60,52821,54,0,B|420:266|420:266|459:269|480:302,1,270,6|0,1:0|3:0,0:0:0:0:
412,345,53096,1,8,3:0:0:0:
491,376,53187,22,0,P|498:357|494:334,1,33.75,4|0,3:0|0:0,0:0:0:0:
512,317,53279,2,0,P|499:301|477:293,1,33.75,0|0,3:0|0:0,0:0:0:0:
337,294,53370,2,0,P|321:334|349:376,1,67.5,2|0,1:0|0:0,0:0:0:0:
433,220,53553,53,12,0:1:0:0:
433,213,53599,1,8,0:1:0:0:
433,206,53645,1,8,0:1:0:0:
367,149,53736,22,0,L|376:177,6,16.875,2|2|2|2|2|2|2,0:1|0:1|0:1|0:1|0:1|0:1|0:1,0:0:0:0:
376,144,53919,54,0,L|364:99,1,33.75,2|0,0:1|0:0,0:0:0:0:
488,0,54102,22,0,P|471:25|468:59,1,60.7499981460572,2|0,0:1|0:0,0:0:0:0:
467,54,54285,54,0,B|422:0|324:43|384:93|344:143|292:176|227:93,1,270,6|8,1:0|3:0,0:0:0:0:
174,66,54559,21,4,3:0:0:0:
230,14,54651,2,0,B|258:-2|258:-2|232:45,1,67.5,0|0,3:0|0:0,0:0:0:0:
84,73,54834,54,0,B|56:56|56:56|109:55,1,67.5,2|2,1:0|3:1,0:0:0:0:
174,66,55017,2,0,L|163:125,1,33.75,14|0,0:1|0:0,0:0:0:0:
175,116,55108,2,0,L|167:157,1,33.75,8|0,0:1|0:0,0:0:0:0:
129,227,55199,22,2,P|103:211|135:225,1,135,2|0,0:1|0:0,0:1:0:0:
239,310,55748,53,6,1:0:0:0:
248,302,55809,21,8,3:0:0:0:
260,300,55870,53,8,3:0:0:0:
271,303,55931,21,4,3:0:0:0:
327,355,56023,1,2,1:0:0:0:
394,312,56114,54,0,L|381:280,1,33.75,10|0,1:0|0:0,0:0:0:0:
388,310,56206,2,0,L|401:279,1,33.75,4|0,3:0|0:0,0:0:0:0:
447,367,56297,22,0,B|481:361|481:361|484:357|484:357|530:348,1,67.5,2|0,1:0|0:0,0:0:0:0:
228,220,56480,54,0,B|201:198|201:198|39:262|39:262|11:239,2,242.999992584229,10|2|8,0:1|3:1|3:0,0:0:0:0:
348,166,56937,21,2,0:1:0:0:
370,137,57029,1,2,3:1:0:0:
358,102,57120,1,2,0:1:0:0:
284,41,57212,54,0,B|283:28|252:19|252:19|294:57|285:83,1,101.250003862381,6|0,1:0|0:0,0:0:0:0:
401,279,57395,21,8,3:0:0:0:
510,195,57486,2,0,P|477:211|428:211,2,67.5,4|2|2,3:0|3:1|0:1,0:0:0:0:
239,310,57760,54,0,P|277:306|317:352,1,87.749995983124,2|0,1:0|3:0,0:0:0:0:
405,377,57943,22,0,L|450:350,1,43.874997991562,0|0,1:0|3:0,0:0:0:0:
447,367,58035,2,0,L|394:367,1,43.874997991562,0|0,1:0|3:0,0:0:0:0:
401,279,58126,53,0,1:0:0:0:
401,279,58218,1,0,1:0:0:0:
446,213,58309,21,0,1:0:0:0:
370,137,58401,1,8,1:3:0:0:
334,215,58492,53,0,1:0:0:0:
441,85,58584,1,4,1:3:0:0:
371,28,58675,22,0,B|280:18|298:60|255:119|178:112,1,202.500007724762,10|0,3:2|0:0,0:0:0:0:
62,29,58949,5,0,3:0:0:0:
1,80,59041,2,0,P|43:60|67:57,1,67.5,10|0,1:2|3:0,0:0:0:0:
161,39,59224,69,0,3:0:0:0:
170,22,59315,1,0,3:0:0:0:
147,9,59407,5,10,3:2:0:0:
197,112,59498,1,0,1:0:0:0:
136,167,59590,1,8,3:0:0:0:
163,238,59681,1,0,3:0:0:0:
67,349,59773,70,0,P|122:284|241:291,1,202.500007724762,10|8,1:2|3:0,0:0:0:0:
232,285,60047,1,0,3:0:0:0:
401,279,60139,5,10,3:2:0:0:
322,382,60230,2,0,B|315:370|315:370|339:299,1,67.5,0|0,1:0|3:0,0:0:0:0:
371,28,60413,69,0,3:0:0:0:
371,28,60504,2,0,B|364:40|364:40|388:111,1,67.5,10|0,1:2|3:0,0:0:0:0:
446,147,60687,2,0,P|480:135|532:134,1,67.5,8|0,3:0|3:0,0:0:0:0:
161,39,60870,6,0,B|120:72|73:78|73:78|32:47,1,131.624993974686,4|0,3:0|0:0,0:0:0:0:
45,57,61053,2,0,P|63:16|65:-11,2,43.874997991562,8|0|0,1:1|3:0|3:0,0:0:0:0:
224,150,61236,70,0,B|246:91|263:118|329:141|290:44|317:0|261:-27|155:-25|56:170|229:133|250:164|247:216,1,405,12|0,1:0|3:0,0:0:0:0:
326,271,61602,6,0,B|438:256|399:365|572:331,1,202.500007724762,10|8,3:2|3:0,0:0:0:0:
246,201,61876,69,0,3:0:0:0:
195,262,61968,2,0,P|161:265|128:282,1,67.5,10|0,1:2|3:0,0:0:0:0:
36,211,62151,5,8,3:0:0:0:
58,223,62242,1,0,1:0:0:0:
43,255,62334,69,10,3:2:0:0:
118,225,62425,1,0,1:0:0:0:
195,262,62517,1,8,3:0:0:0:
222,342,62608,1,0,3:0:0:0:
129,384,62699,6,0,L|144:349,1,33.75,10|0,1:2|0:0,0:0:0:0:
134,351,62791,2,0,L|136:390,1,33.75,8|0,3:0|0:0,0:0:0:0:
222,342,62882,70,0,B|270:333|270:333|222:361,1,87.749995983124,4|0,3:0|3:0,0:0:0:0:
36,211,63065,6,0,B|27:183|27:183|27:176|27:176|16:142,1,67.5,10|0,3:2|1:0,0:0:0:0:
104,11,63248,1,8,3:0:0:0:
118,41,63340,1,0,3:0:0:0:
46,80,63431,70,0,P|22:72|-16:74,1,47.2499985580445,8|0,1:2|3:0,0:0:0:0:
204,4,63614,2,0,P|227:11|266:9,1,47.2499985580445,2|0,3:2|3:0,0:0:0:0:
316,84,63797,6,0,B|299:134|269:176|269:176|303:201|304:232,1,151.875005793572,4|0,3:0|0:0,0:0:0:0:
300,213,63980,2,0,L|289:172,2,33.75,8|0|0,3:1|3:0|1:0,0:0:0:0:
382,262,64163,69,8,1:0:0:0:
291,303,64254,1,0,3:0:0:0:
390,382,64346,6,0,L|400:337,1,33.75,4|0,3:0|3:0,0:0:0:0:
364,286,64437,2,0,L|374:331,1,33.75,4|0,3:0|3:0,0:0:0:0:
466,302,64529,70,0,P|504:285|536:292,1,67.5,4|0,3:1|0:0,0:0:0:0:
154,148,64712,1,2,3:0:0:0:
161,140,64803,1,0,0:0:0:0:
224,150,64895,38,0,L|162:168,1,54,2|2,1:0|0:1,0:0:0:0:
48,235,65078,1,2,0:3:0:0:
55,243,65169,1,2,0:1:0:0:
118,233,65261,38,0,L|56:215,1,54,4|0,3:0|0:0,0:0:0:0:
314,72,65443,2,0,L|376:90,1,54,2|0,3:3|0:0,0:0:0:0:
476,153,65626,38,0,P|421:168|401:177,1,67.5,2|0,1:0|0:0,0:0:0:0:
114,41,65809,2,0,P|169:26|189:17,1,67.5,2|0,0:3|0:0,0:0:0:0:
300,213,65992,37,8,3:0:0:0:
321,247,66084,1,0,0:0:0:0:
309,285,66175,1,2,0:3:0:0:
273,305,66267,1,0,0:0:0:0:
206,262,66358,38,0,L|219:218,2,33.75,2|0|0,1:0|0:0|0:0,0:0:0:0:
164,345,66541,38,0,P|132:350|97:370,1,54,2|0,0:3|0:0,0:0:0:0:
480,165,66724,1,4,3:0:0:0:
474,159,66816,1,0,0:0:0:0:
411,172,66907,38,0,P|435:175|469:185,1,54,2|0,3:3|0:0,0:0:0:0:
256,27,67090,1,2,1:0:0:0:
290,109,67181,1,0,1:0:0:0:
286,9,67273,38,0,L|269:54,1,33.75,4|0,3:0|3:0,0:0:0:0:
267,125,67364,2,0,L|283:77,1,33.75,8|0,3:0|3:0,0:0:0:0:
172,58,67456,38,0,B|146:77|146:77|182:77,1,67.5,4|0,3:1|0:0,0:0:0:0:
379,51,67639,37,2,0:3:0:0:
385,45,67731,1,0,0:0:0:0:
448,58,67822,2,0,P|424:61|390:71,1,54,2|2,1:0|0:1,0:0:0:0:
316,232,68005,37,2,0:3:0:0:
310,238,68097,1,2,0:1:0:0:
247,225,68188,2,0,P|275:221|307:212,1,54,4|0,3:0|0:0,0:0:0:0:
473,373,68370,37,2,0:3:0:0:
460,376,68462,1,0,0:0:0:0:
452,367,68553,2,0,P|462:313|472:285,1,67.5,2|0,1:0|0:0,0:0:0:0:
395,68,68736,2,0,L|382:115,2,33.75,2|0|0,0:3|0:0|0:0,0:0:0:0:
463,198,68919,38,0,L|523:186,1,50.625,8|0,3:0|0:0,0:0:0:0:
512,188,69102,37,0,1:0:0:0:
461,135,69193,37,0,1:0:0:0:
380,152,69285,37,0,1:0:0:0:
345,228,69376,37,8,3:0:0:0:
274,273,69468,37,8,3:0:0:0:
198,243,69559,37,6,3:0:0:0:
129,162,69651,37,0,1:0:0:0:
147,153,69742,1,4,3:0:0:0:
144,170,69834,1,8,3:0:0:0:
130,150,69925,1,8,3:0:0:0:
72,235,70017,38,0,L|83:270,1,33.75,4|0,3:0|3:0,0:0:0:0:
82,237,70108,2,0,L|72:270,1,33.75,0|0,1:0|3:0,0:0:0:0:
151,307,70199,37,8,3:3:0:0:
28,372,70291,1,4,3:0:0:0:
0,281,70382,6,0,P|179:334|281:388,1,297.000009063721,10|0,3:2|3:0,0:0:0:0:
465,301,70657,69,0,3:0:0:0:
468,379,70748,2,0,P|439:345|451:315,1,67.5,10|0,1:2|3:0,0:0:0:0:
499,175,70931,1,8,3:0:0:0:
512,196,71023,1,0,1:0:0:0:
481,220,71114,5,10,3:2:0:0:
414,185,71206,1,8,3:0:0:0:
324,193,71297,1,4,3:0:0:0:
274,273,71389,1,0,3:0:0:0:
297,347,71480,70,0,P|327:349|365:366,1,54,10|0,1:2|3:0,0:0:0:0:
512,90,71663,2,0,P|482:92|444:109,1,54,4|0,3:0|3:0,0:0:0:0:
363,38,71846,6,0,B|347:5|291:2|291:2|391:-12|436:82|423:122,1,202.500007724762,10|8,3:2|3:0,0:0:0:0:
397,39,72120,1,0,3:0:0:0:
414,185,72212,70,0,P|437:71|494:-11,1,202.500007724762,10|4,1:2|3:0,0:0:0:0:
483,0,72486,1,0,3:0:0:0:
288,131,72578,6,0,P|248:162|329:175,1,172.125003283024,10|0,3:2|0:0,0:0:0:0:
323,192,72760,2,0,L|333:233,2,33.75,8|0|0,1:1|3:0|3:0,0:0:0:0:
99,64,72943,70,0,B|120:97|146:-190|333:52|184:290|-4:241|105:56|131:5|-3:70,1,405,12|0,1:0|3:0,0:0:0:0:
76,210,73309,6,0,P|201:145|299:130,1,229.500004377365,10|4,3:2|3:0,0:0:0:0:
363,38,73584,69,0,3:0:0:0:
448,88,73675,2,0,P|400:66|368:69,1,67.5,10|0,1:2|3:0,0:0:0:0:
253,32,73858,1,8,3:0:0:0:
240,14,73949,1,0,1:0:0:0:
263,1,74041,5,10,3:2:0:0:
220,81,74132,1,4,3:0:0:0:
287,130,74224,1,8,3:0:0:0:
260,206,74315,1,0,3:0:0:0:
319,260,74407,70,0,L|359:268,1,33.75,10|0,1:2|3:0,0:0:0:0:
312,286,74498,2,0,L|349:267,1,33.75,2|0,3:0|3:0,0:0:0:0:
233,309,74590,6,0,B|197:307|197:307|223:324,1,67.5,2|8,3:2|3:0,0:0:0:0:
290,384,74773,69,8,3:2:0:0:
290,384,74864,2,0,P|324:372|360:368,1,54,0|4,1:0|3:0,0:0:0:0:
469,289,75047,1,0,3:0:0:0:
512,353,75139,6,0,P|480:338|457:331,1,54,10|0,1:2|3:0,0:0:0:0:
287,130,75321,2,0,P|319:145|342:152,1,54,6|0,3:0|3:0,0:0:0:0:
410,79,75504,70,0,L|396:30,1,33.75,10|0,3:2|1:0,0:0:0:0:
410,35,75687,5,0,1:0:0:0:
488,51,75779,69,0,1:0:0:0:
494,142,75870,5,4,3:0:0:0:
405,175,75962,69,4,3:0:0:0:
349,266,76053,5,8,3:0:0:0:
381,341,76145,69,0,1:0:0:0:
389,346,76190,1,0,1:0:0:0:
397,351,76236,2,0,P|437:336|464:332,1,67.5,4|0,3:1|0:0,0:0:0:0:
257,199,76419,1,2,0:3:0:0:
243,187,76510,1,0,0:0:0:0:
287,130,76602,22,0,L|278:195,1,54,2|2,1:0|0:1,0:0:0:0:
136,274,76785,1,2,0:3:0:0:
122,286,76876,1,2,0:1:0:0:
143,360,76968,54,0,P|147:319|157:283,1,67.5,4|0,3:0|3:0,0:0:0:0:
33,83,77151,2,0,L|22:133,2,33.75,2|0|0,0:3|0:0|0:0,0:0:0:0:
71,185,77334,22,0,P|111:167|146:168,1,67.5,2|8,1:0|3:0,0:0:0:0:
326,61,77517,2,0,P|287:17|193:38,1,151.875005793572,2|0,3:3|0:0,0:0:0:0:
201,29,77699,54,0,P|220:83|221:94,1,54,4|0,3:0|0:0,0:0:0:0:
427,225,77882,2,0,P|408:171|407:160,1,54,2|0,3:3|0:0,0:0:0:0:
462,114,78065,22,0,L|522:126,1,54,2|2,1:0|0:1,0:0:0:0:
284,243,78248,1,2,0:3:0:0:
257,236,78340,1,2,0:1:0:0:
257,199,78431,53,4,3:0:0:0:
314,137,78523,1,0,1:0:0:0:
219,79,78614,22,0,L|240:116,1,33.75,8|0,1:1|3:0,0:0:0:0:
226,113,78706,2,0,L|231:70,1,33.75,0|0,1:0|3:0,0:0:0:0:
293,15,78797,54,0,P|242:274|234:366,1,344.250006566048,8|0,3:1|1:0,0:0:0:0:
149,299,79163,22,0,B|214:273|248:315|225:332|285:383|336:353,1,202.500007724762,4|2,3:1|0:3,0:0:0:0:
450,313,79437,53,0,0:0:0:0:
510,352,79529,2,0,P|477:335|448:331,1,54,2|2,1:0|0:1,0:0:0:0:
320,191,79712,1,2,0:3:0:0:
305,184,79803,1,2,0:1:0:0:
257,236,79895,22,0,P|279:221|306:215,1,54,4|0,3:0|0:0,0:0:0:0:
421,100,80078,1,2,0:3:0:0:
474,40,80169,1,0,0:0:0:0:
408,2,80260,54,0,L|425:59,1,54,2|0,1:0|0:0,0:0:0:0:
508,175,80443,22,0,B|479:179|458:197|458:197|331:133|204:110,1,303.750011587143,2|0,0:3|0:0,0:0:0:0:
179,51,80809,53,0,1:0:0:0:
136,137,80901,1,0,1:0:0:0:
72,83,80992,22,0,B|51:60|51:60|89:76,1,67.5,0|0,1:0|0:0,0:0:0:0:
305,215,81175,53,8,3:0:0:0:
348,301,81267,1,0,1:0:0:0:
412,247,81358,22,0,B|433:224|433:224|395:240,1,67.5,4|0,3:0|0:0,0:0:0:0:
255,284,81541,54,0,L|222:274,2,33.75,8|0|0,1:0|1:0|1:0,0:0:0:0:
168,384,81724,22,0,B|61:338|74:166|142:117|233:174|232:300|94:331,1,405,12|8,1:0|3:0,0:0:0:0:
26,301,82090,53,4,3:2:0:0:
4,267,82181,1,2,3:2:0:0:
9,226,82273,1,2,3:2:0:0:
41,201,82364,1,2,3:2:0:0:
125,185,82456,37,2,1:2:0:0:
171,116,82547,1,2,3:2:0:0:
153,34,82639,1,2,3:2:0:0:
76,9,82730,1,2,3:2:0:0:
0,70,82821,38,0,B|12:75|12:75|72:47,1,67.5,2|4,3:2|3:0,0:0:0:0:
409,0,83004,2,0,B|397:-3|397:-3|331:21,1,67.5,8|0,3:0|3:0,0:0:0:0:
297,171,83187,37,0,1:0:0:0:
305,184,83279,1,0,3:0:0:0:
275,251,83370,38,0,P|291:206|299:197,1,54,6|2,3:2|3:2,0:0:0:0:
236,84,83553,2,0,P|220:129|212:138,1,54,2|2,3:2|0:0,0:0:0:0:
125,185,83736,38,2,L|91:192,2,33.75,8|2|2,3:0|0:0|0:0,0:0:0:0:
318,86,83919,2,0,P|365:97|393:97,1,67.5,2|2,1:2|0:0,0:0:0:0:
423,168,84102,37,2,3:2:0:0:
463,65,84193,1,2,1:2:0:0:
423,168,84285,38,0,P|441:226|446:234,1,54,2|0,3:2|0:0,0:0:0:0:
392,384,84468,2,0,L|404:323,1,54,4|0,3:0|0:0,0:0:0:0:
481,293,84651,38,0,L|513:307,1,33.75,2|0,1:2|0:0,0:0:0:0:
512,290,84742,2,0,L|466:312,1,33.75,0|0,1:0|0:0,0:0:0:0:
365,253,84834,37,2,1:2:0:0:
365,253,84925,1,0,1:0:0:0:
293,297,85017,37,2,3:2:0:0:
255,282,85108,1,2,3:2:0:0:
214,285,85199,1,2,3:2:0:0:
186,314,85291,1,2,3:2:0:0:
114,372,85382,37,6,1:2:0:0:
162,307,85474,1,2,3:2:0:0:
113,246,85565,1,2,3:2:0:0:
163,185,85657,1,2,1:2:0:0:
122,126,85748,38,0,P|135:170|141:199,1,54,2|4,3:2|3:0,0:0:0:0:
23,384,85931,2,0,P|10:340|4:311,1,54,8|0,3:0|3:0,0:0:0:0:
366,156,86114,38,0,L|427:177,1,60.7499981460572,0|0,1:0|0:0,0:0:0:0:
437,172,86297,37,4,3:1:0:0:
423,144,86358,37,2,3:2:0:0:
391,139,86419,37,2,3:2:0:0:
366,156,86480,37,2,3:2:0:0:
343,183,86541,37,2,3:2:0:0:
307,184,86602,37,2,3:2:0:0:
281,159,86663,38,0,L|235:172,2,36,4|2|2,3:0|3:2|3:2,0:0:0:0:
169,90,86846,38,0,L|203:100,2,36,2|2|2,1:2|3:2|3:2,0:0:0:0:
136,177,87029,37,2,3:2:0:0:
59,138,87120,1,2,1:2:0:0:
26,210,87212,38,0,L|-7:219,2,27,2|0|0,1:2|1:0|1:0,0:0:0:0:
195,364,87395,38,2,B|166:344|166:294|209:291|209:291|236:328|313:309|326:288|260:155|182:154|121:161|117:187|100:314|216:306,1,506.25,4|4,3:1|3:0,0:1:0:0:
366,156,87760,37,0,1:0:0:0:
441,97,87852,1,0,1:0:0:0:
500,149,87943,38,0,P|519:151|501:147,1,50.6250019311906,4|0,3:2|0:0,0:0:0:0:
