osu file format v14

[General]
AudioFilename: audio.mp3
AudioLeadIn: 0
PreviewTime:58584
Countdown: 0
SampleSet: Soft
StackLeniency: 0.7
Mode: 0
LetterboxInBreaks: 0
WidescreenStoryboard: 1

[Editor]
Bookmarks: 11846,23553,35260,46968,58675
DistanceSpacing: 0.8
BeatDivisor: 4
GridSize: 32
TimelineZoom: 2.7

[Metadata]
Title:first death (TV Size)
TitleUnicode:first death (TV Size)
Artist:TK from Ling tosite sigure
ArtistUnicode:TK from 凛として時雨
Creator:Bazz B
Version:normal
Source:チェンソーマン
Tags:-mikan mikan bazz_b petal matha -_Matha_- vanya2 Big Sis Vaporfly God Haachama chainsaw man csm anime japanese rock j-rock jrock ed ending 8 eight
BeatmapID:3904547
BeatmapSetID:1894662

[Difficulty]
HPDrainRate:3
CircleSize:3.5
OverallDifficulty:5
ApproachRate:6
SliderMultiplier:1.2
SliderTickRate:1

[Events]
//Background and Video events
0,0,"102503233_p0_master1200.jpg",0,0
Video,-90,"dfdsaf.mp4"
//Break Periods
2,35460,40064
//Storyboard Layer 0 (Background)
//Storyboard Layer 1 (Fail)
//Storyboard Layer 2 (Pass)
//Storyboard Layer 3 (Foreground)
//Storyboard Layer 4 (Overlay)
//Storyboard Sound Samples

[TimingPoints]
139,365.853658536586,4,2,1,65,1,0
11503,-100,4,2,1,25,0,0
11846,-100,4,2,1,75,0,0
17471,-100,4,2,1,5,0,0
17517,-100,4,2,1,75,0,0
23553,-100,4,2,1,55,0,0
35260,-100,4,2,1,45,0,0
45504,-100,4,2,1,65,0,0
46968,-100,4,2,2,75,0,0
57943,-100,4,2,1,75,0,0
58309,-100,4,2,1,80,0,0
58675,-90.9090909090909,4,2,1,90,0,1
64529,-90.9090909090909,4,2,1,80,0,1
70382,-90.9090909090909,4,2,1,90,0,1
76236,-90.9090909090909,4,2,1,80,0,1
82090,-100,4,2,1,75,0,0

[Colours]
Combo1 : 241,220,67
Combo2 : 192,192,192
Combo3 : 64,255,112
Combo4 : 0,128,255
Combo5 : 255,162,68
Combo6 : 255,74,74

[HitObjects]
32,350,139,6,0,P|71:326|111:328,1,60,4|2,3:1|3:2,0:0:0:0:
129,340,504,1,2,1:2:0:0:
183,260,870,2,0,B|193:240|193:240|159:130,1,120,2|0,0:0|1:0,0:0:0:0:
224,72,1602,2,0,L|301:94,1,60,0|2,3:0|3:2,0:0:0:0:
311,126,1968,2,0,P|386:100|437:102,1,120,0|2,1:2|0:3,0:0:0:0:
462,68,2517,1,8,3:1:0:0:
462,68,2699,1,8,1:0:0:0:
510,151,3065,22,0,P|499:189|495:229,1,60,0|2,3:0|3:2,0:0:0:0:
510,255,3431,1,2,1:2:0:0:
451,331,3797,2,0,P|408:306|337:311,1,120,2|0,0:0|1:0,0:0:0:0:
261,366,4529,2,0,L|200:377,1,60,0|2,3:0|3:2,0:0:0:0:
163,347,4895,2,0,P|165:307|191:277,1,60,0|4,1:0|3:0,0:0:0:0:
162,249,5260,1,0,1:0:0:0:
162,249,5443,1,8,0:1:0:0:
53,154,5992,54,0,P|43:109|53:86,1,60,6|8,3:2|3:0,0:0:0:0:
80,62,6358,1,2,1:2:0:0:
80,62,6541,2,0,L|205:83,1,120,8|0,3:0|3:2,0:0:0:0:
233,49,7090,1,2,1:2:0:0:
274,135,7456,22,0,L|258:202,1,60,2|8,3:2|3:0,0:0:0:0:
218,217,7821,1,2,1:2:0:0:
218,217,8004,2,0,L|248:341,1,120,8|4,3:0|3:0,0:0:0:0:
286,360,8553,2,0,P|340:358|374:299,1,120,2|2,1:2|3:2,0:0:0:0:
448,245,9285,53,2,1:2:0:0:
448,245,9468,2,0,P|467:162|486:126,1,120,8|4,3:0|3:0,0:0:0:0:
455,91,10017,1,2,1:2:0:0:
374,38,10382,2,0,L|299:60,1,60,2|8,3:2|3:0,0:0:0:0:
282,89,10748,2,0,L|210:61,1,60,4|4,1:2|3:0,0:0:0:0:
197,28,11114,2,0,B|175:22|175:22|78:47,1,120,4|2,1:0|1:2,0:0:0:0:
14,116,11846,38,0,P|40:138|44:175,1,60,4|2,3:2|3:2,0:0:0:0:
84,191,12212,2,0,P|79:236|48:258,1,60,2|2,1:2|3:2,0:0:0:0:
30,272,12578,1,2,3:2:0:0:
30,272,12760,1,8,3:0:0:0:
84,357,13126,1,6,3:2:0:0:
84,357,13309,2,0,P|137:348|202:382,1,120,2|2,3:2|1:2,0:0:0:0:
261,305,14041,2,0,B|266:290|266:290|250:234,1,60,2|4,3:2|3:0,0:0:0:0:
209,228,14407,1,2,1:2:0:0:
262,148,14773,38,0,P|266:99|282:88,1,60,2|2,3:2|3:2,0:0:0:0:
259,47,15139,2,0,P|287:21|328:23,1,60,6|2,1:2|3:2,0:0:0:0:
353,31,15504,1,2,3:2:0:0:
353,31,15687,1,8,3:0:0:0:
448,27,16053,2,0,P|430:87|417:226,1,180,4|2,3:1|1:2,0:0:0:0:
464,292,16968,1,10,3:0:0:0:
464,292,17151,2,2,B|404:289|407:322|337:319,1,120,2|0,3:2|0:0,0:1:0:0:
311,350,17699,38,0,P|281:324|246:322,1,60,2|2,3:2|3:2,0:0:0:0:
224,290,18065,2,0,P|187:297|164:325,1,60,6|2,1:2|3:2,0:0:0:0:
126,330,18431,1,2,3:2:0:0:
126,330,18614,1,8,3:0:0:0:
50,270,18980,1,4,3:2:0:0:
50,270,19163,2,0,B|47:250|27:237|27:237|73:153,1,120,2|2,3:2|1:2,0:0:0:0:
42,74,19895,2,0,L|-17:88,2,60,2|4|2,3:2|3:0|1:2,0:0:0:0:
118,15,20626,38,0,P|180:41|182:46,1,60,2|2,3:2|3:2,0:0:0:0:
220,33,20992,2,0,P|242:76|238:104,1,60,6|2,1:2|3:2,0:0:0:0:
246,134,21358,1,2,3:2:0:0:
246,134,21541,1,8,3:0:0:0:
180,204,21907,2,0,B|272:200|250:136|363:143,1,180,4|4,3:1|3:0,0:0:0:0:
384,115,22639,1,2,1:2:0:0:
442,190,23004,2,0,L|413:310,1,120,4|8,1:2|3:0,0:0:0:0:
446,341,23553,70,0,P|383:339|335:373,1,120,4|2,3:2|1:2,0:0:0:0:
250,328,24285,1,2,0:0:0:0:
250,328,24468,2,0,L|263:263,1,60,2|0,3:2|1:0,0:0:0:0:
228,233,24834,6,0,L|107:256,1,120,2|0,0:0|0:0,0:0:0:0:
81,294,25382,1,2,1:2:0:0:
8,231,25748,1,2,1:2:0:0:
8,231,25931,2,0,L|26:161,1,60,2|0,3:2|1:0,0:0:0:0:
65,149,26297,69,2,1:2:0:0:
65,149,26480,2,0,L|32:19,2,120,2|2|2,3:2|1:2|0:0,0:0:0:0:
160,156,27578,2,0,P|192:138|223:138,1,60,2|2,1:2|0:0,0:0:0:0:
240,96,27943,1,0,3:0:0:0:
318,151,28309,2,0,L|299:280,1,120,2|2,1:2|1:2,0:0:0:0:
328,308,28858,1,0,0:0:0:0:
422,342,29224,5,2,1:2:0:0:
422,342,29407,2,0,L|438:265,1,60,2|8,3:1|3:0,0:0:0:0:
475,257,29773,2,0,B|490:231|490:231|462:135,1,120,0|2,1:0|0:3,0:0:0:0:
421,123,30321,1,2,3:2:0:0:
421,26,30687,1,2,0:0:0:0:
421,26,30870,2,0,L|349:46,1,60,2|0,3:1|0:0,0:0:0:0:
331,78,31236,2,0,B|272:68|287:37|207:33,1,120,2|2,1:2|1:2,0:0:0:0:
179,59,31785,1,8,3:0:0:0:
92,16,32151,69,2,1:2:0:0:
92,16,32334,2,0,P|58:65|-12:63,2,120,2|2|2,3:1|1:2|0:3,0:0:0:0:
179,59,33431,2,0,L|169:124,1,60,0|2,1:0|0:0,0:0:0:0:
198,157,33797,2,0,L|335:134,1,120,2|2,3:1|1:2,0:0:0:0:
402,179,34529,2,0,B|395:221|395:221|375:244|375:244|364:298,1,120,0|0,1:0|1:0,0:0:0:0:
397,325,35078,1,8,3:0:0:0:
397,325,35260,1,4,3:1:0:0:
17,14,41114,6,0,B|6:29|6:29|38:139,1,120,4|0,3:1|3:0,0:0:0:0:
110,162,41846,1,0,3:0:0:0:
65,233,42212,1,0,3:0:0:0:
138,274,42578,6,0,L|269:256,1,120,4|0,3:2|3:0,0:0:0:0:
317,199,43309,1,0,3:0:0:0:
392,235,43675,1,0,3:0:0:0:
456,181,44041,70,0,B|458:138|477:104|477:104|448:69,1,120,4|0,3:2|3:0,0:0:0:0:
382,25,44773,2,0,L|256:55,1,120,0|0,3:0|3:0,0:0:0:0:
180,98,45504,6,0,P|135:74|110:73,1,60,2|8,1:2|3:0,0:0:0:0:
96,35,45870,2,0,P|50:61|28:60,1,60,2|0,1:2|3:0,0:0:0:0:
10,96,46236,2,0,L|39:219,1,120,2|2,1:2|1:2,0:0:0:0:
107,278,46968,70,0,P|90:340|80:385,2,90,4|8|4,1:2|1:0|1:0,0:0:0:0:
330,190,48431,2,0,P|347:128|357:83,1,90,6|8,1:0|1:0,0:0:0:0:
304,43,48980,1,12,1:0:0:0:
424,250,49895,54,0,P|483:233|515:234,2,90,6|12|14,1:0|1:0|1:0,0:0:0:0:
194,180,51358,2,0,P|135:197|103:196,1,90,6|4,1:0|1:3,0:0:0:0:
41,157,51907,1,2,1:0:0:0:
41,157,52090,2,0,B|34:138|34:138|62:82,1,60,8|2,0:1|0:1,0:0:0:0:
160,7,52821,22,0,L|261:31,1,90,6|8,1:0|3:0,0:0:0:0:
314,76,53370,1,2,1:0:0:0:
314,76,53553,2,0,B|294:127|294:127|300:142|300:142|279:200,1,120,12|2,0:1|0:1,0:0:0:0:
337,267,54285,54,0,P|285:273|242:302,1,90,6|4,1:0|3:0,0:0:0:0:
196,347,54834,1,2,1:0:0:0:
196,347,55017,2,0,L|65:323,1,120,14|0,0:1|0:0,0:0:0:0:
22,247,55748,22,0,P|5:206|25:163,1,90,6|2,1:0|1:0,0:0:0:0:
89,124,56297,1,2,1:0:0:0:
89,124,56480,1,10,0:1:0:0:
256,192,56846,12,0,57943,1:0:0:0:
437,359,58675,6,0,P|449:310|469:289,1,66.0000020141602,10|0,3:2|0:0,0:0:0:0:
503,271,59041,2,0,L|485:199,1,66.0000020141602,10|0,1:2|3:0,0:0:0:0:
506,157,59407,1,10,3:2:0:0:
433,79,59773,1,10,1:2:0:0:
334,116,60139,2,0,P|278:104|193:92,1,132.00000402832,10|10,3:2|1:2,0:0:0:0:
167,55,60687,1,8,3:0:0:0:
167,55,60870,2,0,P|89:76|27:85,1,132.00000402832,4|12,3:0|1:0,0:0:0:0:
3,183,61602,70,0,P|26:216|26:244,1,66.0000020141602,10|8,3:2|3:0,0:0:0:0:
7,290,61968,2,0,L|32:360,1,66.0000020141602,10|8,1:2|3:0,0:0:0:0:
78,372,62334,1,10,3:2:0:0:
163,311,62699,1,10,1:2:0:0:
163,311,62882,2,0,P|225:342|284:328,1,132.00000402832,4|8,3:0|3:0,0:0:0:0:
300,277,63431,2,0,L|286:206,1,66.0000020141602,8|2,1:2|3:2,0:0:0:0:
247,176,63797,2,0,B|218:174|218:174|180:190,2,66.0000020141602,4|8|8,3:0|3:1|1:0,0:0:0:0:
285,77,64529,38,0,L|413:118,1,132.00000402832,4|2,3:1|1:0,0:0:0:0:
463,101,65078,1,2,0:3:0:0:
463,101,65260,2,0,B|489:147|489:147|460:192|458:220,1,132.00000402832,4|2,3:0|1:0,0:0:0:0:
471,324,65992,2,0,P|426:326|403:344,1,66.0000020141602,8|2,3:0|0:3,0:0:0:0:
376,378,66358,2,0,L|301:362,1,66.0000020141602,2|2,1:0|0:3,0:0:0:0:
275,325,66724,1,4,3:0:0:0:
183,378,67090,1,2,1:0:0:0:
102,309,67456,38,0,L|127:179,1,132.00000402832,4|2,3:1|1:0,0:0:0:0:
94,137,68004,1,2,0:3:0:0:
94,137,68187,2,0,P|58:105|94:25,1,132.00000402832,4|2,3:0|1:0,0:0:0:0:
181,3,68919,2,0,L|244:23,1,66.0000020141602,8|0,3:0|1:0,0:0:0:0:
280,61,69285,2,0,P|336:50|352:28,1,66.0000020141602,0|8,1:0|3:0,0:0:0:0:
370,1,69651,1,0,1:0:0:0:
461,54,70017,1,4,3:0:0:0:
404,143,70382,6,0,P|423:195|423:214,1,66.0000020141602,10|0,3:2|3:0,0:0:0:0:
461,242,70748,2,0,P|445:281|443:314,1,66.0000020141602,10|8,1:2|3:0,0:0:0:0:
398,333,71114,2,0,L|329:318,1,66.0000020141602,10|4,3:2|3:0,0:0:0:0:
293,353,71480,1,10,1:2:0:0:
210,287,71846,2,0,L|64:316,1,132.00000402832,10|10,3:2|1:2,0:0:0:0:
37,340,72395,1,4,3:0:0:0:
37,340,72578,2,0,P|21:285|12:267,1,66.0000020141602,10|8,3:2|1:1,0:0:0:0:
41,230,72943,1,12,1:0:0:0:
122,162,73309,70,0,L|196:174,1,66.0000020141602,10|4,3:2|3:0,0:0:0:0:
227,206,73675,2,0,P|265:211|294:185,1,66.0000020141602,10|8,1:2|3:0,0:0:0:0:
318,153,74041,1,10,3:2:0:0:
420,126,74407,1,10,1:2:0:0:
420,126,74590,2,0,B|425:81|448:54|448:54|403:8,1,132.00000402832,2|4,3:2|3:0,0:0:0:0:
357,7,75139,2,0,L|284:26,1,66.0000020141602,10|6,1:2|3:0,0:0:0:0:
249,53,75504,2,0,P|212:38|168:34,1,66.0000020141602,10|0,3:2|1:0,0:0:0:0:
138,10,75870,1,4,3:0:0:0:
49,67,76236,22,0,P|33:35|36:-2,2,66.0000020141602,4|2|2,3:1|0:3|1:0,0:0:0:0:
86,104,76785,1,2,0:3:0:0:
86,104,76968,2,0,L|59:240,1,132.00000402832,4|2,3:0|1:0,0:0:0:0:
90,277,77517,1,2,3:3:0:0:
192,243,77882,1,2,3:3:0:0:
192,243,78065,2,0,L|209:155,1,66.0000020141602,2|2,1:0|0:3,0:0:0:0:
242,141,78431,2,0,B|316:149|297:178|373:184,1,132.00000402832,4|8,3:0|3:1,0:0:0:0:
457,235,79163,54,0,B|437:339|437:339|397:361,1,132.00000402832,4|2,3:1|1:0,0:0:0:0:
368,378,79712,1,2,0:3:0:0:
368,378,79895,2,0,P|311:349|236:349,1,132.00000402832,4|2,3:0|1:0,0:0:0:0:
197,371,80443,1,2,0:3:0:0:
107,315,80809,1,0,1:0:0:0:
107,315,80992,2,0,L|34:339,2,66.0000020141602,0|8|4,1:0|3:0|3:0,0:0:0:0:
163,225,81724,1,12,1:0:0:0:
66,181,82090,38,0,P|43:139|50:119,1,60,4|2,3:2|3:2,0:0:0:0:
25,85,82456,2,0,P|54:45|77:43,1,60,2|2,1:2|3:2,0:0:0:0:
112,41,82821,1,2,3:2:0:0:
112,41,83004,1,8,3:0:0:0:
200,77,83370,1,6,3:2:0:0:
200,77,83553,2,0,L|344:55,1,120,2|2,3:2|1:2,0:0:0:0:
409,28,84285,2,0,B|424:49|424:49|411:92,1,60,2|4,3:2|3:0,0:0:0:0:
445,118,84651,1,2,1:2:0:0:
381,189,85017,38,0,L|314:172,1,60,2|2,3:2|3:2,0:0:0:0:
286,143,85382,2,0,L|221:162,1,60,6|2,1:2|3:2,0:0:0:0:
198,197,85748,1,2,3:2:0:0:
198,197,85931,1,8,3:0:0:0:
116,248,86297,2,0,P|212:254|250:335,1,180,4|2,3:1|1:2,0:0:0:0:
330,372,87212,37,2,1:2:0:0:
330,372,87395,2,2,B|374:362|374:362|383:348|383:348|437:334|437:334|448:316|448:316|495:306,1,180,4|4,3:1|3:2,0:1:0:0:
