osu file format v14

[General]
AudioFilename: audio.mp3
AudioLeadIn: 0
PreviewTime: 58584
Countdown: 0
SampleSet: Soft
StackLeniency: 0.4
Mode: 0
LetterboxInBreaks: 0
WidescreenStoryboard: 1

[Editor]
Bookmarks: 5992,11846,23553,29407,35260,41114,46968,58675,64529,70382,76236,82090
DistanceSpacing: 0.4
BeatDivisor: 4
GridSize: 32
TimelineZoom: 3.6

[Metadata]
Title:first death (TV Size)
TitleUnicode:first death (TV Size)
Artist:TK from Ling tosite sigure
ArtistUnicode:TK from 凛として時雨
Creator:Bazz B
Version:matha's ultra
Source:チェンソーマン
Tags:-mikan mikan bazz_b petal matha -_Matha_- vanya2 Big Sis Vaporfly God Haachama chainsaw man csm anime japanese rock j-rock jrock ed ending 8 eight
BeatmapID:3905683
BeatmapSetID:1894662

[Difficulty]
HPDrainRate:5.8
CircleSize:3.8
OverallDifficulty:9.2
ApproachRate:9.6
SliderMultiplier:2.2
SliderTickRate:1

[Events]
//Background and Video events
Video,-90,"dfdsaf.mp4"
0,0,"20.jpg",0,0
//Break Periods
//Storyboard Layer 0 (Background)
//Storyboard Layer 1 (Fail)
//Storyboard Layer 2 (Pass)
//Storyboard Layer 3 (Foreground)
//Storyboard Layer 4 (Overlay)
//Storyboard Sound Samples

[TimingPoints]
139,365.853658536586,4,2,1,65,1,0
139,-62.5,4,2,1,65,0,0
321,-125,4,2,1,65,0,0
870,-62.5,4,2,1,65,0,0
1053,-125,4,2,1,65,0,0
1236,-41.6666666666667,4,2,1,65,0,0
1968,-83.3333333333333,4,2,1,65,0,0
2517,-62.5,4,2,1,65,0,0
2699,-55.5555555555556,4,2,1,65,0,0
3431,-83.3333333333333,4,2,1,65,0,0
3980,-125,4,2,1,65,0,0
4163,-83.3333333333333,4,2,1,65,0,0
4895,-62.5,4,2,1,65,0,0
5078,-125,4,2,1,65,0,0
5260,-50,4,2,1,65,0,0
5443,-62.5,4,2,1,65,0,0
5992,-50,4,2,1,65,0,0
6358,-62.5,4,2,1,65,0,0
6541,-45.4545454545455,4,2,1,65,0,0
6815,-83.3333333333333,4,2,1,65,0,0
6907,-71.4285714285714,4,2,1,65,0,0
7090,-50,4,2,1,65,0,0
7456,-50,4,2,1,65,0,0
7821,-62.5,4,2,1,65,0,0
8004,-45.4545454545455,4,2,1,65,0,0
8370,-71.4285714285714,4,2,1,65,0,0
8919,-50,4,2,1,65,0,0
9285,-62.5,4,2,1,65,0,0
9468,-50,4,2,1,65,0,0
9742,-83.3333333333333,4,2,1,65,0,0
9834,-71.4285714285714,4,2,1,65,0,0
10017,-50,4,2,1,65,0,0
10382,-50,4,2,1,65,0,0
11114,-83.3333333333333,4,2,1,65,0,0
11480,-125,4,2,1,65,0,0
11503,-125,4,2,1,25,0,0
11846,-71.4285714285714,4,2,1,75,0,1
12578,-62.5,4,2,1,75,0,1
12760,-125,4,2,1,75,0,1
13126,-71.4285714285714,4,2,1,75,0,1
14041,-50,4,2,1,75,0,1
14407,-62.5,4,2,1,75,0,1
14773,-71.4285714285714,4,2,1,75,0,1
15504,-62.5,4,2,1,75,0,1
15687,-125,4,2,1,75,0,1
16053,-71.4285714285714,4,2,1,75,0,1
16968,-50,4,2,1,75,0,1
17151,-62.5,4,2,1,75,0,1
17471,-62.5,4,2,1,5,0,1
17517,-62.5,4,2,1,75,0,1
17699,-71.4285714285714,4,2,1,75,0,1
18431,-62.5,4,2,1,75,0,1
18614,-125,4,2,1,75,0,1
18980,-71.4285714285714,4,2,1,75,0,1
19895,-50,4,2,1,75,0,1
20260,-62.5,4,2,1,75,0,1
20626,-71.4285714285714,4,2,1,75,0,1
21358,-62.5,4,2,1,75,0,1
21541,-125,4,2,1,75,0,1
21907,-71.4285714285714,4,2,1,75,0,1
23004,-41.6666666666667,4,2,1,75,0,1
23553,-55.5555555555556,4,2,1,55,0,0
23690,-55.5555555555556,4,2,1,5,0,0
23736,-125,4,2,1,55,0,0
23919,-62.5,4,2,1,55,0,0
24285,-55.5555555555556,4,2,1,55,0,0
24468,-250,4,2,1,55,0,0
25017,-55.5555555555556,4,2,1,55,0,0
25154,-55.5555555555556,4,2,1,5,0,0
25199,-125,4,2,1,55,0,0
25382,-62.5,4,2,1,55,0,0
26480,-55.5555555555556,4,2,1,55,0,0
26617,-55.5555555555556,4,2,1,5,0,0
26663,-125,4,2,1,55,0,0
26846,-62.5,4,2,1,55,0,0
27212,-125,4,2,1,55,0,0
27395,-62.5,4,2,1,55,0,0
27943,-55.5555555555556,4,2,1,55,0,0
28081,-55.5555555555556,4,2,1,5,0,0
28126,-125,4,2,1,55,0,0
28309,-62.5,4,2,1,55,0,0
29407,-45.4545454545455,4,2,1,55,0,0
29590,-71.4285714285714,4,2,1,55,0,0
29773,-45.4545454545455,4,2,1,55,0,0
29956,-71.4285714285714,4,2,1,55,0,0
30870,-45.4545454545455,4,2,1,55,0,0
31053,-71.4285714285714,4,2,1,55,0,0
31236,-45.4545454545455,4,2,1,55,0,0
31419,-71.4285714285714,4,2,1,55,0,0
32334,-45.4545454545455,4,2,1,55,0,0
32517,-71.4285714285714,4,2,1,55,0,0
32700,-45.4545454545455,4,2,1,55,0,0
32883,-71.4285714285714,4,2,1,55,0,0
33797,-45.4545454545455,4,2,1,55,0,0
33980,-71.4285714285714,4,2,1,55,0,0
34163,-45.4545454545455,4,2,1,55,0,0
34346,-71.4285714285714,4,2,1,55,0,0
35260,-71.4285714285714,4,2,1,45,0,0
45504,-83.3333333333333,4,2,1,65,0,0
45870,-125,4,2,1,65,0,0
46236,-62.5,4,2,1,65,0,0
46602,-45.4545454545455,4,2,1,65,0,0
46968,-50,4,2,2,75,0,0
47334,-250,4,2,2,75,0,0
48431,-45.4545454545455,4,2,2,75,0,0
48706,-83.3333333333333,4,2,2,75,0,0
48980,-125,4,2,2,75,0,0
49163,-250,4,2,2,75,0,0
49895,-50,4,2,2,75,0,0
50260,-250,4,2,2,75,0,0
51175,-125,4,2,2,75,0,0
51358,-41.6666666666667,4,2,2,75,0,0
51907,-83.3333333333333,4,2,2,75,0,0
52090,-33.3333333333333,4,2,2,75,0,0
52821,-50,4,2,2,75,0,0
53187,-250,4,2,2,75,0,0
54285,-41.6666666666667,4,2,2,75,0,0
54559,-83.3333333333333,4,2,2,75,0,0
55017,-250,4,2,2,75,0,0
55748,-50,4,2,2,75,0,0
56114,-250,4,2,2,75,0,0
56480,-50,4,2,2,75,0,0
57578,-125,4,2,2,75,0,0
57760,-62.5,4,2,2,75,0,0
57943,-62.5,4,2,1,75,0,0
58309,-62.5,4,2,1,80,0,0
58675,-45.4545454545455,4,2,1,90,0,0
59041,-38.4615384615385,4,2,1,90,0,0
59773,-41.6666666666667,4,2,1,90,0,0
59956,-100,4,2,1,90,0,0
60504,-50,4,2,1,90,0,0
60687,-45.4545454545455,4,2,1,90,0,0
60870,-41.6666666666667,4,2,1,90,0,0
61007,-41.6666666666667,4,2,1,90,0,0
61053,-41.6666666666667,4,2,1,90,0,0
61602,-45.4545454545455,4,2,1,90,0,0
61968,-38.4615384615385,4,2,1,90,0,0
62699,-41.6666666666667,4,2,1,90,0,0
63248,-50,4,2,1,90,0,0
64529,-41.6666666666667,4,2,1,80,0,0
64895,-50,4,2,1,80,0,0
65626,-41.6666666666667,4,2,1,80,0,0
65764,-41.6666666666667,4,2,1,5,0,0
65809,-50,4,2,1,80,0,0
67456,-41.6666666666667,4,2,1,80,0,0
67821,-50,4,2,1,80,0,0
68553,-41.6666666666667,4,2,1,80,0,0
68690,-41.6666666666667,4,2,1,5,0,0
68736,-50,4,2,1,80,0,0
70382,-45.4545454545455,4,2,1,90,0,0
70748,-38.4615384615385,4,2,1,90,0,0
71297,-100,4,2,1,90,0,0
71480,-50,4,2,1,90,0,0
71846,-100,4,2,1,90,0,0
72212,-50,4,2,1,90,0,0
72395,-45.4545454545455,4,2,1,90,0,0
72578,-41.6666666666667,4,2,1,90,0,0
72715,-41.6666666666667,4,2,1,90,0,0
72760,-41.6666666666667,4,2,1,90,0,0
73309,-45.4545454545455,4,2,1,90,0,0
73675,-38.4615384615385,4,2,1,90,0,0
74407,-41.6666666666667,4,2,1,90,0,0
74956,-50,4,2,1,90,0,0
75321,-71.4285714285714,4,2,1,90,0,0
76236,-50,4,2,1,80,0,0
76419,-100,4,2,1,80,0,0
76602,-62.5,4,2,1,80,0,0
76785,-100,4,2,1,80,0,0
76968,-45.4545454545455,4,2,1,80,0,0
77517,-45.4545454545455,4,2,1,80,0,0
77882,-71.4285714285714,4,2,1,80,0,0
78065,-50,4,2,1,80,0,0
79163,-45.4545454545455,4,2,1,80,0,0
79529,-50,4,2,1,80,0,0
80078,-100,4,2,1,80,0,0
80260,-50,4,2,1,80,0,0
80443,-45.4545454545455,4,2,1,80,0,0
80992,-55.5555555555556,4,2,1,80,0,0
81358,-71.4285714285714,4,2,1,80,0,0
82090,-71.4285714285714,4,2,1,75,0,1
82821,-50,4,2,1,75,0,1
83004,-100,4,2,1,75,0,1
83370,-71.4285714285714,4,2,1,75,0,1
84285,-50,4,2,1,75,0,1
85017,-71.4285714285714,4,2,1,75,0,1
85748,-50,4,2,1,75,0,1
85931,-100,4,2,1,75,0,1
86297,-71.4285714285714,4,2,1,75,0,1
87212,-50,4,2,1,75,0,1
87395,-250,4,2,1,75,0,1
87943,-100,4,2,1,75,0,0

[Colours]
Combo1 : 255,184,149
Combo2 : 128,128,255
Combo3 : 255,128,128

[HitObjects]
0,75,139,6,0,L|97:97,1,88,4|0,3:1|3:0,0:0:0:0:
136,42,321,2,0,L|125:-1,1,44,2|0,3:2|3:0,0:0:0:0:
238,134,504,5,2,1:2:0:0:
86,95,595,1,0,3:0:0:0:
168,165,687,2,0,L|157:122,1,44,8|0,3:0|0:0,0:0:0:0:
214,31,870,6,0,L|311:53,1,88,2|0,0:0|0:0,0:0:0:0:
361,167,1053,2,0,L|421:153,1,44,0|0,3:0|0:0,0:0:0:0:
467,116,1236,6,0,L|501:124,12,32.99999899292,0|0|0|0|0|0|0|0|2|0|0|0|0,1:0|0:0|0:0|0:0|0:0|0:0|0:0|0:0|0:0|0:0|0:0|0:0|0:0,0:0:0:0:
238,134,1602,5,0,3:0:0:0:
258,129,1693,1,0,3:0:0:0:
280,124,1784,1,2,3:2:0:0:
302,119,1876,1,0,3:0:0:0:
361,167,1968,6,0,L|347:227,1,32.99999899292,0|0,1:2|0:0,0:0:0:0:
281,204,2059,2,0,L|266:263,1,32.99999899292,0|0,3:0|0:0,0:0:0:0:
201,241,2151,2,0,L|186:300,1,32.99999899292,8|0,3:0|0:0,0:0:0:0:
153,340,2334,5,2,0:3:0:0:
153,340,2425,1,0,0:0:0:0:
153,340,2517,2,0,B|176:322|176:322|245:340,1,88,8|0,3:1|3:0,0:0:0:0:
79,277,2699,6,0,L|382:354,1,296.99999093628,8|0,1:0|0:0,0:0:0:0:
449,384,3065,5,0,3:0:0:0:
445,362,3157,1,0,3:0:0:0:
441,340,3248,1,2,3:2:0:0:
436,318,3339,1,0,3:0:0:0:
478,258,3431,6,0,L|470:225,1,32.99999899292,2|0,1:2|0:0,0:0:0:0:
398,221,3522,2,0,L|390:188,1,32.99999899292,0|0,3:0|0:0,0:0:0:0:
318,184,3614,2,0,L|310:151,1,32.99999899292,8|0,3:0|0:0,0:0:0:0:
333,81,3797,5,2,0:0:0:0:
333,81,3889,1,0,0:0:0:0:
333,81,3980,2,0,L|343:126,1,44,0|0,3:0|0:0,0:0:0:0:
242,187,4163,6,0,L|234:219,1,32.99999899292,0|0,1:0|0:0,0:0:0:0:
168,183,4255,2,0,L|139:200,1,32.99999899292
114,129,4346,2,0,L|81:121,2,32.99999899292,2|0|0,0:0|0:0|0:0,0:0:0:0:
83,44,4529,5,0,3:0:0:0:
104,50,4620,1,0,3:0:0:0:
126,56,4711,1,2,3:2:0:0:
147,61,4803,1,0,3:0:0:0:
210,0,4895,6,0,L|234:111,1,88,0|0,1:0|3:0,0:0:0:0:
107,133,5078,2,0,L|64:121,1,44,4|0,3:0|0:0,0:0:0:0:
334,131,5260,6,0,L|309:242,1,110,0|0,1:0|0:0,0:0:0:0:
42,129,5443,2,0,L|-3:118,1,44,8|0,0:1|0:0,0:0:0:0:
10,116,5992,6,0,B|20:136|20:136|109:155,1,110,6|0,3:2|3:0,0:0:0:0:
196,177,6175,1,8,3:0:0:0:
118,236,6267,1,0,3:0:0:0:
126,240,6358,2,0,L|102:140,1,88,2|0,1:2|3:0,0:0:0:0:
111,144,6541,6,0,L|171:394,1,242.000007385254,8|2,3:0|0:3,0:0:0:0:
232,300,6815,6,0,L|196:308,1,32.99999899292
175,377,6907,2,0,L|199:277,1,76.9999976501466,0|0,3:2|0:0,0:0:0:0:
15,301,7090,6,0,L|363:216,1,330,2|0,1:2|0:0,0:0:0:0:
403,181,7456,6,0,B|394:160|394:160|306:136,1,110,2|0,3:2|3:0,0:0:0:0:
466,345,7639,1,8,3:0:0:0:
404,269,7730,1,0,3:0:0:0:
400,277,7821,2,0,L|500:253,1,88,2|0,1:2|3:0,0:0:0:0:
497,262,8004,6,0,L|261:318,1,242.000007385254,8|2,3:0|0:3,0:0:0:0:
144,16,8370,6,0,L|134:61,1,38.4999988250733,4|0,3:0|0:0,0:0:0:0:
48,51,8462,6,0,L|72:89,1,38.4999988250733,8|0,3:0|0:0,0:0:0:0:
37,127,8553,6,0,L|82:137,1,38.4999988250733,2|0,1:2|0:0,0:0:0:0:
73,175,8645,6,0,L|111:150,1,38.4999988250733,2|0,0:0|0:0,0:0:0:0:
109,189,8736,6,0,L|119:144,1,38.4999988250733,2|0,0:0|0:0,0:0:0:0:
136,228,8828,6,0,L|174:202,1,38.4999988250733,2|0,0:0|0:0,0:0:0:0:
77,274,8919,6,0,B|87:294|87:294|176:313,1,110,2|0,3:2|3:0,0:0:0:0:
333,340,9102,1,8,3:0:0:0:
254,288,9193,1,0,3:0:0:0:
262,284,9285,2,0,L|238:384,1,88,2|0,1:2|3:0,0:0:0:0:
247,378,9468,6,0,L|300:158,1,220,8|2,3:0|0:3,0:0:0:0:
231,89,9742,6,0,L|267:97,1,32.99999899292
288,166,9834,2,0,L|264:66,1,76.9999976501466,4|0,3:0|0:0,0:0:0:0:
438,75,10017,6,0,L|105:154,1,330,2|2,1:2|0:0,0:0:0:0:
76,0,10382,6,0,B|86:20|86:20|175:39,1,110,2|0,3:2|0:0,0:0:0:0:
203,160,10565,5,8,3:0:0:0:
189,163,10656,1,0,3:0:0:0:
149,202,10748,5,4,1:2:0:0:
122,195,10839,1,8,3:0:0:0:
95,189,10930,1,4,3:0:0:0:
68,182,11022,1,8,3:0:0:0:
32,209,11114,6,0,L|45:254,1,32.99999899292,4|0,1:0|0:0,0:0:0:0:
126,352,11206,2,0,L|139:307,1,32.99999899292,0|0,1:0|0:0,0:0:0:0:
49,239,11297,6,0,L|58:270,1,32.99999899292,4|0,1:3|0:0,0:0:0:0:
143,322,11389,2,0,L|152:291,1,32.99999899292,8|0,1:3|0:0,0:0:0:0:
14,291,11480,6,2,L|155:325,1,132,2|2,1:2|0:0,0:0:0:0:
237,380,11846,6,0,L|223:327,1,38.4999988250733,4|0,3:2|0:0,0:0:0:0:
303,340,11937,2,0,L|289:287,1,38.4999988250733,2|0,3:2|0:0,0:0:0:0:
369,300,12029,2,0,L|355:247,1,38.4999988250733,2|0,3:2|0:0,0:0:0:0:
435,260,12120,2,0,L|421:207,1,38.4999988250733,2|0,3:2|0:0,0:0:0:0:
261,223,12212,6,0,L|247:276,1,38.4999988250733,2|0,1:2|0:0,0:0:0:0:
327,263,12303,2,0,L|313:316,1,38.4999988250733,2|0,3:2|0:0,0:0:0:0:
393,303,12395,2,0,L|379:356,1,38.4999988250733,2|0,3:2|0:0,0:0:0:0:
459,343,12486,2,0,L|445:396,1,38.4999988250733,2|0,3:2|0:0,0:0:0:0:
512,257,12578,6,0,L|481:141,1,88,2|4,3:2|3:0,0:0:0:0:
368,58,12760,2,0,L|352:2,1,44,8|0,3:0|3:0,0:0:0:0:
477,96,12943,5,0,1:0:0:0:
477,96,13035,1,0,3:0:0:0:
477,96,13126,2,0,L|461:152,1,38.4999988250733,6|0,3:2|0:0,0:0:0:0:
463,110,13218,2,0,L|419:148,1,38.4999988250733,2|0,3:2|0:0,0:0:0:0:
430,110,13309,2,0,L|372:118,1,38.4999988250733,2|0,3:2|0:0,0:0:0:0:
372,90,13401,2,0,L|319:65,1,38.4999988250733,2|0,3:2|0:0,0:0:0:0:
315,109,13492,2,2,L|257:121,1,38.4999988250733,8|2,3:0|0:0,0:0:0:0:
299,161,13584,2,0,L|255:203,1,38.4999988250733,2|0,3:2|0:0,0:0:0:0:
331,213,13675,2,0,L|316:272,1,38.4999988250733,2|0,1:2|0:0,0:0:0:0:
401,248,13767,2,0,L|421:305,1,38.4999988250733,2|0,3:2|0:0,0:0:0:0:
482,234,13858,2,0,L|529:270,1,38.4999988250733,2|0,3:2|0:0,0:0:0:0:
400,323,13949,2,0,L|420:380,1,38.4999988250733,2|0,1:2|0:0,0:0:0:0:
289,274,14041,6,0,B|279:294|279:294|190:313,1,110,2|0,3:2|0:0,0:0:0:0:
0,165,14224,1,4,3:0:0:0:
0,165,14315,1,0,0:0:0:0:
0,165,14407,2,0,L|103:144,1,88,2|0,1:2|1:0,0:0:0:0:
300,384,14590,5,2,1:2:0:0:
300,384,14681,1,0,1:0:0:0:
300,384,14773,2,0,L|314:331,1,38.4999988250733,2|0,3:2|0:0,0:0:0:0:
234,344,14864,2,0,L|248:291,1,38.4999988250733,2|0,3:2|0:0,0:0:0:0:
168,304,14956,2,0,L|182:251,1,38.4999988250733,2|0,3:2|0:0,0:0:0:0:
102,264,15047,2,0,L|116:211,1,38.4999988250733,2|0,3:2|0:0,0:0:0:0:
276,227,15139,6,0,L|290:280,1,38.4999988250733,6|0,1:2|0:0,0:0:0:0:
210,267,15230,2,0,L|224:320,1,38.4999988250733,2|0,3:2|0:0,0:0:0:0:
144,307,15322,2,0,L|158:360,1,38.4999988250733,2|0,3:2|0:0,0:0:0:0:
78,347,15413,2,0,L|92:400,1,38.4999988250733,2|0,1:2|0:0,0:0:0:0:
27,250,15504,6,0,L|58:134,1,88,2|4,3:2|3:0,0:0:0:0:
180,1,15687,2,0,L|195:59,1,44,8|0,3:0|3:0,0:0:0:0:
0,109,15870,5,0,1:0:0:0:
0,109,15962,1,4,3:0:0:0:
0,109,16053,2,0,L|56:125,1,38.4999988250733,4|0,3:1|0:0,0:0:0:0:
12,137,16145,2,0,L|67:119,1,38.4999988250733,2|0,3:2|0:0,0:0:0:0:
54,157,16236,2,0,L|91:112,1,38.4999988250733,2|0,3:2|0:0,0:0:0:0:
107,154,16328,2,0,L|114:96,1,38.4999988250733,2|0,3:2|0:0,0:0:0:0:
167,152,16419,2,0,L|204:107,1,38.4999988250733,4|0,3:0|0:0,0:0:0:0:
232,184,16510,2,0,L|287:166,1,38.4999988250733,2|0,3:2|0:0,0:0:0:0:
265,255,16602,2,0,L|321:271,1,38.4999988250733,2|0,1:2|0:0,0:0:0:0:
256,333,16693,2,0,L|294:376,1,38.4999988250733,2|0,3:2|0:0,0:0:0:0:
324,345,16785,2,0,L|380:361,1,38.4999988250733,2|0,3:2|0:0,0:0:0:0:
387,278,16876,2,0,L|442:260,1,38.4999988250733,2|0,1:2|0:0,0:0:0:0:
386,183,16968,6,0,B|394:162|394:162|482:138,1,110,10|0,3:0|0:0,0:0:0:0:
276,19,17151,2,2,L|188:45,1,88,2|0,3:2|3:0,0:1:0:0:
376,16,17334,5,0,1:0:0:0:
384,19,17425,1,0,1:0:0:0:
393,21,17517,1,0,0:0:0:0:
402,24,17608,1,0,1:3:0:0:
410,26,17700,6,0,L|424:79,1,38.4999988250733,2|0,3:2|0:0,0:0:0:0:
344,66,17791,2,0,L|358:119,1,38.4999988250733,2|0,3:2|0:0,0:0:0:0:
278,106,17883,2,0,L|292:159,1,38.4999988250733,2|0,3:2|0:0,0:0:0:0:
212,146,17974,2,0,L|226:199,1,38.4999988250733,2|0,3:2|0:0,0:0:0:0:
386,183,18066,6,0,L|400:130,1,38.4999988250733,6|0,1:2|0:0,0:0:0:0:
320,143,18157,2,0,L|334:90,1,38.4999988250733,2|0,3:2|0:0,0:0:0:0:
254,103,18249,2,0,L|268:50,1,38.4999988250733,2|0,3:2|0:0,0:0:0:0:
188,63,18340,2,0,L|202:10,1,38.4999988250733,2|0,3:2|0:0,0:0:0:0:
133,153,18431,6,0,L|155:237,1,88,2|4,3:2|3:0,0:0:0:0:
276,380,18614,2,0,L|289:329,1,44,8|0,3:0|3:0,0:0:0:0:
33,251,18797,5,0,1:0:0:0:
33,251,18889,1,0,3:0:0:0:
33,251,18980,2,0,L|46:200,1,38.4999988250733,4|0,3:2|0:0,0:0:0:0:
60,273,19071,2,0,L|43:223,1,38.4999988250733,2|0,3:2|0:0,0:0:0:0:
102,277,19163,2,0,L|60:244,1,38.4999988250733,2|0,3:2|0:0,0:0:0:0:
149,245,19254,2,0,L|96:240,1,38.4999988250733,2|0,3:2|0:0,0:0:0:0:
173,201,19346,2,0,L|131:168,1,38.4999988250733,8|2,3:0|0:0,0:0:0:0:
249,196,19437,2,0,L|232:146,1,38.4999988250733,2|0,3:2|0:0,0:0:0:0:
322,229,19529,2,0,L|335:177,1,38.4999988250733,2|2,1:2|0:0,0:0:0:0:
366,295,19620,2,0,L|404:259,1,38.4999988250733,2|0,3:2|0:0,0:0:0:0:
359,383,19712,2,0,L|410:373,1,38.4999988250733,2|0,3:2|0:0,0:0:0:0:
436,273,19803,2,0,L|473:236,1,38.4999988250733,2|0,1:2|0:0,0:0:0:0:
365,166,19895,6,0,B|344:158|344:158|320:70,1,110,2|0,3:2|0:0,0:0:0:0:
485,0,20078,1,4,3:0:0:0:
485,0,20169,1,0,0:0:0:0:
485,0,20260,2,0,L|514:98,1,88,2|0,1:2|1:0,0:0:0:0:
178,37,20443,5,2,1:2:0:0:
178,37,20535,1,0,1:0:0:0:
178,37,20626,2,0,L|164:90,1,38.4999988250733,2|0,3:2|0:0,0:0:0:0:
244,77,20717,2,0,L|230:130,1,38.4999988250733,2|0,3:2|0:0,0:0:0:0:
310,117,20809,2,0,L|296:170,1,38.4999988250733,2|0,3:2|0:0,0:0:0:0:
376,157,20900,2,0,L|362:210,1,38.4999988250733,2|0,3:2|0:0,0:0:0:0:
202,194,20992,6,0,L|188:141,1,38.4999988250733,6|0,1:2|0:0,0:0:0:0:
268,154,21083,2,0,L|254:101,1,38.4999988250733,2|0,3:2|0:0,0:0:0:0:
334,114,21175,2,0,L|320:61,1,38.4999988250733,2|0,3:2|0:0,0:0:0:0:
400,74,21266,2,0,L|386:21,1,38.4999988250733,2|0,1:2|0:0,0:0:0:0:
451,171,21358,6,0,L|426:264,1,88,2|4,3:2|3:0,0:0:0:0:
324,384,21541,2,0,L|308:326,1,44,8|0,3:0|3:0,0:0:0:0:
512,280,21724,5,0,1:0:0:0:
512,280,21815,1,4,3:0:0:0:
512,280,21907,2,0,L|496:337,1,38.4999988250733,4|0,3:1|0:0,0:0:0:0:
490,299,21998,2,0,L|445:338,1,38.4999988250733,2|0,3:2|0:0,0:0:0:0:
453,303,22090,2,0,L|394:312,1,38.4999988250733,2|0,3:2|0:0,0:0:0:0:
419,263,22181,2,0,L|364:238,1,38.4999988250733,2|0,3:2|0:0,0:0:0:0:
383,200,22273,2,0,L|324:209,1,38.4999988250733,4|0,3:0|0:0,0:0:0:0:
330,144,22364,2,0,L|285:183,1,38.4999988250733,2|0,3:2|0:0,0:0:0:0:
251,118,22456,6,0,L|234:175,1,38.4999988250733,4|0,3:0|0:0,0:0:0:0:
162,150,22547,6,0,L|179:206,1,38.4999988250733,8|0,3:0|0:0,0:0:0:0:
105,233,22639,6,0,L|150:271,1,38.4999988250733,2|0,1:2|0:0,0:0:0:0:
60,305,22730,6,0,L|77:361,1,38.4999988250733,8|0,3:0|0:0,0:0:0:0:
0,247,22821,5,2,3:2:0:0:
0,247,22913,1,8,3:0:0:0:
0,247,23004,2,0,L|412:332,1,395.999987915039,4|0,1:2|3:0,0:0:0:0:
484,357,23370,5,8,3:0:0:0:
484,357,23462,1,8,3:0:0:0:
484,357,23553,2,0,P|498:296|412:273,1,148.49999546814,4|0,3:2|0:0,0:0:0:0:
427,255,23736,2,0,L|375:244,1,44
295,182,23919,2,0,B|304:205|304:205|391:226,1,88,2|0,1:2|0:0,0:0:0:0:
400,153,24102,1,0,3:0:0:0:
291,348,24285,2,0,L|387:327,1,98.9999969787599,2|0,0:0|0:0,0:0:0:0:
469,188,24468,2,0,L|521:177,1,44,2|0,3:2|1:0,0:0:0:0:
443,34,24834,5,2,0:0:0:0:
443,34,24925,1,0,0:0:0:0:
443,34,25017,2,0,P|415:98|334:62,1,148.49999546814,0|0,3:0|0:0,0:0:0:0:
345,94,25199,2,0,L|302:103,1,44,0|8,0:0|3:0,0:0:0:0:
238,62,25382,2,0,B|247:39|247:39|334:18,1,88,2|0,1:2|3:0,0:0:0:0:
295,182,25565,1,0,3:0:0:0:
128,6,25748,1,2,1:2:0:0:
130,16,25839,1,0,1:0:0:0:
132,27,25930,1,2,3:2:0:0:
135,38,26022,1,8,3:0:0:0:
71,73,26114,1,0,1:0:0:0:
182,134,26206,1,0,1:0:0:0:
177,109,26297,1,2,1:2:0:0:
172,81,26388,1,0,1:0:0:0:
75,154,26480,6,0,P|143:143|170:206,1,148.49999546814,2|0,3:2|0:0,0:0:0:0:
179,212,26663,2,0,L|222:203,1,44,2|4,0:0|0:3,0:0:0:0:
105,254,26846,2,0,B|114:277|114:277|201:298,1,88,2|0,1:2|0:0,0:0:0:0:
249,309,27029,1,2,3:2:0:0:
288,375,27212,2,0,L|331:384,1,44,2|0,0:0|0:0,0:0:0:0:
297,188,27395,2,0,L|411:164,1,88,2|0,3:2|0:0,0:0:0:0:
502,278,27578,2,0,L|514:224,6,44,2|0|0|0|2|0|0,1:2|0:0|0:0|0:0|0:0|0:0|0:0,0:0:0:0:
512,355,27943,6,0,P|443:365|416:302,1,148.49999546814,0|0,3:0|0:0,0:0:0:0:
408,296,28126,2,0,L|365:287,1,44,2|8,0:0|0:3,0:0:0:0:
383,170,28309,2,0,B|392:147|392:147|479:126,1,88,2|0,1:2|0:0,0:0:0:0:
435,220,28492,1,0,3:0:0:0:
256,0,28675,1,2,1:2:0:0:
233,72,28767,1,0,1:0:0:0:
266,91,28858,1,0,0:0:0:0:
272,101,28950,1,4,0:3:0:0:
147,126,29041,1,0,1:0:0:0:
124,54,29132,1,0,1:0:0:0:
197,30,29224,1,2,1:2:0:0:
220,102,29315,1,0,1:0:0:0:
32,112,29407,6,0,L|166:138,1,121.000003692627,2|0,3:1|0:0,0:0:0:0:
154,142,29590,2,0,L|69:125,1,76.9999976501466,8|2,3:0|3:1,0:0:0:0:
16,192,29773,6,0,L|150:218,1,121.000003692627,0|0,1:0|0:0,0:0:0:0:
138,222,29956,2,0,L|53:205,1,76.9999976501466,4|0,3:0|0:0,0:0:0:0:
151,329,30139,5,2,0:3:0:0:
170,333,30230,1,0,0:0:0:0:
218,316,30321,5,2,3:2:0:0:
199,312,30412,1,0,0:0:0:0:
192,355,30504,5,0,1:0:0:0:
196,336,30595,1,0,0:0:0:0:
179,288,30686,5,2,0:0:0:0:
175,307,30779,1,0,0:0:0:0:
293,344,30870,6,0,L|427:318,1,121.000003692627,2|0,3:1|0:0,0:0:0:0:
415,314,31053,2,0,L|330:331,1,76.9999976501466,0|2,0:0|3:1,0:0:0:0:
277,264,31236,6,0,L|411:238,1,121.000003692627,2|0,1:2|0:0,0:0:0:0:
399,234,31419,2,0,L|314:251,1,76.9999976501466,4|0,3:0|0:3,0:0:0:0:
370,119,31602,5,2,1:2:0:0:
411,127,31693,1,0,1:0:0:0:
510,85,31785,5,8,3:0:0:0:
469,77,31876,1,0,0:0:0:0:
453,176,31968,5,0,1:0:0:0:
461,135,32059,1,0,1:0:0:0:
419,36,32151,5,2,1:2:0:0:
411,77,32242,1,0,1:0:0:0:
299,147,32334,6,0,L|165:121,1,121.000003692627,2|0,3:1|0:0,0:0:0:0:
177,117,32517,2,0,L|262:134,1,76.9999976501466,2|2,0:0|3:1,0:0:0:0:
315,67,32700,6,0,L|181:41,1,121.000003692627,2|0,1:2|0:0,0:0:0:0:
193,37,32883,2,0,L|278:54,1,76.9999976501466,4|0,3:0|0:0,0:0:0:0:
52,166,33065,5,2,0:3:0:0:
71,162,33156,1,0,0:0:0:0:
119,179,33247,5,2,3:2:0:0:
100,183,33340,1,0,0:0:0:0:
93,140,33430,5,0,1:0:0:0:
97,159,33523,1,0,0:0:0:0:
80,207,33614,5,2,0:0:0:0:
76,188,33706,1,0,0:0:0:0:
37,274,33797,6,0,L|171:300,1,121.000003692627,2|0,3:1|0:0,0:0:0:0:
159,304,33980,2,0,L|74:287,1,76.9999976501466,0|2,0:0|3:1,0:0:0:0:
21,354,34163,6,0,L|155:380,1,121.000003692627,2|0,1:2|0:0,0:0:0:0:
143,384,34346,2,0,L|58:367,1,76.9999976501466,8|0,3:0|0:0,0:0:0:0:
219,358,34529,5,0,1:0:0:0:
238,362,34621,5,0,1:0:0:0:
256,328,34712,5,0,0:0:0:0:
310,319,34804,5,0,3:0:0:0:
328,260,34895,5,0,1:0:0:0:
393,225,34987,5,0,1:0:0:0:
386,146,35078,5,8,3:0:0:0:
425,76,35169,5,4,3:0:0:0:
360,7,35261,5,4,3:1:0:0:
360,7,36724,5,4,3:2:0:0:
254,363,38187,5,4,3:2:0:0:
254,363,39651,5,4,3:2:0:0:
0,27,41114,5,4,3:1:0:0:
74,41,41480,5,0,3:0:0:0:
148,55,41846,5,0,3:0:0:0:
222,69,42212,5,0,3:0:0:0:
512,357,42578,5,4,3:2:0:0:
438,343,42944,5,0,3:0:0:0:
364,329,43310,5,0,3:0:0:0:
290,315,43676,5,0,3:0:0:0:
256,192,44041,5,4,3:2:0:0:
256,192,44407,5,0,3:0:0:0:
256,192,44773,5,0,3:0:0:0:
256,192,45139,5,0,3:0:0:0:
235,384,45504,6,0,L|214:303,1,65.9999979858399,2|0,1:2|0:0,0:0:0:0:
299,316,45687,5,8,3:0:0:0:
299,316,45779,1,4,3:0:0:0:
299,316,45870,2,0,L|310:358,1,44,2|0,1:2|0:0,0:0:0:0:
135,335,46053,5,0,3:0:0:0:
135,335,46145,1,8,3:0:0:0:
135,335,46236,2,0,L|157:247,1,88,2|0,1:2|0:0,0:0:0:0:
306,0,46419,5,0,3:0:0:0:
306,0,46510,1,4,3:0:0:0:
306,0,46602,2,0,L|391:360,1,363.000011077881,2|0,1:2|0:0,0:0:0:0:
492,314,46968,6,0,B|482:294|482:294|393:275,1,110,4|0,1:2|0:0,0:0:0:0:
62,210,47151,1,0,0:0:0:0:
62,210,47242,1,8,1:0:0:0:
62,210,47334,2,0,L|127:225,1,66,0|0,0:0|1:0,0:0:0:0:
159,157,47699,2,0,L|148:111,2,44,2|2|0,0:1|0:0|3:0,0:0:0:0:
127,225,48248,1,2,0:0:0:0:
7,135,48431,6,0,B|26:168|26:168|246:219,1,242.000007385254,6|0,1:0|0:0,0:0:0:0:
252,285,48706,2,0,L|284:278,1,32.99999899292,8|0,1:0|0:0,0:0:0:0:
332,105,48797,2,0,L|364:98,1,32.99999899292,8|0,3:0|0:0,0:0:0:0:
421,151,48980,1,12,1:0:0:0:
447,69,49163,2,0,L|352:92,1,88,2|0,0:1|0:0,0:0:0:0:
503,184,49895,6,0,B|483:194|483:194|464:283,1,110,6|0,1:0|0:0,0:0:0:0:
88,46,50078,1,0,0:0:0:0:
88,46,50169,1,12,1:0:0:0:
88,46,50261,2,0,L|98:0,1,44,0|14,0:0|1:0,0:0:0:0:
174,48,50626,1,2,0:1:0:0:
174,48,50809,1,2,0:1:0:0:
174,48,50992,1,2,0:0:0:0:
137,115,51175,2,0,L|94:124,1,44,2|0,0:0|0:0,0:0:0:0:
258,106,51358,6,0,L|-21:47,2,263.99999194336,6|0|8,1:0|1:0|3:0,0:0:0:0:
338,59,51815,1,0,0:0:0:0:
329,56,51907,2,0,L|337:94,1,32.99999899292,2|0,1:0|0:0,0:0:0:0:
195,187,51998,2,0,L|203:225,1,32.99999899292
253,273,52090,6,0,L|273:180,1,82.5000031471254,8|0,0:1|0:0,0:0:0:0:
0,328,52821,6,0,B|10:348|10:348|99:367,1,110,6|0,1:0|0:0,0:0:0:0:
430,169,53005,1,0,3:0:0:0:
430,169,53096,1,8,3:0:0:0:
430,169,53188,2,0,L|495:154,1,66,4|0,3:0|0:0,0:0:0:0:
500,162,53507,5,0,0:0:0:0:
500,162,53553,2,0,L|485:208,2,44,12|2|2,0:1|0:1|0:1,0:0:0:0:
228,57,54285,6,0,L|273:327,1,263.99999194336,6|8,1:0|3:0,0:0:0:0:
220,371,54559,2,0,L|188:364,1,32.99999899292,4|0,3:0|0:0,0:0:0:0:
140,191,54650,2,0,L|108:184,1,32.99999899292,0|0,3:0|0:0,0:0:0:0:
51,237,54833,1,2,1:0:0:0:
21,156,55017,2,0,L|112:176,1,88,14|0,0:1|0:0,0:0:0:0:
176,371,55748,6,0,B|156:361|156:361|137:272,1,110,6|0,1:0|0:0,0:0:0:0:
349,45,55931,1,4,3:0:0:0:
349,45,56022,1,2,1:0:0:0:
349,45,56114,2,0,L|359:-1,1,44,10|2,1:0|1:0,0:0:0:0:
247,50,56480,2,0,L|491:-3,2,220,10|2|8,0:1|3:1|3:0,0:0:0:0:
512,381,57212,6,0,B|502:361|502:361|413:342,1,110,6|0,1:0|0:0,0:0:0:0:
25,218,57395,1,8,3:0:0:0:
25,218,57486,1,4,3:0:0:0:
25,218,57578,2,0,L|78:229,1,44,2|2,3:1|0:1,0:0:0:0:
155,319,57760,6,0,L|68:301,1,88,2|0,1:0|3:0,0:0:0:0:
40,361,57943,5,0,1:0:0:0:
29,334,58035,5,0,1:0:0:0:
68,301,58126,5,0,1:0:0:0:
68,227,58218,5,0,1:0:0:0:
146,190,58309,5,0,1:0:0:0:
176,99,58401,5,8,1:3:0:0:
277,89,58492,5,0,1:0:0:0:
357,25,58583,5,4,1:3:0:0:
471,87,58675,6,0,B|457:95|457:95|402:331,1,242.000007385254,10|0,3:2|0:0,0:0:0:0:
349,218,58949,5,0,3:0:0:0:
511,265,59041,2,0,L|209:329,1,285.99998690796,10|0,1:2|3:0,0:0:0:0:
491,353,59315,5,0,3:0:0:0:
371,384,59407,2,0,B|402:371|402:371|431:251,1,142.99999345398,10|0,3:2|1:0,0:0:0:0:
279,155,59590,5,8,3:0:0:0:
279,155,59681,1,0,3:0:0:0:
279,155,59773,2,0,P|290:217|355:212,1,131.99999597168,10|0,1:2|0:0,0:0:0:0:
404,164,59956,6,0,B|399:153|399:153|357:143,1,55,8|0,3:0|3:0,0:0:0:0:
97,8,60139,6,0,L|215:34,1,110,10|0,3:2|3:0,0:0:0:0:
152,109,60413,5,0,3:0:0:0:
69,25,60504,2,0,B|86:13|86:13|189:36,1,110,10|0,1:2|3:0,0:0:0:0:
70,202,60687,6,0,P|14:200|5:144,1,121.000003692627,8|0,3:0|3:0,0:0:0:0:
209,41,60870,6,0,L|166:234,1,197.99999395752,4|0,3:0|0:0,0:0:0:0:
302,314,61053,6,0,L|281:404,1,65.9999979858399,8|0,1:1|3:0,0:0:0:0:
161,231,61236,2,0,L|140:321,1,65.9999979858399,12|0,1:0|0:0,0:0:0:0:
16,307,61419,5,0,3:0:0:0:
16,307,61510,1,0,3:0:0:0:
16,307,61602,2,0,B|24:293|24:293|260:238,1,242.000007385254,10|8,3:2|3:0,0:0:0:0:
302,314,61876,5,0,3:0:0:0:
207,168,61968,2,0,B|236:206|236:206|472:259,1,285.99998690796,10|8,1:2|3:0,0:0:0:0:
244,242,62242,5,0,1:0:0:0:
308,89,62334,2,0,B|339:102|339:102|368:222,1,142.99999345398,10|0,3:2|1:0,0:0:0:0:
486,372,62517,5,8,3:0:0:0:
486,372,62608,1,0,3:0:0:0:
486,372,62700,2,0,P|475:310|410:315,1,131.99999597168,10|8,1:2|3:0,0:0:0:0:
360,384,62882,6,0,L|428:108,1,263.99999194336,4|10,3:0|3:2,0:0:0:0:
386,0,63157,5,0,1:0:0:0:
512,80,63248,2,0,B|499:109|499:109|386:136,1,110,8|0,3:0|3:0,0:0:0:0:
237,31,63431,5,8,1:2:0:0:
220,35,63523,1,0,3:0:0:0:
177,95,63614,1,2,3:2:0:0:
160,99,63706,1,0,3:0:0:0:
87,74,63797,5,4,3:0:0:0:
117,81,63889,1,0,3:0:0:0:
147,88,63980,1,8,3:1:0:0:
177,95,64071,1,0,1:0:0:0:
50,5,64163,5,8,1:0:0:0:
69,90,64254,1,0,3:0:0:0:
89,176,64345,1,4,3:0:0:0:
109,261,64437,1,4,3:0:0:0:
17,259,64529,6,0,B|100:231|100:231|103:236|103:236|135:184|135:184|138:189|138:189|243:154,1,263.99999194336,4|2,3:1|3:0,0:0:0:0:
305,190,64803,5,0,0:0:0:0:
182,212,64895,2,0,B|195:241|195:241|308:268,1,110,2|2,1:0|0:1,0:0:0:0:
331,361,65078,5,2,0:3:0:0:
334,348,65169,1,2,0:1:0:0:
252,333,65260,5,4,3:0:0:0:
323,316,65351,1,0,0:0:0:0:
394,299,65442,1,2,3:3:0:0:
465,282,65535,1,0,0:0:0:0:
463,378,65626,6,0,B|440:368|440:368|406:223|406:223|383:213,1,197.99999395752,2|0,1:0|0:0,0:0:0:0:
389,207,65809,2,0,L|501:175,1,110,2|0,0:3|0:0,0:0:0:0:
252,0,65992,5,8,3:0:0:0:
262,15,66084,1,0,0:0:0:0:
235,35,66175,5,2,0:3:0:0:
226,65,66267,1,0,0:0:0:0:
183,54,66358,5,2,1:0:0:0:
124,89,66450,1,0,0:0:0:0:
92,48,66540,5,2,0:3:0:0:
62,147,66632,1,0,0:0:0:0:
18,133,66724,5,4,3:0:0:0:
66,224,66816,1,0,0:0:0:0:
23,285,66907,5,2,3:3:0:0:
121,315,66999,1,0,0:0:0:0:
158,381,67090,5,2,1:0:0:0:
169,374,67182,1,0,1:0:0:0:
180,368,67273,1,4,3:0:0:0:
190,361,67364,1,8,3:0:0:0:
192,282,67456,6,0,B|290:314|290:314|293:309|293:309|325:361|325:361|328:356|328:356|411:384,1,263.99999194336,4|2,3:1|0:3,0:0:0:0:
283,217,67730,5,0,0:0:0:0:
344,325,67821,2,0,B|373:312|373:312|400:199,1,110,2|2,1:0|0:1,0:0:0:0:
272,127,68004,5,2,0:3:0:0:
275,114,68095,1,2,0:1:0:0:
193,99,68187,5,4,3:0:0:0:
264,82,68279,1,0,0:0:0:0:
335,65,68370,1,2,0:3:0:0:
406,48,68462,1,0,0:0:0:0:
268,4,68553,6,0,B|291:14|291:14|325:159|325:159|348:169,1,197.99999395752,2|0,1:0|0:0,0:0:0:0:
356,165,68736,2,0,L|478:206,1,110,2|0,0:3|0:0,0:0:0:0:
512,131,68919,5,8,3:0:0:0:
497,121,69011,1,0,0:0:0:0:
477,148,69102,5,0,1:0:0:0:
447,157,69194,1,0,1:0:0:0:
460,200,69285,5,0,1:0:0:0:
429,254,69377,1,8,3:0:0:0:
470,286,69467,5,8,3:0:0:0:
371,316,69559,1,6,3:0:0:0:
362,371,69651,5,0,1:0:0:0:
271,323,69743,1,4,3:0:0:0:
207,358,69834,5,8,3:0:0:0:
176,259,69926,1,8,3:0:0:0:
90,315,70017,5,4,3:0:0:0:
104,318,70108,1,0,1:0:0:0:
119,321,70199,1,8,3:3:0:0:
135,325,70291,1,4,3:0:0:0:
38,381,70382,6,0,B|52:373|52:373|107:137,1,242.000007385254,10|0,3:2|3:0,0:0:0:0:
127,25,70657,5,0,3:0:0:0:
4,137,70748,2,0,L|295:63,1,285.99998690796,10|8,1:2|3:0,0:0:0:0:
439,114,71023,5,0,1:0:0:0:
359,20,71114,2,0,B|328:33|328:33|299:153,1,142.99999345398,10|8,3:2|3:0,0:0:0:0:
187,171,71297,2,0,L|249:187,1,55,4|0,3:0|3:0,0:0:0:0:
364,95,71480,6,0,B|391:106|391:106|418:214,1,110,10|0,1:2|3:0,0:0:0:0:
488,248,71663,2,0,L|369:278,1,110,4|0,3:0|3:0,0:0:0:0:
266,354,71846,6,0,L|292:235,1,110,10|8,3:2|3:0,0:0:0:0:
403,351,72120,5,0,3:0:0:0:
282,383,72212,2,0,B|270:366|270:366|293:263,1,110,10|0,1:2|0:0,0:0:0:0:
476,243,72395,6,0,P|466:187|410:185,1,121.000003692627,4|0,3:0|3:0,0:0:0:0:
201,286,72578,6,0,L|158:93,1,197.99999395752,10|0,3:2|0:0,0:0:0:0:
347,7,72760,6,0,L|411:21,1,65.9999979858399,8|0,1:1|3:0,0:0:0:0:
166,97,72943,2,0,L|230:111,1,65.9999979858399,12|0,1:0|0:0,0:0:0:0:
9,42,73126,5,0,0:0:0:0:
9,42,73218,1,0,3:0:0:0:
9,42,73309,2,0,B|17:56|17:56|253:107,1,242.000007385254,10|4,3:2|3:0,0:0:0:0:
2,140,73584,5,0,3:0:0:0:
110,24,73675,2,0,B|162:256|162:256|200:285,1,285.99998690796,10|8,1:2|3:0,0:0:0:0:
336,373,73949,5,0,1:0:0:0:
276,242,74041,2,0,B|245:255|245:255|216:375,1,142.99999345398,10|4,3:2|3:0,0:0:0:0:
0,293,74224,5,8,3:0:0:0:
0,293,74315,1,0,3:0:0:0:
0,293,74407,2,0,P|11:231|76:236,1,131.99999597168,10|2,1:2|3:0,0:0:0:0:
80,310,74590,6,0,L|356:378,1,263.99999194336,2|8,3:2|3:2,0:0:0:0:
470,241,74864,5,0,1:0:0:0:
414,384,74956,2,0,B|388:373|388:373|364:273,1,110,4|0,3:0|3:0,0:0:0:0:
344,110,75139,6,0,L|468:142,1,110,10|0,1:2|3:0,0:0:0:0:
478,249,75321,2,0,L|454:343,1,76.9999976501466,6|0,3:0|3:0,0:0:0:0:
256,37,75504,5,10,3:2:0:0:
259,51,75595,1,0,1:0:0:0:
262,66,75686,1,0,1:0:0:0:
266,82,75778,1,0,1:0:0:0:
334,114,75870,5,4,3:0:0:0:
259,94,75961,1,4,3:0:0:0:
184,75,76052,1,8,3:0:0:0:
110,56,76144,1,0,1:0:0:0:
60,121,76236,6,0,L|86:227,1,110,4|0,3:1|0:0,0:0:0:0:
181,320,76419,2,0,L|198:383,1,55,2|0,0:3|0:0,0:0:0:0:
1,205,76602,6,0,L|85:227,1,88,2|2,1:0|0:1,0:0:0:0:
236,267,76785,2,0,L|299:284,1,55,2|2,0:3|0:1,0:0:0:0:
75,371,76968,6,0,B|89:363|89:363|144:127,2,242.000007385254,4|2|2,3:0|0:3|1:0,0:0:0:0:
0,288,77517,6,0,L|351:193,1,363.000011077881,2|0,3:3|0:0,0:0:0:0:
418,364,77882,6,0,L|503:387,1,76.9999976501466,2|0,3:3|0:0,0:0:0:0:
324,121,78065,2,0,L|186:158,1,110,2|2,1:0|0:1,0:0:0:0:
390,267,78248,5,2,0:3:0:0:
390,267,78340,5,2,0:1:0:0:
390,267,78431,5,4,3:0:0:0:
420,225,78523,5,0,1:0:0:0:
438,155,78614,5,8,1:1:0:0:
424,76,78706,5,0,1:0:0:0:
358,12,78797,5,8,3:1:0:0:
261,9,78889,5,0,3:0:0:0:
191,49,78981,5,0,3:0:0:0:
149,108,79072,5,0,1:0:0:0:
137,158,79163,6,0,B|160:174|160:174|201:395,1,242.000007385254,4|2,3:1|0:3,0:0:0:0:
213,243,79437,5,0,0:0:0:0:
48,290,79529,2,0,L|189:326,1,110,2|2,1:0|0:1,0:0:0:0:
303,196,79712,5,2,0:3:0:0:
303,196,79803,1,2,0:1:0:0:
303,196,79895,2,0,B|292:223|292:223|184:250,1,110,4|0,3:0|0:0,0:0:0:0:
51,369,80078,6,0,L|122:385,1,55,2|0,0:3|0:0,0:0:0:0:
366,247,80260,2,0,L|394:373,1,110,2|0,1:0|0:0,0:0:0:0:
199,384,80443,6,0,B|232:360|232:360|292:36,1,363.000011077881,2|0,0:3|0:0,0:0:0:0:
373,17,80809,5,0,1:0:0:0:
373,17,80901,1,0,1:0:0:0:
373,17,80992,2,0,L|352:132,1,98.9999969787599,0|0,1:0|0:0,0:0:0:0:
187,161,81175,5,8,3:0:0:0:
187,161,81267,1,0,1:0:0:0:
187,161,81358,2,0,L|172:241,1,76.9999976501466,4|0,3:0|0:0,0:0:0:0:
280,310,81541,5,8,1:0:0:0:
280,310,81632,5,0,1:0:0:0:
280,310,81724,5,12,1:0:0:0:
351,292,81815,5,4,3:0:0:0:
367,343,81907,5,4,3:0:0:0:
438,325,81998,5,8,3:0:0:0:
438,325,82089,6,0,L|425:276,1,38.4999988250733,4|0,3:2|0:0,0:0:0:0:
456,299,82181,2,0,L|471:250,1,38.4999988250733,2|0,3:2|0:0,0:0:0:0:
419,257,82273,2,0,L|406:207,1,38.4999988250733,2|0,3:2|0:0,0:0:0:0:
365,250,82364,2,0,L|327:215,1,38.4999988250733,2|0,3:2|0:0,0:0:0:0:
400,191,82456,2,0,L|387:141,1,38.4999988250733,2|0,1:2|0:0,0:0:0:0:
470,162,82547,2,0,L|485:113,1,38.4999988250733,2|0,3:2|0:0,0:0:0:0:
381,121,82639,2,0,L|368:71,1,38.4999988250733,2|0,3:2|0:0,0:0:0:0:
297,116,82730,2,0,L|259:81,1,38.4999988250733,2|0,3:2|0:0,0:0:0:0:
396,52,82821,6,0,B|405:29|405:29|490:9,1,110,2|4,3:2|3:0,0:0:0:0:
266,186,83004,2,0,L|206:200,1,55,8|0,3:0|3:0,0:0:0:0:
0,150,83187,5,0,1:0:0:0:
0,150,83279,1,0,3:0:0:0:
0,150,83370,2,0,L|63:134,1,38.4999988250733,6|0,3:2|0:0,0:0:0:0:
17,160,83462,2,0,L|78:180,1,38.4999988250733,2|0,3:2|0:0,0:0:0:0:
39,192,83553,2,0,L|79:243,1,38.4999988250733,2|0,3:2|0:0,0:0:0:0:
35,247,83645,2,0,L|96:267,1,38.4999988250733,2|0,3:2|0:0,0:0:0:0:
59,303,83736,2,2,L|122:287,1,38.4999988250733,8|2,3:0|0:0,0:0:0:0:
112,340,83828,2,0,L|156:292,1,38.4999988250733,2|0,3:2|0:0,0:0:0:0:
186,342,83919,2,0,L|197:277,1,38.4999988250733,2|0,1:2|0:0,0:0:0:0:
252,300,84010,2,0,L|226:240,1,38.4999988250733,2|0,3:2|0:0,0:0:0:0:
324,313,84102,2,0,L|334:248,1,38.4999988250733,2|0,3:2|0:0,0:0:0:0:
372,374,84193,2,0,L|416:325,1,38.4999988250733,2|0,1:2|0:0,0:0:0:0:
474,344,84285,6,0,B|464:364|464:364|375:383,1,110,2|0,3:2|0:0,0:0:0:0:
367,203,84468,1,4,3:0:0:0:
367,203,84559,1,0,0:0:0:0:
367,203,84651,2,0,L|489:180,1,110,2|0,1:2|1:0,0:0:0:0:
142,19,84834,5,2,1:2:0:0:
142,19,84925,1,0,1:0:0:0:
142,19,85017,2,0,L|155:68,1,38.4999988250733,2|0,3:2|0:0,0:0:0:0:
124,45,85109,2,0,L|109:94,1,38.4999988250733,2|0,3:2|0:0,0:0:0:0:
160,85,85199,2,0,L|173:135,1,38.4999988250733,2|0,3:2|0:0,0:0:0:0:
209,98,85292,2,0,L|247:133,1,38.4999988250733,2|0,3:2|0:0,0:0:0:0:
178,158,85382,2,0,L|191:208,1,38.4999988250733,6|0,1:2|0:0,0:0:0:0:
112,199,85475,2,0,L|97:248,1,38.4999988250733,2|0,3:2|0:0,0:0:0:0:
199,230,85565,2,0,L|217:293,1,38.4999988250733,2|0,3:2|0:0,0:0:0:0:
292,247,85658,2,0,L|330:282,1,38.4999988250733,2|0,1:2|0:0,0:0:0:0:
184,298,85748,6,0,B|174:318|174:318|85:337,1,110,2|4,3:2|3:0,0:0:0:0:
310,172,85931,2,0,L|378:159,1,55,8|0,3:0|3:0,0:0:0:0:
314,384,86114,5,0,1:0:0:0:
314,384,86206,1,4,3:0:0:0:
314,384,86297,2,0,L|295:330,1,38.4999988250733,4|0,3:1|0:0,0:0:0:0:
333,358,86389,2,0,L|346:302,1,38.4999988250733,2|0,3:2|0:0,0:0:0:0:
367,354,86480,2,0,L|394:328,1,38.4999988250733,2|0,3:2|0:0,0:0:0:0:
406,334,86571,2,0,L|442:327,1,38.4999988250733,2|0,3:2|0:0,0:0:0:0:
415,315,86663,2,0,L|442:289,1,38.4999988250733,4|0,3:0|0:0,0:0:0:0:
388,263,86754,2,0,L|396:226,1,38.4999988250733,2|0,3:2|0:0,0:0:0:0:
317,237,86846,2,0,L|304:201,1,38.4999988250733,2|0,1:2|0:0,0:0:0:0:
378,188,86937,2,0,L|386:151,1,38.4999988250733,2|0,3:2|0:0,0:0:0:0:
461,182,87029,2,0,L|488:156,1,38.4999988250733,2|0,3:2|0:0,0:0:0:0:
366,110,87120,2,0,L|374:73,1,38.4999988250733,2|0,1:2|0:0,0:0:0:0:
234,130,87212,6,0,B|224:110|224:110|135:91,1,110,2|0,1:2|1:0,0:0:0:0:
313,5,87395,6,2,B|302:48|302:48|298:47|298:47|302:48|302:48|292:91,1,88,4|0,3:1|1:0,0:1:0:0:
238,355,87943,5,4,3:2:0:0:
