osu file format v14

[General]
AudioFilename: audio.mp3
AudioLeadIn: 0
PreviewTime: 58584
Countdown: 0
SampleSet: Soft
StackLeniency: 0.9
Mode: 0
LetterboxInBreaks: 0
WidescreenStoryboard: 1

[Editor]
Bookmarks: 11846,23553,35260,46968,58675
DistanceSpacing: 0.4
BeatDivisor: 8
GridSize: 32
TimelineZoom: 2.000001

[Metadata]
Title:first death (TV Size)
TitleUnicode:first death (TV Size)
Artist:TK from Ling tosite sigure
ArtistUnicode:TK from 凛として時雨
Creator:Bazz B
Version:light insane
Source:チェンソーマン
Tags:-mikan mikan bazz_b petal matha -_Matha_- vanya2 Big Sis Vaporfly God Haachama chainsaw man csm anime japanese rock j-rock jrock ed ending 8 eight
BeatmapID:3907327
BeatmapSetID:1894662

[Difficulty]
HPDrainRate:5
CircleSize:3.8
OverallDifficulty:8
ApproachRate:8.5
SliderMultiplier:1.8
SliderTickRate:1

[Events]
//Background and Video events
0,0,"102503233_p0_master1200.jpg",0,0
Video,-90,"dfdsaf.mp4"
//Break Periods
//Storyboard Layer 0 (Background)
//Storyboard Layer 1 (Fail)
//Storyboard Layer 2 (Pass)
//Storyboard Layer 3 (Foreground)
//Storyboard Layer 4 (Overlay)
//Storyboard Sound Samples

[TimingPoints]
139,365.853658536586,4,2,1,65,1,0
1236,-83.3333333333333,4,2,1,65,0,0
1785,-100,4,2,1,65,0,0
2699,-76.9230769230769,4,2,1,65,0,0
3065,-100,4,2,1,65,0,0
4163,-76.9230769230769,4,2,1,65,0,0
4529,-100,4,2,1,65,0,0
7090,-142.857142857143,4,2,1,65,0,0
8370,-100,4,2,1,65,0,0
10017,-142.857142857143,4,2,1,65,0,0
10748,-100,4,2,1,65,0,0
11480,-76.9230769230769,4,2,1,65,0,0
11503,-76.9230769230769,4,2,1,25,0,0
11846,-100,4,2,1,75,0,0
17151,-76.9230769230769,4,2,1,75,0,0
17471,-76.9230769230769,4,2,1,5,0,0
17517,-76.9230769230769,4,2,1,75,0,0
17699,-100,4,2,1,75,0,0
23553,-125,4,2,1,55,0,0
35260,-125,4,2,1,45,0,0
45139,-166.666666666667,4,2,1,45,0,0
45504,-100,4,2,1,65,0,0
46602,-83.3333333333333,4,2,1,65,0,0
46968,-76.9230769230769,4,2,2,75,0,0
47517,-153.846153846153,4,2,2,75,0,0
48431,-76.9230769230769,4,2,2,75,0,0
49163,-153.846153846153,4,2,2,75,0,0
49895,-76.9230769230769,4,2,2,75,0,0
50626,-153.846153846153,4,2,2,75,0,0
51358,-76.9230769230769,4,2,2,75,0,0
51724,-100,4,2,2,75,0,0
52821,-76.9230769230769,4,2,2,75,0,0
53187,-100,4,2,2,75,0,0
53553,-153.846153846153,4,2,2,75,0,0
54285,-76.9230769230769,4,2,2,75,0,0
54651,-100,4,2,2,75,0,0
55017,-153.846153846153,4,2,2,75,0,0
55748,-100,4,2,2,75,0,0
57212,-76.9230769230769,4,2,2,75,0,0
57578,-100,4,2,2,75,0,0
57943,-100,4,2,1,75,0,0
58309,-100,4,2,1,80,0,0
58675,-66.6666666666667,4,2,1,90,0,1
59407,-100,4,2,1,90,0,1
60139,-66.6666666666667,4,2,1,90,0,1
60870,-100,4,2,1,90,0,1
61236,-76.9230769230769,4,2,1,90,0,1
61968,-66.6666666666667,4,2,1,90,0,1
62334,-100,4,2,1,90,0,1
64529,-100,4,2,1,80,0,1
70382,-66.6666666666667,4,2,1,90,0,1
71114,-100,4,2,1,90,0,1
71846,-66.6666666666667,4,2,1,90,0,1
72578,-100,4,2,1,90,0,1
72943,-76.9230769230769,4,2,1,90,0,1
73309,-76.9230769230769,4,2,1,90,0,1
73675,-66.6666666666667,4,2,1,90,0,1
74041,-100,4,2,1,90,0,1
76236,-100,4,2,1,80,0,1
79163,-76.9230769230769,4,2,1,80,0,1
79895,-100,4,2,1,80,0,1
81724,-66.6666666666667,4,2,1,80,0,1
82090,-100,4,2,1,75,0,0
87395,-66.6666666666667,4,2,1,75,0,0

[Colours]
Combo1 : 241,220,67
Combo2 : 192,192,192
Combo3 : 64,255,112
Combo4 : 0,128,255
Combo5 : 255,162,68
Combo6 : 255,74,74

[HitObjects]
207,20,139,5,4,3:1:0:0:
164,119,321,1,2,3:2:0:0:
78,152,504,22,0,P|72:130|61:110,1,45,2|0,1:2|3:0,0:0:0:0:
139,212,687,53,8,3:0:0:0:
133,219,779,1,0,0:0:0:0:
132,227,870,1,2,0:0:0:0:
167,303,1053,1,0,3:0:0:0:
106,384,1236,22,0,B|143:325|210:331|210:331|239:358,1,161.999995056153,0|0,1:0|0:0,0:0:0:0:
328,368,1602,53,0,3:0:0:0:
338,370,1693,1,0,3:0:0:0:
347,363,1785,2,0,L|338:318,1,45,2|0,3:2|3:0,0:0:0:0:
438,265,1968,2,0,P|431:292|430:313,1,45,0|0,1:2|3:0,0:0:0:0:
505,349,2151,21,8,3:0:0:0:
359,223,2334,1,2,0:3:0:0:
475,157,2517,53,8,3:1:0:0:
476,168,2608,1,0,3:0:0:0:
471,176,2699,2,0,B|421:177|380:150|418:121|361:83|297:114,1,175.499991966248,8|0,1:0|0:0,0:0:0:0:
259,41,3065,22,0,L|306:28,3,45,0|0|2|0,3:0|3:0|3:2|3:0,0:0:0:0:
215,114,3431,2,0,P|177:97|158:95,1,45,2|0,1:2|3:0,0:0:0:0:
44,42,3614,53,8,3:0:0:0:
88,129,3797,1,2,0:0:0:0:
148,18,3980,21,0,3:0:0:0:
21,183,4163,2,0,P|93:178|131:208,1,116.999994644165,0|2,1:0|0:0,0:0:0:0:
194,163,4437,53,0,0:0:0:0:
205,156,4529,2,0,P|216:123|211:106,3,45,0|0|2|0,3:0|3:0|3:2|3:0,0:0:0:0:
259,41,4895,21,0,1:0:0:0:
308,195,5078,1,4,3:0:0:0:
417,10,5260,53,0,1:0:0:0:
385,85,5443,1,8,0:1:0:0:
385,85,5992,22,0,P|417:120|419:132,1,45,6|0,3:2|3:0,0:0:0:0:
486,138,6175,2,0,P|489:178|479:199,1,45,8|0,3:0|3:0,0:0:0:0:
428,236,6358,54,0,P|369:214|320:212,1,90,2|8,1:2|3:0,0:0:0:0:
205,156,6724,1,2,0:3:0:0:
205,156,6815,1,0,0:0:0:0:
205,156,6907,2,0,L|255:142,1,45,0|0,3:2|0:0,0:0:0:0:
307,86,7090,22,0,P|329:48|310:-4,1,94.499997116089,2|0,1:2|0:0,0:0:0:0:
309,3,7456,1,2,3:2:0:0:
405,78,7639,1,8,3:0:0:0:
224,66,7821,53,2,1:2:0:0:
466,4,8004,1,8,3:0:0:0:
429,175,8187,21,2,0:3:0:0:
426,186,8279,1,0,0:0:0:0:
417,192,8370,2,0,L|428:236,1,45,4|8,3:0|3:0,0:0:0:0:
488,325,8553,2,0,P|492:299|505:276,3,45,2|2|2|2,1:2|0:0|0:0|0:0,0:0:0:0:
404,314,8919,54,0,P|380:331|352:331,1,45,2|0,3:2|3:0,0:0:0:0:
300,375,9102,2,0,P|263:360|257:347,1,45,8|0,3:0|3:0,0:0:0:0:
203,305,9285,2,0,L|223:218,1,90,2|8,1:2|3:0,0:0:0:0:
106,123,9651,21,2,0:3:0:0:
94,118,9742,1,0,0:0:0:0:
88,129,9834,2,0,L|103:183,1,45,4|0,3:0|0:0,0:0:0:0:
104,249,10017,2,0,P|68:226|16:228,1,94.499997116089,2|2,1:2|0:0,0:0:0:0:
12,236,10382,53,2,3:2:0:0:
203,180,10565,1,8,3:0:0:0:
203,180,10657,1,0,0:0:0:0:
203,180,10748,2,0,L|262:204,3,45,4|8|4|8,1:2|3:0|3:0|3:0,0:0:0:0:
106,123,11114,21,4,1:0:0:0:
102,100,11206,1,0,1:0:0:0:
98,77,11297,1,4,1:3:0:0:
95,54,11389,1,8,1:3:0:0:
112,23,11480,54,2,P|183:9|175:101,1,175.499991966248,2|2,1:2|0:0,0:0:0:0:
78,147,11846,38,0,L|28:132,3,45,4|2|2|2,3:2|3:2|3:2|3:2,0:0:0:0:
159,193,12212,2,0,L|202:180,3,45,2|2|2|2,1:2|3:2|3:2|3:2,0:0:0:0:
104,249,12578,37,2,3:2:0:0:
142,357,12760,1,8,3:0:0:0:
66,384,12943,37,0,1:0:0:0:
203,305,13126,2,0,P|285:317|376:363,1,180,6|8,3:2|3:0,0:0:0:0:
380,357,13584,1,2,0:0:0:0:
387,351,13675,2,0,L|375:295,1,45,2|2,1:2|0:0,0:0:0:0:
469,255,13858,2,0,P|459:281|457:311,1,45,2|2,3:2|1:2,0:0:0:0:
374,204,14041,37,2,3:2:0:0:
506,156,14224,1,4,3:0:0:0:
363,33,14407,37,2,1:2:0:0:
357,40,14498,1,0,1:0:0:0:
356,48,14590,1,2,1:2:0:0:
360,56,14681,1,0,1:0:0:0:
371,76,14773,38,0,L|426:89,3,45,2|2|2|2,3:2|3:2|3:2|3:2,0:0:0:0:
247,173,15139,2,0,P|218:176|201:185,3,45,6|2|2|2,1:2|3:2|3:2|1:2,0:0:0:0:
264,88,15504,38,0,B|274:69|274:69|245:38|228:-12,1,90,2|8,3:2|3:0,0:0:0:0:
364,174,15870,1,0,1:0:0:0:
305,230,16053,38,0,L|297:282,3,45,4|2|2|2,3:1|3:2|3:2|3:2,0:0:0:0:
371,320,16419,38,0,L|422:306,1,45,4|2,3:0|3:2,0:0:0:0:
300,377,16602,2,0,L|245:363,1,45,2|2,1:2|3:2,0:0:0:0:
195,302,16785,37,2,3:2:0:0:
177,299,16876,1,2,1:2:0:0:
163,311,16968,1,10,3:0:0:0:
3,334,17151,2,2,B|38:343|46:382|46:382|123:371|134:301|115:249|67:221,1,233.999989288331,2|0,3:2|0:0,0:1:0:0:
33,228,17608,37,0,1:3:0:0:
28,231,17699,2,0,L|41:168,3,45,2|2|2|2,3:2|3:2|3:2|3:2,0:0:0:0:
130,99,18065,2,0,P|132:131|143:162,3,45,6|2|2|2,1:2|3:2|3:2|3:2,0:0:0:0:
52,51,18431,37,2,3:2:0:0:
224,112,18614,1,8,3:0:0:0:
273,19,18797,37,0,1:0:0:0:
275,28,18889,1,0,3:0:0:0:
268,35,18980,2,0,P|318:86|449:89,1,180,4|8,3:2|3:0,0:0:0:0:
428,105,19437,1,2,0:0:0:0:
429,113,19529,2,0,P|469:126|483:141,1,45,2|2,1:2|0:0,0:0:0:0:
511,16,19712,2,0,L|469:32,1,45,2|2,3:2|1:2,0:0:0:0:
385,12,19895,37,2,3:2:0:0:
494,211,20078,1,4,3:0:0:0:
363,301,20260,37,2,1:2:0:0:
359,292,20352,1,0,1:0:0:0:
362,283,20443,1,2,1:2:0:0:
366,275,20535,1,0,1:0:0:0:
395,257,20626,38,0,L|439:271,3,45,2|2|2|2,3:2|3:2|3:2|3:2,0:0:0:0:
359,181,20992,2,0,L|315:195,3,45,6|2|2|2,1:2|3:2|3:2|1:2,0:0:0:0:
421,108,21358,37,2,3:2:0:0:
385,12,21541,1,8,3:0:0:0:
468,32,21724,37,0,1:0:0:0:
325,75,21907,2,0,L|315:118,3,45,4|2|2|2,3:1|3:2|3:2|3:2,0:0:0:0:
264,25,22273,38,0,L|210:44,1,45,4|2,3:0|3:2,0:0:0:0:
152,95,22456,1,4,3:0:0:0:
134,92,22547,1,8,3:0:0:0:
116,87,22639,1,2,1:2:0:0:
98,84,22730,1,8,3:0:0:0:
72,58,22821,37,2,3:2:0:0:
200,180,23004,2,0,P|190:217|187:244,1,45,4|4,1:2|3:0,0:0:0:0:
122,294,23187,2,0,L|104:241,1,45,0|0,3:0|3:0,0:0:0:0:
197,352,23370,37,8,3:0:0:0:
197,352,23462,1,8,3:0:0:0:
197,352,23553,2,0,P|273:323|336:334,1,144,4|2,3:2|1:2,0:0:0:0:
404,376,24102,1,0,3:0:0:0:
477,168,24285,38,0,B|458:188|458:188|473:236,1,72,2|2,0:0|3:2,0:0:0:0:
439,302,24651,2,0,L|484:312,1,36,0|0,1:0|0:0,0:0:0:0:
351,247,24834,69,2,0:0:0:0:
351,247,24925,1,0,0:0:0:0:
351,247,25017,2,0,P|313:254|270:267,1,72,0|0,3:0|0:0,0:0:0:0:
136,221,25382,2,0,P|174:214|217:201,1,72,2|0,1:2|3:0,0:0:0:0:
397,41,25748,5,2,1:2:0:0:
397,41,25840,1,0,1:0:0:0:
397,41,25931,1,2,3:2:0:0:
463,97,26114,2,0,P|447:132|446:148,1,36,0|0,1:0|1:0,0:0:0:0:
418,195,26297,2,0,L|402:145,1,36,2|0,1:2|1:0,0:0:0:0:
329,128,26480,70,0,P|286:123|247:151,1,72,2|2,3:2|0:0,0:0:0:0:
244,131,26754,1,4,0:3:0:0:
238,118,26846,2,0,P|251:84|256:43,1,72,2|2,1:2|3:2,0:0:0:0:
99,18,27212,2,0,P|133:38|174:34,1,72,2|2,0:0|3:2,0:0:0:0:
88,131,27578,5,2,1:2:0:0:
0,155,27760,1,2,0:0:0:0:
123,291,27943,70,0,P|135:228|135:212,1,72,0|2,3:0|0:0,0:0:0:0:
145,215,28218,1,8,0:3:0:0:
155,217,28309,2,0,B|228:223|213:264|288:274,1,144,2|2,1:2|1:2,0:0:0:0:
284,273,28767,1,0,1:0:0:0:
284,273,28858,1,0,0:0:0:0:
359,352,29041,6,0,P|391:335|403:335,1,36,0|0,1:0|1:0,0:0:0:0:
458,326,29224,2,0,L|410:308,1,36,2|0,1:2|1:0,0:0:0:0:
391,216,29407,70,0,P|398:185|406:128,1,72,2|8,3:1|3:0,0:0:0:0:
482,163,29681,1,2,3:1:0:0:
482,163,29773,2,0,P|472:205|467:251,1,72,0|4,1:0|3:0,0:0:0:0:
348,49,30139,5,2,0:3:0:0:
276,95,30321,1,2,3:2:0:0:
193,68,30504,1,0,1:0:0:0:
64,164,30687,69,2,0:0:0:0:
64,164,30779,1,0,0:0:0:0:
64,164,30870,2,0,P|71:195|79:252,1,72,2|0,3:1|0:0,0:0:0:0:
155,217,31144,1,2,3:1:0:0:
155,217,31236,2,0,P|145:175|140:129,1,72,2|4,1:2|3:0,0:0:0:0:
7,349,31602,6,0,L|53:329,1,36,2|0,1:2|1:0,0:0:0:0:
112,370,31785,2,0,P|138:377|152:387,1,36,8|0,3:0|0:0,0:0:0:0:
213,336,31968,1,0,1:0:0:0:
225,342,32059,1,0,1:0:0:0:
239,344,32151,1,2,1:2:0:0:
253,342,32242,1,0,1:0:0:0:
288,315,32334,70,0,P|269:265|273:239,1,72,2|2,3:1|0:0,0:0:0:0:
352,225,32608,1,2,3:1:0:0:
352,225,32699,2,0,P|371:275|367:301,1,72,2|4,1:2|3:0,0:0:0:0:
465,336,33065,5,2,0:3:0:0:
502,246,33248,1,2,3:2:0:0:
437,168,33431,1,0,1:0:0:0:
498,82,33614,69,2,0:0:0:0:
500,88,33706,1,0,0:0:0:0:
503,94,33797,2,0,L|377:63,1,108,2|2,3:1|3:1,0:0:0:0:
394,58,34163,2,0,P|332:80|307:81,1,72,2|8,1:2|3:0,0:0:0:0:
270,247,34529,1,0,1:0:0:0:
270,247,34620,1,0,1:0:0:0:
270,247,34712,1,0,0:0:0:0:
376,191,34895,6,0,L|424:209,1,36,0|0,1:0|1:0,0:0:0:0:
467,256,35078,2,0,L|506:244,1,36,8|4,3:0|3:0,0:0:0:0:
465,336,35260,5,4,3:1:0:0:
210,158,36724,1,4,3:2:0:0:
42,343,38187,69,4,3:2:0:0:
313,84,39651,1,4,3:2:0:0:
226,14,41114,5,4,3:1:0:0:
291,64,41480,69,0,3:0:0:0:
286,78,41846,1,0,3:0:0:0:
282,89,42212,1,0,3:0:0:0:
231,365,42578,5,4,3:2:0:0:
307,314,42943,69,0,3:0:0:0:
297,283,43309,1,0,3:0:0:0:
287,255,43675,1,0,3:0:0:0:
226,14,44041,5,4,3:2:0:0:
283,128,44407,69,0,3:0:0:0:
225,189,44773,1,0,3:0:0:0:
287,255,45139,2,0,L|346:243,1,53.9999983520508,0|0,3:0|0:0,0:0:0:0:
463,188,45504,6,0,B|487:221|487:221|466:243|463:277,1,90,2|8,1:2|3:0,0:0:0:0:
421,370,45779,1,4,3:0:0:0:
416,365,45870,2,0,L|448:217,1,135,2|8,1:2|3:0,0:0:0:0:
362,108,46236,70,0,P|282:128|276:140,1,90,2|0,1:2|3:0,0:0:0:0:
225,189,46510,1,4,3:0:0:0:
225,189,46602,2,0,B|140:179|176:121|53:122,1,161.999995056153,2|0,1:2|0:0,0:0:0:0:
5,81,46968,54,0,P|72:83|99:37,1,116.999994644165,4|0,1:2|0:0,0:0:0:0:
93,36,47242,1,8,1:0:0:0:
96,23,47334,1,0,0:0:0:0:
148,194,47517,21,4,1:0:0:0:
77,232,47699,2,0,P|62:264|57:298,2,58.4999973220826,2|2|0,0:1|0:0|3:0,0:0:0:0:
148,194,48248,2,0,L|135:158,1,29.2499986610413,2|0,0:0|0:0,0:0:0:0:
282,127,48431,54,0,P|349:125|376:171,1,116.999994644165,6|0,1:0|0:0,0:0:0:0:
370,172,48705,1,8,1:0:0:0:
373,185,48797,1,8,3:0:0:0:
453,251,48980,21,12,1:0:0:0:
390,301,49163,2,0,P|359:307|314:348,1,87.749995983124,2|0,0:1|0:0,0:0:0:0:
317,342,49529,2,2,P|289:319|320:316,1,87.749995983124,0|0,0:0|0:0,0:1:0:0:
453,251,49895,54,0,B|436:341|436:341|447:352|451:370,1,116.999994644165,6|0,1:0|0:0,0:0:0:0:
458,368,50169,1,12,1:0:0:0:
469,364,50260,1,0,0:0:0:0:
297,231,50443,21,14,1:0:0:0:
227,268,50626,2,0,P|188:284|165:278,2,58.4999973220826,2|2|2,0:1|0:1|0:0,0:0:0:0:
297,231,51175,2,0,L|284:196,1,29.2499986610413,2|0,0:0|0:0,0:0:0:0:
372,57,51358,54,0,B|398:90|398:90|368:132|374:176,1,116.999994644165,6|0,1:0|1:0,0:0:0:0:
380,168,51632,1,4,1:3:0:0:
391,168,51724,2,0,P|421:161|451:152,1,45,8|0,3:0|0:0,0:0:0:0:
455,239,51907,2,0,P|425:245|395:255,1,45,2|0,1:0|0:0,0:0:0:0:
317,342,52090,22,0,L|313:367,7,22.5,8|0|8|0|2|2|2|2,0:1|0:0|0:1|0:0|0:1|0:1|0:1|0:1,0:0:0:0:
5,81,52821,54,0,P|-22:120|23:173,1,116.999994644165,6|0,1:0|3:0,0:0:0:0:
21,179,53096,1,8,3:0:0:0:
29,175,53187,2,0,P|67:158|88:161,1,45,4|0,3:0|3:0,0:0:0:0:
133,111,53370,2,0,P|163:125|182:151,1,45,2|0,1:0|0:0,0:0:0:0:
233,192,53553,22,0,L|221:257,2,58.4999973220826,12|2|2,0:1|0:1|0:1,0:0:0:0:
295,141,54102,2,0,L|335:130,1,29.2499986610413,2|0,0:1|0:0,0:0:0:0:
501,291,54285,54,0,P|472:249|393:264,1,116.999994644165,6|8,1:0|3:0,0:0:0:0:
400,242,54559,1,4,3:0:0:0:
400,232,54651,2,0,P|391:188|400:175,1,45,0|0,3:0|0:0,0:0:0:0:
458,149,54834,2,0,P|474:124|496:116,1,45,2|2,1:0|3:1,0:0:0:0:
493,39,55017,22,0,P|510:19|486:39,1,116.999994644165,14|0,0:1|0:0,0:0:0:0:
228,249,55748,53,6,1:0:0:0:
228,249,55840,1,0,0:0:0:0:
228,249,55931,2,0,P|248:284|251:306,1,45,4|2,3:0|1:0,0:0:0:0:
295,384,56114,21,10,1:0:0:0:
295,384,56206,1,4,3:0:0:0:
295,384,56297,2,0,P|302:362|316:344,1,45,2|0,1:0|0:0,0:0:0:0:
366,277,56480,53,10,0:1:0:0:
178,343,56663,1,2,3:1:0:0:
410,350,56846,21,8,3:0:0:0:
283,184,57029,2,0,L|294:141,1,45,2|2,3:1|0:1,0:0:0:0:
222,23,57212,54,0,B|194:5|194:5|137:51|184:110,1,116.999994644165,6|8,1:0|3:0,0:0:0:0:
160,115,57486,1,4,3:0:0:0:
172,116,57578,2,0,L|227:106,1,45,2|2,3:1|0:1,0:0:0:0:
359,140,57760,2,0,L|304:150,1,45,2|0,1:0|3:0,0:0:0:0:
173,223,57943,21,0,1:0:0:0:
150,245,58035,1,0,1:0:0:0:
146,276,58126,1,0,1:0:0:0:
157,305,58218,1,0,1:0:0:0:
183,321,58309,2,0,L|174:360,6,22.5,0|0|8|0|0|0|4,1:0|0:0|1:3|0:0|1:0|0:0|1:3,0:0:0:0:
286,300,58675,6,0,B|357:304|352:344|415:350,1,135.000005149842,10|0,3:2|0:0,0:0:0:0:
486,384,58949,1,0,3:0:0:0:
486,384,59041,2,0,B|501:357|501:357|467:238,1,135.000005149842,10|0,1:2|3:0,0:0:0:0:
497,182,59315,69,0,3:0:0:0:
497,182,59407,2,0,P|502:143|512:126,1,45,10|0,3:2|1:0,0:0:0:0:
418,119,59590,2,0,P|413:158|403:175,1,45,8|0,3:0|3:0,0:0:0:0:
330,183,59773,5,10,1:2:0:0:
482,53,59956,1,8,3:0:0:0:
395,7,60139,70,0,L|256:41,1,135.000005149842,10|0,3:2|3:0,0:0:0:0:
164,76,60413,1,0,3:0:0:0:
164,76,60504,2,0,P|239:86|270:134,1,135.000005149842,10|8,1:2|3:0,0:0:0:0:
330,183,60779,5,0,3:0:0:0:
330,183,60870,2,0,P|316:220|314:243,1,45,4|0,3:0|0:0,0:0:0:0:
264,317,61053,2,0,L|252:267,1,45,8|0,1:1|3:0,0:0:0:0:
170,248,61236,70,0,P|76:266|64:338,1,175.499991966248,12|0,1:0|3:0,0:0:0:0:
128,383,61602,5,10,3:2:0:0:
11,213,61785,1,8,3:0:0:0:
113,150,61968,70,0,B|124:126|124:126|91:71|86:9,1,135.000005149842,10|8,1:2|3:0,0:0:0:0:
8,103,62242,1,0,1:0:0:0:
8,103,62334,2,0,P|54:90|63:79,1,45,10|0,3:2|1:0,0:0:0:0:
197,85,62517,2,0,P|176:75|154:74,1,45,8|0,3:0|3:0,0:0:0:0:
113,150,62699,5,10,1:2:0:0:
271,34,62882,1,4,3:0:0:0:
284,37,62974,1,0,3:0:0:0:
295,48,63065,2,0,P|269:132|268:149,1,90,10|8,3:2|3:0,0:0:0:0:
409,349,63431,2,0,P|435:265|436:248,1,90,8|2,1:2|3:2,0:0:0:0:
384,201,63706,69,0,3:0:0:0:
384,201,63797,2,0,L|337:218,1,45,4|0,3:0|0:0,0:0:0:0:
307,288,63980,2,0,L|258:271,1,45,8|0,3:1|1:0,0:0:0:0:
197,197,64163,5,8,1:0:0:0:
175,204,64254,1,0,3:0:0:0:
153,212,64346,1,4,3:0:0:0:
131,218,64437,1,4,3:0:0:0:
101,193,64529,70,0,L|115:141,3,45,4|0|2|0,3:1|0:0|3:0|0:0,0:0:0:0:
178,297,64895,2,0,L|164:349,3,45,2|2|2|2,1:0|0:1|0:3|0:1,0:0:0:0:
90,376,65260,37,4,3:0:0:0:
90,376,65352,1,0,0:0:0:0:
90,376,65443,2,0,P|61:363|32:363,1,45,2|0,3:3|0:0,0:0:0:0:
0,295,65626,37,2,1:0:0:0:
197,197,65809,1,2,0:3:0:0:
53,83,65992,38,0,P|28:94|2:94,3,45,8|0|2|0,3:0|0:0|0:3|0:0,0:0:0:0:
112,149,66358,2,0,P|136:152|169:171,3,45,2|0|2|0,1:0|0:0|0:3|0:0,0:0:0:0:
219,108,66724,38,0,L|201:57,1,45,4|0,3:0|0:0,0:0:0:0:
294,8,66907,1,2,3:3:0:0:
294,8,66998,1,0,0:0:0:0:
294,8,67090,2,0,P|280:58|280:66,1,45,2|0,1:0|1:0,0:0:0:0:
406,100,67273,37,4,3:0:0:0:
407,115,67364,1,8,3:0:0:0:
418,119,67456,2,0,L|475:106,3,45,4|0|2|0,3:1|0:0|0:3|0:0,0:0:0:0:
337,204,67821,2,0,L|295:189,3,45,2|2|2|2,1:0|0:1|0:3|0:1,0:0:0:0:
401,268,68187,37,4,3:0:0:0:
401,268,68279,1,0,0:0:0:0:
401,268,68370,2,0,L|386:321,1,45,2|0,0:3|0:0,0:0:0:0:
439,380,68553,37,2,1:0:0:0:
337,204,68736,1,2,0:3:0:0:
268,278,68919,38,0,P|218:285|178:319,1,90,8|0,3:0|1:0,0:0:0:0:
169,301,69193,1,0,1:0:0:0:
153,291,69285,1,0,1:0:0:0:
149,273,69376,1,8,3:0:0:0:
153,255,69468,1,8,3:0:0:0:
212,181,69651,38,0,L|193:134,1,45,0|4,1:0|3:0,0:0:0:0:
232,65,69834,2,0,P|220:94|219:120,1,45,8|8,3:0|3:0,0:0:0:0:
130,44,70017,37,4,3:0:0:0:
99,25,70108,1,0,1:0:0:0:
63,24,70199,1,8,3:3:0:0:
28,35,70291,1,4,3:0:0:0:
8,66,70382,6,0,L|47:210,1,135.000005149842,10|0,3:2|3:0,0:0:0:0:
72,273,70657,1,0,3:0:0:0:
72,273,70748,2,0,P|97:162|108:140,1,135.000005149842,10|8,1:2|3:0,0:0:0:0:
195,139,71023,69,0,1:0:0:0:
195,139,71114,2,0,P|223:147|236:159,1,45,10|8,3:2|3:0,0:0:0:0:
312,156,71297,2,0,P|319:184|315:201,1,45,4|0,3:0|3:0,0:0:0:0:
266,260,71480,5,10,1:2:0:0:
465,194,71663,1,4,3:0:0:0:
511,279,71846,70,0,B|449:261|461:228|385:218,1,135.000005149842,10|8,3:2|3:0,0:0:0:0:
341,155,72120,1,0,3:0:0:0:
341,155,72212,2,0,P|303:88|342:27,1,135.000005149842,10|4,1:2|3:0,0:0:0:0:
390,2,72486,5,0,3:0:0:0:
390,2,72578,2,0,L|374:66,1,45,10|0,3:2|0:0,0:0:0:0:
234,157,72760,2,0,L|250:93,1,45,8|0,1:1|3:0,0:0:0:0:
183,40,72943,70,0,B|121:62|121:62|98:102|98:102|20:132,1,175.499991966248,12|0,1:0|3:0,0:0:0:0:
4,56,73309,5,10,3:2:0:0:
113,225,73492,1,4,3:0:0:0:
25,341,73675,70,0,B|2:351|2:351|-33:309|-11:269|27:262,1,135.000005149842,10|8,1:2|3:0,0:0:0:0:
90,299,73949,1,0,1:0:0:0:
97,308,74041,2,0,L|174:330,1,45,10|4,3:2|3:0,0:0:0:0:
188,380,74224,2,0,L|265:358,1,45,8|0,3:0|3:0,0:0:0:0:
274,296,74407,5,10,1:2:0:0:
418,384,74590,1,2,3:2:0:0:
425,372,74681,1,8,3:0:0:0:
426,359,74773,2,0,L|335:376,1,90,8|4,3:2|3:0,0:0:0:0:
392,219,75139,2,0,L|483:202,1,90,10|6,1:2|3:0,0:0:0:0:
507,130,75413,69,0,3:0:0:0:
507,130,75504,2,0,P|492:83|493:66,1,45,10|0,3:2|1:0,0:0:0:0:
440,9,75687,2,0,L|421:65,1,45,0|0,1:0|1:0,0:0:0:0:
351,84,75870,5,4,3:0:0:0:
317,98,75962,1,4,3:0:0:0:
281,93,76053,1,8,3:0:0:0:
251,72,76145,1,0,1:0:0:0:
234,38,76236,70,0,L|186:56,3,45,4|0|2|0,3:1|0:0|0:3|0:0,0:0:0:0:
40,15,76602,2,0,L|88:-3,3,45,2|2|2|2,1:0|0:1|0:3|0:1,0:0:0:0:
113,89,76968,21,4,3:0:0:0:
113,89,77059,1,0,3:0:0:0:
113,89,77151,2,0,P|102:139|101:152,1,45,2|0,0:3|0:0,0:0:0:0:
33,172,77334,1,2,1:0:0:0:
97,308,77517,2,0,P|108:258|109:245,1,45,2|0,3:3|0:0,0:0:0:0:
180,229,77699,54,0,L|270:206,1,90,4|2,3:0|3:3,0:0:0:0:
267,206,77974,1,0,0:0:0:0:
267,206,78065,1,2,1:0:0:0:
373,304,78248,2,0,P|350:292|320:284,1,45,2|2,0:3|0:1,0:0:0:0:
392,219,78431,21,4,3:0:0:0:
394,201,78523,1,0,1:0:0:0:
401,184,78614,1,8,1:1:0:0:
412,169,78706,1,0,1:0:0:0:
428,162,78797,2,0,L|412:106,1,45,8|0,3:1|0:0,0:0:0:0:
473,9,78980,53,0,0:0:0:0:
488,1,79071,1,0,1:0:0:0:
501,8,79163,2,0,B|528:43|528:43|489:74|494:118,1,116.999994644165,4|2,3:1|0:3,0:0:0:0:
361,46,79529,1,2,1:0:0:0:
279,134,79712,21,2,0:3:0:0:
279,134,79803,1,2,0:1:0:0:
279,134,79895,2,0,P|321:118|333:118,1,45,4|0,3:0|0:0,0:0:0:0:
248,48,80078,2,0,P|225:60|192:65,1,45,2|0,0:3|0:0,0:0:0:0:
148,120,80260,53,2,1:0:0:0:
14,26,80443,1,2,0:3:0:0:
14,26,80535,1,0,0:0:0:0:
14,26,80626,2,0,L|33:120,1,90,4|0,3:0|1:0,0:0:0:0:
28,130,80901,1,0,1:0:0:0:
25,145,80992,1,0,1:0:0:0:
111,195,81175,22,0,L|128:132,2,45,8|0|4,3:0|1:0|3:0,0:0:0:0:
70,314,81541,2,0,L|10:300,1,45,8|0,1:0|1:0,0:0:0:0:
4,379,81724,54,0,B|109:361|70:277|187:276,1,202.500007724762,12|8,1:0|3:0,0:0:0:0:
255,315,82090,38,0,L|246:366,3,45,4|2|2|2,3:2|3:2|3:2|3:2,0:0:0:0:
355,242,82456,2,0,L|346:191,3,45,2|2|2|2,1:2|3:2|3:2|3:2,0:0:0:0:
420,300,82821,37,2,3:2:0:0:
258,201,83004,1,8,3:0:0:0:
471,125,83187,37,0,1:0:0:0:
438,208,83370,2,0,L|465:20,1,180,6|8,3:2|3:0,0:0:0:0:
457,22,83828,1,2,0:0:0:0:
449,17,83919,2,0,P|405:30|392:27,1,45,2|2,1:2|0:0,0:0:0:0:
310,75,84102,2,0,L|359:92,1,45,2|2,3:2|1:2,0:0:0:0:
471,125,84285,37,2,3:2:0:0:
355,242,84468,1,4,3:0:0:0:
465,373,84651,37,2,1:2:0:0:
470,366,84742,1,0,1:0:0:0:
472,357,84834,1,2,1:2:0:0:
470,348,84925,1,0,1:0:0:0:
446,320,85017,38,0,L|399:333,3,45,2|2|2|2,3:2|3:2|3:2|3:2,0:0:0:0:
247,359,85382,2,0,L|294:372,3,45,6|2|2|2,1:2|3:2|3:2|1:2,0:0:0:0:
170,276,85748,38,0,P|123:281|86:321,1,90,2|8,3:2|3:0,0:0:0:0:
258,201,86114,1,0,1:0:0:0:
185,145,86297,38,0,L|199:92,3,45,4|2|2|2,3:1|3:2|3:2|3:2,0:0:0:0:
129,56,86663,38,0,L|67:75,1,45,4|2,3:0|3:2,0:0:0:0:
206,7,86846,2,0,L|259:25,1,45,2|2,1:2|3:2,0:0:0:0:
306,93,87029,37,2,3:2:0:0:
320,90,87120,1,2,1:2:0:0:
336,87,87212,1,2,1:2:0:0:
501,33,87395,2,2,P|415:45|358:227,1,270.000010299683,4|0,3:1|1:0,0:1:0:0:
401,260,87852,37,0,1:0:0:0:
401,260,87943,1,4,3:2:0:0:
