osu file format v14

[General]
AudioFilename: audio.mp3
AudioLeadIn: 0
PreviewTime: 58584
Countdown: 0
SampleSet: Soft
StackLeniency: 0.7
Mode: 0
LetterboxInBreaks: 0
WidescreenStoryboard: 1

[Editor]
Bookmarks: 11846,23553,35260,46968,58675
DistanceSpacing: 0.4
BeatDivisor: 4
GridSize: 32
TimelineZoom: 2.7

[Metadata]
Title:first death (TV Size)
TitleUnicode:first death (TV Size)
Artist:TK from Ling tosite sigure
ArtistUnicode:TK from 凛として時雨
Creator:Bazz B
Version:hard
Source:チェンソーマン
Tags:-mikan mikan bazz_b petal matha -_Matha_- vanya2 Big Sis Vaporfly God Haachama chainsaw man csm anime japanese rock j-rock jrock ed ending 8 eight
BeatmapID:3905291
BeatmapSetID:1894662

[Difficulty]
HPDrainRate:4
CircleSize:4
OverallDifficulty:7
ApproachRate:8
SliderMultiplier:1.4
SliderTickRate:1

[Events]
//Background and Video events
0,0,"102503233_p0_master1200.jpg",0,0
Video,-90,"dfdsaf.mp4"
//Break Periods
//Storyboard Layer 0 (Background)
//Storyboard Layer 1 (Fail)
//Storyboard Layer 2 (Pass)
//Storyboard Layer 3 (Foreground)
//Storyboard Layer 4 (Overlay)
//Storyboard Sound Samples

[TimingPoints]
139,365.853658536586,4,2,1,65,1,0
11503,-100,4,2,1,25,0,0
11846,-100,4,2,1,75,0,0
17471,-100,4,2,1,5,0,0
17517,-100,4,2,1,75,0,0
23553,-100,4,2,1,55,0,0
23919,-111.111111111111,4,2,1,55,0,0
35260,-125,4,2,1,45,0,0
45504,-125,4,2,1,65,0,0
46968,-111.111111111111,4,2,2,75,0,0
57943,-111.111111111111,4,2,1,75,0,0
58309,-111.111111111111,4,2,1,80,0,0
58675,-100,4,2,1,90,0,1
64529,-100,4,2,1,80,0,1
70382,-100,4,2,1,90,0,1
76236,-100,4,2,1,80,0,1
82090,-100,4,2,1,75,0,0

[Colours]
Combo1 : 241,220,67
Combo2 : 192,192,192
Combo3 : 64,255,112
Combo4 : 0,128,255
Combo5 : 255,162,68
Combo6 : 255,74,74

[HitObjects]
46,363,139,6,0,P|47:331|40:293,1,70,4|2,3:1|3:2,0:0:0:0:
109,244,504,1,2,1:2:0:0:
191,266,687,2,0,P|230:213|199:122,1,140,8|0,3:0|3:0,0:0:0:0:
155,92,1236,22,0,B|208:105|208:105|257:74,1,105,0|0,1:0|0:0,0:0:0:0:
253,65,1602,1,0,3:0:0:0:
326,18,1785,2,0,L|314:-23,2,35,2|0|0,3:2|3:0|1:2,0:0:0:0:
399,60,2151,2,0,L|378:132,1,70,8|2,3:0|0:3,0:0:0:0:
453,191,2517,53,8,3:1:0:0:
453,191,2608,1,0,3:0:0:0:
453,191,2699,1,8,1:0:0:0:
512,323,3065,2,0,P|444:334|396:384,1,140,0|2,3:0|1:2,0:0:0:0:
332,327,3614,2,0,L|349:249,1,70,8|2,3:0|0:0,0:0:0:0:
287,194,3980,1,0,3:0:0:0:
212,237,4163,2,0,L|204:278,3,35,0|0|2|0,1:0|0:0|0:0|0:0,0:0:0:0:
188,215,4529,22,0,L|109:235,1,70,0|2,3:0|3:2,0:0:0:0:
42,185,4895,1,0,1:0:0:0:
78,104,5078,2,0,L|145:86,1,70,4|0,3:0|1:0,0:0:0:0:
197,18,5443,1,8,0:1:0:0:
379,127,5992,54,0,P|389:92|387:57,1,70,6|8,3:2|3:0,0:0:0:0:
481,70,6358,2,0,P|472:106|473:140,1,70,2|8,1:2|3:0,0:0:0:0:
512,221,6724,1,2,0:3:0:0:
512,221,6815,1,0,0:0:0:0:
512,221,6907,1,0,3:2:0:0:
454,279,7090,2,0,P|392:283|358:322,1,105,2|0,1:2|0:0,0:0:0:0:
356,327,7456,22,0,L|285:307,1,70,2|8,3:2|3:0,0:0:0:0:
192,364,7821,2,0,L|263:384,1,70,2|8,1:2|3:0,0:0:0:0:
186,280,8187,1,2,0:3:0:0:
114,325,8370,1,4,3:0:0:0:
114,325,8462,1,8,3:0:0:0:
114,325,8553,2,0,L|71:311,3,35,2|2|2|2,1:2|0:0|0:0|0:0,0:0:0:0:
49,318,8919,54,0,P|28:273|39:233,1,70,2|8,3:2|3:0,0:0:0:0:
101,212,9285,2,0,P|125:163|101:136,1,70,2|8,1:2|3:0,0:0:0:0:
53,101,9651,1,2,0:3:0:0:
53,101,9742,1,0,0:0:0:0:
53,101,9834,1,4,3:0:0:0:
114,41,10017,2,0,B|130:33|130:33|228:65,1,105,2|2,1:2|0:0,0:0:0:0:
223,75,10382,21,2,3:2:0:0:
318,47,10565,1,8,3:0:0:0:
318,47,10657,1,0,0:0:0:0:
318,47,10748,2,0,L|303:120,1,70,4|4,1:2|3:0,0:0:0:0:
235,174,11114,2,0,L|244:214,3,35,4|0|4|8,1:0|1:0|1:3|1:3,0:0:0:0:
264,229,11480,1,2,1:2:0:0:
358,375,11846,54,0,P|385:360|409:360,3,35,4|2|2|2,3:2|3:2|3:2|3:2,0:0:0:0:
408,330,12212,2,0,P|443:331|461:341,3,35,2|2|2|2,1:2|3:2|3:2|3:2,0:0:0:0:
481,308,12578,2,0,L|462:239,1,70,2|8,3:2|3:0,0:0:0:0:
505,168,12943,1,0,1:0:0:0:
437,113,13126,37,6,3:2:0:0:
437,113,13218,1,2,3:2:0:0:
437,113,13309,2,0,P|382:133|346:135,1,70,2|8,3:2|3:0,0:0:0:0:
298,73,13675,2,0,P|255:58|214:56,1,70,2|2,1:2|3:2,0:0:0:0:
230,55,13949,1,2,1:2:0:0:
230,55,14041,1,2,3:2:0:0:
170,118,14224,1,4,3:0:0:0:
100,69,14407,2,0,L|118:-15,1,70,2|2,1:2|1:2,0:0:0:0:
18,112,14773,38,0,L|30:150,3,35,2|2|2|2,3:2|3:2|3:2|3:2,0:0:0:0:
51,162,15139,2,0,L|39:200,3,35,6|2|2|2,1:2|3:2|3:2|1:2,0:0:0:0:
12,217,15504,2,0,L|27:301,1,70,2|8,3:2|3:0,0:0:0:0:
94,334,15870,1,0,1:0:0:0:
174,302,16053,37,4,3:1:0:0:
174,302,16145,1,2,3:2:0:0:
174,302,16236,2,0,L|189:246,3,35,2|2|4|2,3:2|3:2|3:0|3:2,0:0:0:0:
209,255,16602,2,0,L|193:212,3,35,2|2|2|2,1:2|3:2|3:2|1:2,0:0:0:0:
170,199,16968,1,10,3:0:0:0:
225,130,17151,2,2,B|256:104|298:119|298:119|328:151|319:191,1,140,2|0,3:2|0:0,0:1:0:0:
366,251,17699,38,0,P|381:261|398:265,3,35,2|2|2|2,3:2|3:2|3:2|3:2,0:0:0:0:
424,293,18065,2,0,P|438:283|455:279,3,35,6|2|2|2,1:2|3:2|3:2|3:2,0:0:0:0:
476,258,18431,2,0,P|491:216|479:184,1,70,2|8,3:2|3:0,0:0:0:0:
419,142,18797,1,0,1:0:0:0:
488,88,18980,37,4,3:2:0:0:
488,88,19071,1,2,3:2:0:0:
488,88,19163,2,0,P|500:30|506:11,1,70,2|8,3:2|3:0,0:0:0:0:
416,0,19529,2,0,P|404:58|398:77,1,70,2|2,1:2|3:2,0:0:0:0:
397,68,19803,1,2,1:2:0:0:
393,68,19895,1,2,3:2:0:0:
317,31,20078,1,4,3:0:0:0:
259,95,20260,2,0,L|282:165,1,70,2|2,1:2|1:2,0:0:0:0:
346,227,20626,38,0,L|335:274,3,35,2|2|2|2,3:2|3:2|3:2|3:2,0:0:0:0:
316,273,20992,2,0,L|327:320,3,35,6|2|2|2,1:2|3:2|3:2|1:2,0:0:0:0:
344,334,21358,2,0,P|312:338|262:355,1,70,2|8,3:2|3:0,0:0:0:0:
201,302,21724,1,0,1:0:0:0:
141,361,21907,1,4,3:1:0:0:
141,361,21998,1,2,3:2:0:0:
141,361,22090,1,2,3:2:0:0:
256,192,22181,12,4,23553,3:2:0:0:
256,192,23919,70,0,P|207:206|192:220,1,62.9999980773926,2|0,1:2|3:0,0:0:0:0:
131,172,24285,1,2,0:0:0:0:
131,172,24468,1,2,3:2:0:0:
73,231,24651,2,0,L|89:271,2,31.4999990386963,0|0|2,1:0|0:0|0:0,0:0:0:0:
5,170,25017,6,0,L|18:98,1,62.9999980773926,0|0,3:0|0:0,0:0:0:0:
90,70,25382,2,0,L|78:8,1,62.9999980773926,2|0,1:2|3:0,0:0:0:0:
165,21,25748,1,2,1:2:0:0:
165,21,25840,1,0,1:0:0:0:
165,21,25931,1,2,3:2:0:0:
226,74,26114,2,0,L|214:122,3,31.4999990386963,0|0|2|0,1:0|1:0|1:2|1:0,0:0:0:0:
254,56,26480,70,0,P|301:50|324:34,1,62.9999980773926,2|2,3:2|0:0,0:0:0:0:
387,2,26846,2,0,L|458:17,1,62.9999980773926,2|2,1:2|3:2,0:0:0:0:
509,80,27212,1,2,0:0:0:0:
509,80,27395,1,2,3:2:0:0:
441,128,27578,1,2,1:2:0:0:
512,167,27760,6,0,P|457:171|409:228,1,125.999996154785,2|2,0:0|0:0,0:0:0:0:
440,299,28309,2,0,P|426:349|426:379,1,62.9999980773926,2|0,1:2|3:0,0:0:0:0:
346,379,28675,1,2,1:2:0:0:
345,375,28767,1,0,1:0:0:0:
345,371,28858,1,0,0:0:0:0:
274,328,29041,2,0,L|227:348,3,31.4999990386963,0|0|2|0,1:0|1:0|1:2|1:0,0:0:0:0:
221,369,29407,70,0,P|183:348|149:350,1,62.9999980773926,2|8,3:1|3:0,0:0:0:0:
105,285,29773,2,0,L|119:206,1,62.9999980773926,0|4,1:0|3:0,0:0:0:0:
63,162,30139,1,2,0:3:0:0:
63,162,30321,1,2,3:2:0:0:
131,115,30504,2,0,L|120:52,1,62.9999980773926,0|2,1:0|0:0,0:0:0:0:
207,34,30870,6,0,L|219:114,1,62.9999980773926,2|0,3:1|0:0,0:0:0:0:
292,135,31236,2,0,P|311:160|301:214,1,62.9999980773926,2|4,1:2|3:0,0:0:0:0:
246,242,31602,2,0,L|202:258,3,31.4999990386963,2|0|8|0,1:2|1:0|3:0|0:0,0:0:0:0:
202,269,31968,2,0,L|158:253,3,31.4999990386963,0|0|2|0,1:0|1:0|1:2|1:0,0:0:0:0:
144,238,32334,70,0,P|84:254|61:255,1,62.9999980773926,2|2,3:1|0:0,0:0:0:0:
79,346,32699,2,0,P|139:330|162:329,1,62.9999980773926,2|4,1:2|3:0,0:0:0:0:
218,372,33065,1,2,0:3:0:0:
218,372,33248,1,2,3:2:0:0:
287,322,33431,2,0,L|276:283,2,31.4999990386963,0|0|2,1:0|0:0|0:0,0:0:0:0:
374,354,33797,6,0,P|420:364|446:382,1,62.9999980773926,2|0,3:1|0:0,0:0:0:0:
505,331,34163,2,0,L|481:253,1,62.9999980773926,2|8,1:2|3:0,0:0:0:0:
428,214,34529,1,0,1:0:0:0:
419,217,34620,1,0,1:0:0:0:
410,220,34712,1,0,0:0:0:0:
490,156,34895,2,0,L|497:120,3,31.4999990386963,0|0|8|4,1:0|1:0|3:0|3:0,0:0:0:0:
477,98,35260,5,4,3:1:0:0:
479,85,36724,1,4,3:2:0:0:
91,280,38187,69,4,3:2:0:0:
89,267,39651,1,4,3:2:0:0:
240,8,41114,6,0,L|217:122,1,112,4|0,3:1|3:0,0:0:0:0:
281,168,41846,1,0,3:0:0:0:
220,218,42212,1,0,3:0:0:0:
280,269,42578,2,0,L|260:388,2,112,4|0|0,3:2|3:0|3:0,0:0:0:0:
220,218,43675,1,0,3:0:0:0:
281,168,44041,70,0,P|314:181|358:185,1,56,4|0,3:2|0:0,0:0:0:0:
387,238,44407,2,0,L|461:223,1,56,0|0,3:0|0:0,0:0:0:0:
489,166,44773,2,0,L|462:51,1,112,0|0,3:0|3:0,0:0:0:0:
395,15,45321,1,0,0:0:0:0:
328,69,45504,5,2,1:2:0:0:
247,37,45687,1,8,3:0:0:0:
244,28,45779,1,4,3:0:0:0:
240,20,45870,1,2,1:2:0:0:
187,94,46053,2,0,L|198:130,2,28,0|8|2,3:0|3:0|1:2,0:0:0:0:
112,49,46419,1,0,3:0:0:0:
109,40,46510,1,4,3:0:0:0:
106,31,46602,2,0,L|10:58,1,84,2|0,1:2|0:0,0:0:0:0:
21,79,46968,69,4,1:2:0:0:
85,184,47242,1,8,1:0:0:0:
4,269,47517,1,4,1:0:0:0:
4,269,48431,53,6,1:0:0:0:
85,184,48706,1,8,1:0:0:0:
21,79,48980,1,12,1:0:0:0:
426,379,49895,21,6,1:0:0:0:
345,294,50170,1,12,1:0:0:0:
409,189,50444,1,14,1:0:0:0:
409,189,51358,53,6,1:0:0:0:
345,294,51632,1,4,1:3:0:0:
426,379,51907,1,2,1:0:0:0:
492,336,52090,1,8,0:1:0:0:
490,329,52181,1,8,0:1:0:0:
488,322,52273,1,2,0:1:0:0:
256,190,52821,21,6,1:0:0:0:
143,225,53096,1,8,3:0:0:0:
37,262,53370,1,2,1:0:0:0:
90,321,53553,2,0,P|130:332|168:357,2,62.9999980773926,12|2|2,0:1|0:1|0:1,0:0:0:0:
37,118,54285,53,6,1:0:0:0:
150,153,54560,1,4,3:0:0:0:
256,190,54834,1,2,1:0:0:0:
313,130,55017,2,0,L|296:89,2,31.4999990386963,14|8|2,0:1|0:1|0:1,0:0:0:0:
480,183,55748,22,0,P|464:229|466:256,1,62.9999980773926,6|4,1:0|3:0,0:0:0:0:
446,261,56023,1,2,1:0:0:0:
446,261,56114,2,0,P|462:307|460:334,1,62.9999980773926,10|2,1:0|1:0,0:0:0:0:
399,380,56480,2,0,P|352:352|274:355,1,125.999996154785,10|8,0:1|3:0,0:0:0:0:
217,296,57029,53,2,3:1:0:0:
150,343,57212,2,0,P|104:345|81:364,1,62.9999980773926,6|8,1:0|3:0,0:0:0:0:
70,341,57486,2,0,L|86:244,1,94.499997116089,4|2,3:0|1:0,0:0:0:0:
54,166,57943,2,0,L|11:177,3,31.4999990386963,0|0|0|0,1:0|1:0|1:0|1:0,0:0:0:0:
8,160,58309,1,0,1:0:0:0:
13,148,58401,1,8,1:3:0:0:
19,137,58492,1,0,1:0:0:0:
24,125,58584,1,4,1:3:0:0:
31,115,58675,22,0,L|11:39,1,70,10|0,3:2|0:0,0:0:0:0:
123,90,59041,2,0,L|103:14,1,70,10|0,1:2|3:0,0:0:0:0:
220,67,59407,2,0,L|203:0,1,70,10|8,3:2|3:0,0:0:0:0:
304,21,59773,1,10,1:2:0:0:
304,21,59956,1,8,3:0:0:0:
363,91,60139,6,0,L|346:158,1,70,10|0,3:2|3:0,0:0:0:0:
401,221,60504,1,10,1:2:0:0:
328,261,60687,1,8,3:0:0:0:
391,323,60870,2,0,L|467:305,1,70,4|8,3:0|1:1,0:0:0:0:
459,306,61145,1,0,3:0:0:0:
459,306,61236,1,12,1:0:0:0:
291,378,61602,70,0,P|248:358|179:354,1,105,10|0,3:2|3:0,0:0:0:0:
180,345,61968,2,0,L|197:271,1,70,10|8,1:2|3:0,0:0:0:0:
95,352,62334,2,0,L|112:278,1,70,10|8,3:2|3:0,0:0:0:0:
48,216,62699,1,10,1:2:0:0:
115,158,62882,6,0,B|135:142|135:142|192:178|254:176,1,140,4|8,3:0|3:0,0:0:0:0:
319,123,63431,2,0,P|306:76|299:52,1,70,8|2,1:2|3:2,0:0:0:0:
365,0,63797,1,4,3:0:0:0:
430,59,63980,1,8,3:1:0:0:
440,56,64071,1,0,1:0:0:0:
450,54,64163,1,8,1:0:0:0:
512,199,64529,70,0,P|453:214|458:296,1,140,4|2,3:1|1:0,0:0:0:0:
488,364,65078,1,2,0:3:0:0:
390,353,65260,2,0,B|313:335|339:390|241:373,1,140,4|2,3:0|1:0,0:0:0:0:
187,322,65809,1,2,0:3:0:0:
116,377,65992,38,0,B|109:346|80:335|80:335|120:239,2,140,8|2|4,3:0|1:0|3:0,0:0:0:0:
187,322,66907,1,2,3:3:0:0:
255,375,67090,2,0,P|287:358|325:354,1,70,2|4,1:0|3:0,0:0:0:0:
328,346,67364,1,8,3:0:0:0:
334,338,67456,38,0,L|295:178,1,140,4|2,3:1|1:0,0:0:0:0:
367,150,68004,1,2,0:3:0:0:
314,80,68187,2,0,B|257:67|257:67|226:83|226:83|167:73,1,140,4|2,3:0|1:0,0:0:0:0:
110,17,68736,1,2,0:3:0:0:
37,70,68919,38,0,L|74:207,2,140,8|0|0,3:0|1:0|1:0,0:0:0:0:
110,17,69834,1,8,3:0:0:0:
180,75,70017,2,0,L|171:114,3,35,4|0|8|4,3:0|1:0|3:3|3:0,0:0:0:0:
202,132,70382,38,0,L|277:122,1,70,10|0,3:2|3:0,0:0:0:0:
188,218,70748,2,0,L|263:208,1,70,10|8,1:2|3:0,0:0:0:0:
224,296,71114,1,10,3:2:0:0:
224,296,71297,1,4,3:0:0:0:
257,371,71480,2,0,L|187:380,1,70,10|4,1:2|3:0,0:0:0:0:
321,312,71846,6,0,P|361:328|399:331,1,70,10|8,3:2|3:0,0:0:0:0:
468,371,72212,1,10,1:2:0:0:
512,302,72395,1,4,3:0:0:0:
441,245,72578,2,0,L|460:167,1,70,10|8,3:2|1:1,0:0:0:0:
467,172,72852,1,0,3:0:0:0:
475,166,72943,1,12,1:0:0:0:
340,36,73309,70,0,L|361:118,1,70,10|4,3:2|3:0,0:0:0:0:
266,128,73675,2,0,L|248:60,1,70,10|8,1:2|3:0,0:0:0:0:
239,55,73949,1,0,1:0:0:0:
229,51,74041,1,10,3:2:0:0:
162,0,74224,1,8,3:0:0:0:
107,69,74407,1,10,1:2:0:0:
33,26,74590,6,0,B|3:68|3:68|36:106|47:155,1,140,2|4,3:2|3:0,0:0:0:0:
105,201,75139,2,0,P|81:253|80:282,1,70,10|6,1:2|3:0,0:0:0:0:
7,324,75504,1,10,3:2:0:0:
85,378,75687,1,0,1:0:0:0:
85,378,75779,1,0,1:0:0:0:
85,378,75870,2,0,L|126:368,3,35,4|4|8|0,3:0|3:0|3:0|1:0,0:0:0:0:
143,344,76236,70,0,P|189:350|215:372,1,70,4|2,3:1|0:3,0:0:0:0:
284,316,76602,2,0,L|268:243,1,70,2|2,1:0|0:3,0:0:0:0:
203,193,76968,2,0,L|225:79,1,105,4|0,3:0|0:0,0:0:0:0:
234,83,77334,1,2,1:0:0:0:
298,24,77517,22,0,P|343:22|396:98,1,140,2|2,3:3|3:3,0:0:0:0:
475,129,78065,2,0,P|455:175|457:203,1,70,2|2,1:0|0:3,0:0:0:0:
511,259,78431,1,4,3:0:0:0:
438,312,78614,1,8,1:1:0:0:
438,312,78706,1,0,1:0:0:0:
438,312,78797,2,0,P|391:321|357:338,1,70,8|0,3:1|0:0,0:0:0:0:
288,376,79163,54,0,B|211:372|227:341|154:336,1,140,4|2,3:1|1:0,0:0:0:0:
80,370,79712,1,2,0:3:0:0:
22,306,79895,2,0,L|37:230,1,70,4|2,3:0|0:3,0:0:0:0:
111,196,80260,1,2,1:0:0:0:
37,139,80443,22,0,B|7:59|7:59|51:14,1,140,2|0,0:3|1:0,0:0:0:0:
64,26,80901,1,0,1:0:0:0:
64,26,80992,1,0,1:0:0:0:
138,73,81175,1,8,3:0:0:0:
213,22,81358,2,0,B|243:40|243:40|292:33,1,70,4|8,3:0|1:0,0:0:0:0:
338,98,81724,2,0,L|317:213,1,105,12|8,1:0|3:0,0:0:0:0:
338,224,82090,54,0,L|386:214,3,35,4|2|2|2,3:2|3:2|3:2|3:2,0:0:0:0:
401,189,82456,2,0,L|449:199,3,35,2|2|2|2,1:2|3:2|3:2|3:2,0:0:0:0:
463,225,82821,2,0,L|444:308,1,70,2|8,3:2|3:0,0:0:0:0:
461,384,83187,1,0,1:0:0:0:
374,376,83370,37,6,3:2:0:0:
374,376,83462,1,2,3:2:0:0:
374,376,83553,2,0,P|328:369|293:384,1,70,2|8,3:2|3:0,0:0:0:0:
236,331,83919,2,0,P|190:338|155:323,1,70,2|2,1:2|3:2,0:0:0:0:
166,328,84193,1,2,1:2:0:0:
164,324,84285,1,2,3:2:0:0:
88,370,84468,1,4,3:0:0:0:
25,304,84651,1,2,1:2:0:0:
18,306,84742,1,0,1:0:0:0:
11,307,84834,1,2,1:2:0:0:
80,239,85017,38,0,P|73:209|61:193,3,35,2|2|2|2,3:2|3:2|3:2|3:2,0:0:0:0:
80,178,85382,2,0,P|62:155|46:149,3,35,6|2|2|2,1:2|3:2|3:2|1:2,0:0:0:0:
27,132,85748,2,0,L|47:56,1,70,2|8,3:2|3:0,0:0:0:0:
118,24,86114,1,0,1:0:0:0:
187,76,86297,1,4,3:1:0:0:
193,74,86389,1,2,3:2:0:0:
199,72,86480,1,2,3:2:0:0:
256,192,86571,12,4,87943,3:2:0:0:
