osu file format v14

[General]
AudioFilename: audio.mp3
AudioLeadIn: 0
PreviewTime: 58584
Countdown: 0
SampleSet: Soft
StackLeniency: 0.7
Mode: 0
LetterboxInBreaks: 0
WidescreenStoryboard: 1

[Editor]
Bookmarks: 11846,23553,35260,46968,58675
DistanceSpacing: 0.8
BeatDivisor: 8
GridSize: 32
TimelineZoom: 2.7

[Metadata]
Title:first death (TV Size)
TitleUnicode:first death (TV Size)
Artist:TK from Ling tosite sigure
ArtistUnicode:TK from 凛として時雨
Creator:Bazz B
Version:extreme
Source:チェンソーマン
Tags:-mikan mikan bazz_b petal matha -_Matha_- vanya2 Big Sis Vaporfly God Haachama chainsaw man csm anime japanese rock j-rock jrock ed ending 8 eight
BeatmapID:3906541
BeatmapSetID:1894662

[Difficulty]
HPDrainRate:5
CircleSize:4.2
OverallDifficulty:9
ApproachRate:9.4
SliderMultiplier:1.8
SliderTickRate:1

[Events]
//Background and Video events
0,0,"102503233_p0_master1200.jpg",0,0
Video,-90,"dfdsaf.mp4"
//Break Periods
//Storyboard Layer 0 (Background)
//Storyboard Layer 1 (Fail)
//Storyboard Layer 2 (Pass)
//Storyboard Layer 3 (Foreground)
//Storyboard Layer 4 (Overlay)
//Storyboard Sound Samples

[TimingPoints]
139,365.853658536586,4,2,1,65,1,0
2517,-83.3333333333333,4,2,1,65,0,0
3614,-100,4,2,1,65,0,0
5992,-90.9090909090909,4,2,1,65,0,0
11480,-250,4,2,1,65,0,0
11503,-250,4,2,1,25,0,0
11846,-76.9230769230769,4,2,1,75,0,0
13309,-66.6666666666667,4,2,1,75,0,0
14041,-133.333333333333,4,2,1,75,0,0
14590,-83.3333333333333,4,2,1,75,0,0
16053,-80,4,2,1,75,0,0
16968,-100,4,2,1,75,0,0
17151,-45.4545454545455,4,2,1,75,0,0
17471,-45.4545454545455,4,2,1,5,0,0
17517,-83.3333333333333,4,2,1,75,0,0
18431,-76.9230769230769,4,2,1,75,0,0
19163,-66.6666666666667,4,2,1,75,0,0
19895,-133.333333333333,4,2,1,75,0,0
20443,-83.3333333333333,4,2,1,75,0,0
21358,-76.9230769230769,4,2,1,75,0,0
23004,-66.6666666666667,4,2,1,75,0,0
23553,-133.333333333333,4,2,1,55,0,0
26480,-100,4,2,1,55,0,0
28309,-76.9230769230769,4,2,1,55,0,0
28858,-100,4,2,1,55,0,0
29407,-76.9230769230769,4,2,1,55,0,0
30139,-90.9090909090909,4,2,1,55,0,0
30870,-71.4285714285714,4,2,1,55,0,0
31785,-100,4,2,1,55,0,0
32334,-66.6666666666667,4,2,1,55,0,0
33065,-100,4,2,1,55,0,0
33797,-83.3333333333333,4,2,1,55,0,0
34346,-71.4285714285714,4,2,1,55,0,0
35260,-83.3333333333333,4,2,1,45,0,0
44041,-142.857142857143,4,2,1,45,0,0
45504,-66.6666666666667,4,2,1,65,0,0
45870,-58.8235294117647,4,2,1,65,0,0
46236,-66.6666666666667,4,2,1,65,0,0
46602,-50,4,2,1,65,0,0
46968,-47.6190476190476,4,2,2,75,0,0
47699,-100,4,2,2,75,0,0
48248,-100,4,2,2,75,0,0
48431,-40,4,2,2,75,0,0
49163,-200,4,2,2,75,0,0
49895,-40,4,2,2,75,0,0
50626,-200,4,2,2,75,0,0
51175,-66.6666666666667,4,2,2,75,0,0
51358,-40,4,2,2,75,0,0
51724,-100,4,2,2,75,0,0
52821,-50,4,2,2,75,0,0
53187,-66.6666666666667,4,2,2,75,0,0
53736,-76.9230769230769,4,2,2,75,0,0
54102,-100,4,2,2,75,0,0
54285,-50,4,2,2,75,0,0
54651,-100,4,2,2,75,0,0
55017,-66.6666666666667,4,2,2,75,0,0
55199,-200,4,2,2,75,0,0
55657,-100,4,2,2,75,0,0
56480,-66.6666666666667,4,2,2,75,0,0
56663,-100,4,2,2,75,0,0
57029,-50,4,2,2,75,0,0
57578,-66.6666666666667,4,2,2,75,0,0
57943,-66.6666666666667,4,2,1,75,0,0
58309,-66.6666666666667,4,2,1,80,0,0
58675,-58.8235294117647,4,2,1,90,0,1
59041,-66.6666666666667,4,2,1,90,0,1
60139,-58.8235294117647,4,2,1,90,0,1
60504,-100,4,2,1,90,0,1
60870,-66.6666666666667,4,2,1,90,0,1
61236,-50,4,2,1,90,0,1
61556,-50,4,2,1,5,0,1
61602,-76.9230769230769,4,2,1,90,0,1
61968,-66.6666666666667,4,2,1,90,0,1
62334,-100,4,2,1,90,0,1
62699,-76.9230769230769,4,2,1,90,0,1
64163,-100,4,2,1,90,0,1
64529,-83.3333333333333,4,2,1,80,0,1
66724,-71.4285714285714,4,2,1,80,0,1
67456,-83.3333333333333,4,2,1,80,0,1
68736,-66.6666666666667,4,2,1,80,0,1
68919,-133.333333333333,4,2,1,80,0,1
70382,-58.8235294117647,4,2,1,90,0,1
71480,-83.3333333333333,4,2,1,90,0,1
71846,-50,4,2,1,90,0,1
72212,-100,4,2,1,90,0,1
72760,-66.6666666666667,4,2,1,90,0,1
72943,-50,4,2,1,90,0,1
73264,-50,4,2,1,5,0,1
73309,-76.9230769230769,4,2,1,90,0,1
74041,-100,4,2,1,90,0,1
74407,-66.6666666666667,4,2,1,90,0,1
74590,-50,4,2,1,90,0,1
74864,-66.6666666666667,4,2,1,90,0,1
75139,-76.9230769230769,4,2,1,90,0,1
76236,-83.3333333333333,4,2,1,80,0,1
76785,-71.4285714285714,4,2,1,80,0,1
78065,-83.3333333333333,4,2,1,80,0,1
78797,-66.6666666666667,4,2,1,80,0,1
79163,-50,4,2,1,80,0,1
79529,-83.3333333333333,4,2,1,80,0,1
80260,-71.4285714285714,4,2,1,80,0,1
80626,-100,4,2,1,80,0,1
80992,-83.3333333333333,4,2,1,80,0,1
81358,-66.6666666666667,4,2,1,80,0,1
81724,-40,4,2,1,80,0,1
82090,-66.6666666666667,4,2,1,75,0,0
82821,-76.9230769230769,4,2,1,75,0,0
83553,-66.6666666666667,4,2,1,75,0,0
84285,-125,4,2,1,75,0,0
84834,-83.3333333333333,4,2,1,75,0,0
85748,-76.9230769230769,4,2,1,75,0,0
87395,-133.333333333333,4,2,1,75,0,0
87989,-133.333333333333,4,2,1,5,0,0

[Colours]
Combo1 : 241,220,67
Combo2 : 192,192,192
Combo3 : 64,255,112
Combo4 : 0,128,255
Combo5 : 255,162,68
Combo6 : 255,74,74

[HitObjects]
420,361,139,6,0,P|414:335|406:306,1,45,4|0,3:1|3:0,0:0:0:0:
500,126,321,2,0,P|506:152|514:181,1,45,2|0,3:2|3:0,0:0:0:0:
444,224,504,22,0,P|410:212|385:212,1,45,2|0,1:2|3:0,0:0:0:0:
284,150,687,1,8,3:0:0:0:
271,143,779,1,0,0:0:0:0:
216,185,870,54,0,P|240:176|258:172,1,45,2|0,0:0|0:0,0:0:0:0:
326,70,1053,2,0,L|316:22,1,45,0|0,3:0|0:0,0:0:0:0:
323,249,1236,22,0,L|328:277,6,22.5,0|0|0|0|2|0|0,1:0|0:0|0:0|0:0|0:0|0:0|0:0,0:0:0:0:
274,330,1602,53,0,3:0:0:0:
240,359,1693,1,0,3:0:0:0:
194,359,1785,1,2,3:2:0:0:
159,330,1876,1,0,3:0:0:0:
100,276,1968,21,0,1:2:0:0:
86,272,2059,1,0,3:0:0:0:
74,279,2151,2,0,L|65:328,1,45,8|0,3:0|0:0,0:0:0:0:
216,185,2334,1,2,0:3:0:0:
221,177,2425,1,0,0:0:0:0:
156,132,2517,54,0,P|116:148|82:150,1,53.9999983520508,8|0,3:1|3:0,0:0:0:0:
323,249,2699,2,0,P|416:222|493:227,1,161.999995056153,8|0,1:0|0:0,0:0:0:0:
487,147,3065,21,0,3:0:0:0:
509,116,3157,1,0,3:0:0:0:
498,79,3248,1,2,3:2:0:0:
463,63,3340,1,0,3:0:0:0:
403,10,3431,53,2,1:2:0:0:
403,10,3523,1,0,3:0:0:0:
334,56,3614,22,0,P|309:47|282:44,1,45,8|0,3:0|0:0,0:0:0:0:
156,132,3797,2,0,P|187:118|217:119,1,45,2|0,0:0|0:0,0:0:0:0:
68,52,3980,53,0,3:0:0:0:
68,52,4071,1,0,0:0:0:0:
68,52,4163,2,0,L|77:21,6,22.5,0|0|0|0|2|0|0,1:0|0:0|0:0|0:0|0:0|0:0|0:0,0:0:0:0:
10,118,4529,21,0,3:0:0:0:
3,153,4620,1,0,3:0:0:0:
23,182,4712,1,2,3:2:0:0:
57,192,4803,1,0,3:0:0:0:
130,236,4895,53,0,1:0:0:0:
121,244,4986,1,0,3:0:0:0:
64,302,5078,22,0,P|84:331|89:356,1,45,4|0,3:0|0:0,0:0:0:0:
197,116,5260,2,0,P|177:87|172:62,1,45,0|0,1:0|0:0,0:0:0:0:
120,26,5443,54,0,L|129:-3,1,22.5,8|0,0:1|0:0,0:0:0:0:
120,26,5992,22,0,P|94:35|60:45,1,49.5000015106202,6|0,3:2|3:0,0:0:0:0:
12,83,6175,2,0,P|38:74|72:64,1,49.5000015106202,8|0,3:0|3:0,0:0:0:0:
271,151,6358,54,0,P|297:160|331:170,1,49.5000015106202,2|0,1:2|3:0,0:0:0:0:
379,208,6541,2,0,P|353:199|319:189,1,49.5000015106202,8|0,3:0|3:0,0:0:0:0:
206,301,6724,21,2,0:3:0:0:
214,313,6815,1,0,0:0:0:0:
186,380,6907,2,0,L|199:311,1,49.5000015106202,0|0,3:2|0:0,0:0:0:0:
142,199,7090,53,2,1:2:0:0:
147,212,7181,1,0,0:0:0:0:
152,226,7273,1,0,0:0:0:0:
155,240,7364,1,0,0:0:0:0:
110,301,7456,22,0,P|70:284|58:285,1,49.5000015106202,2|0,3:2|3:0,0:0:0:0:
0,281,7639,2,0,P|26:282|48:274,1,49.5000015106202,8|0,3:0|3:0,0:0:0:0:
357,44,7821,54,0,P|317:61|305:60,1,49.5000015106202,2|0,1:2|3:0,0:0:0:0:
247,64,8004,2,0,P|273:63|295:71,1,49.5000015106202,8|0,3:0|3:0,0:0:0:0:
438,165,8187,21,2,0:3:0:0:
448,163,8279,1,0,0:0:0:0:
509,113,8370,53,4,3:0:0:0:
465,127,8462,1,8,3:0:0:0:
465,174,8553,1,2,1:2:0:0:
502,207,8645,1,2,0:0:0:0:
497,250,8736,1,2,0:0:0:0:
463,270,8828,1,2,0:0:0:0:
379,308,8919,22,0,B|373:302|373:302|394:246,1,49.5000015106202,2|0,3:2|3:0,0:0:0:0:
359,198,9102,2,0,B|353:204|353:204|374:260,1,49.5000015106202,8|0,3:0|3:0,0:0:0:0:
98,366,9285,54,0,B|104:360|104:360|83:304,1,49.5000015106202,2|0,1:2|3:0,0:0:0:0:
118,256,9468,2,0,B|124:262|124:262|103:318,1,49.5000015106202,8|0,3:0|3:0,0:0:0:0:
224,184,9651,21,2,0:3:0:0:
232,178,9742,1,0,0:0:0:0:
208,125,9834,2,0,L|220:183,1,49.5000015106202,4|0,3:0|0:0,0:0:0:0:
299,337,10017,54,0,B|266:355|260:389|260:389|263:339|299:311,1,148.50000453186,2|2,1:2|0:0,0:0:0:0:
378,291,10382,22,0,L|367:241,1,49.5000015106202,2|0,3:2|0:0,0:0:0:0:
492,201,10565,2,0,L|497:238,2,33.0000010070801,8|8|4,3:0|3:0|3:0,0:0:0:0:
428,155,10748,53,4,1:2:0:0:
368,109,10840,1,8,3:0:0:0:
377,35,10931,1,4,3:0:0:0:
447,9,11023,1,8,3:0:0:0:
501,96,11114,21,4,1:0:0:0:
428,155,11206,1,0,1:0:0:0:
367,242,11297,53,4,1:3:0:0:
446,311,11389,1,8,1:3:0:0:
399,376,11480,22,2,L|408:315,1,54,2|2,1:2|0:0,0:0:0:0:
367,242,11846,53,4,3:2:0:0:
323,227,11937,1,2,3:2:0:0:
276,234,12029,1,2,3:2:0:0:
251,273,12120,1,2,3:2:0:0:
206,343,12212,37,2,1:2:0:0:
176,353,12303,1,2,3:2:0:0:
145,348,12395,1,2,3:2:0:0:
129,323,12486,1,2,3:2:0:0:
57,292,12578,38,0,P|53:260|29:224,1,58.4999973220826,2|4,3:2|3:0,0:0:0:0:
99,54,12760,2,0,P|103:86|127:122,1,58.4999973220826,8|0,3:0|3:0,0:0:0:0:
43,149,12943,38,0,L|10:141,2,29.2499986610413,0|0|0,1:0|3:0|3:0,0:0:0:0:
141,212,13126,37,6,3:2:0:0:
156,206,13218,1,2,3:2:0:0:
204,146,13309,38,0,P|268:165|277:165,1,67.5000025749208,2|2,3:2|0:0,0:0:0:0:
432,277,13492,2,2,P|368:258|359:258,1,67.5000025749208,8|2,3:0|0:0,0:0:0:0:
129,339,13675,38,0,L|209:317,1,67.5000025749208,2|2,1:2|0:0,0:0:0:0:
505,153,13858,2,0,L|425:175,1,67.5000025749208,2|2,3:2|1:2,0:0:0:0:
376,95,14041,38,0,L|385:48,1,33.7500012874604,2|0,3:2|0:0,0:0:0:0:
365,9,14224,2,0,L|374:56,1,33.7500012874604,4|0,3:0|0:0,0:0:0:0:
433,383,14407,37,2,1:2:0:0:
378,328,14498,1,0,1:0:0:0:
432,277,14590,2,0,L|493:295,1,53.9999983520508,2|0,1:2|1:0,0:0:0:0:
247,67,14773,37,2,3:2:0:0:
209,98,14864,1,2,3:2:0:0:
204,146,14956,1,2,3:2:0:0:
232,184,15047,1,2,3:2:0:0:
308,223,15139,37,6,1:2:0:0:
323,243,15230,1,2,3:2:0:0:
320,270,15322,1,2,3:2:0:0:
300,287,15413,1,2,1:2:0:0:
259,357,15504,38,0,P|249:298|245:286,1,53.9999983520508,2|4,3:2|3:0,0:0:0:0:
256,0,15687,2,0,P|266:59|270:71,1,53.9999983520508,8|0,3:0|3:0,0:0:0:0:
39,133,15870,38,0,L|4:123,2,26.9999991760254,0|0|4,1:0|3:0|3:0,0:0:0:0:
84,198,16053,37,4,3:1:0:0:
149,232,16145,37,2,3:2:0:0:
219,215,16236,37,2,3:2:0:0:
257,152,16328,37,2,3:2:0:0:
319,115,16419,37,4,3:0:0:0:
391,120,16510,37,2,3:2:0:0:
444,173,16602,37,2,1:2:0:0:
453,186,16693,1,2,3:2:0:0:
440,198,16785,1,2,3:2:0:0:
431,183,16876,1,2,1:2:0:0:
391,120,16968,38,0,L|407:170,1,45,10|0,3:0|0:0,0:0:0:0:
469,355,17151,38,2,B|403:264|456:141|559:173|572:268|456:313,1,346.500010574341,2|0,3:2|0:0,0:1:0:0:
455,319,17517,2,0,P|422:306|397:307,1,53.9999983520508,0|0,0:0|1:3,0:0:0:0:
280,265,17699,37,2,3:2:0:0:
246,295,17791,1,2,3:2:0:0:
201,301,17882,1,2,3:2:0:0:
161,278,17974,1,2,3:2:0:0:
86,242,18065,37,6,1:2:0:0:
93,220,18157,1,2,3:2:0:0:
100,198,18248,1,2,3:2:0:0:
108,176,18340,1,2,3:2:0:0:
44,106,18431,38,0,B|19:106|19:106|55:128,1,58.4999973220826,2|4,3:2|3:0,0:0:0:0:
183,17,18614,2,0,B|208:17|208:17|172:39,1,58.4999973220826,8|0,3:0|3:0,0:0:0:0:
97,29,18797,38,0,L|87:-10,2,29.2499986610413,0|0|0,1:0|3:0|3:0,0:0:0:0:
207,107,18980,37,4,3:2:0:0:
226,99,19071,1,2,3:2:0:0:
300,126,19163,38,0,L|284:208,1,67.5000025749208,2|2,3:2|3:2,0:0:0:0:
172,318,19346,2,0,L|188:235,1,67.5000025749208,8|2,3:0|0:0,0:0:0:0:
125,107,19529,38,0,B|119:118|119:118|142:190,1,67.5000025749208,2|2,1:2|0:0,0:0:0:0:
277,384,19712,2,0,B|283:373|283:373|260:301,1,67.5000025749208,2|2,3:2|1:2,0:0:0:0:
351,264,19895,38,0,L|391:272,1,33.7500012874604,2|0,3:2|0:0,0:0:0:0:
455,280,20078,2,0,L|406:289,1,33.7500012874604,4|0,3:0|0:0,0:0:0:0:
44,331,20260,37,2,1:2:0:0:
111,369,20352,1,0,1:0:0:0:
172,318,20443,2,0,L|154:255,1,53.9999983520508,2|0,1:2|1:0,0:0:0:0:
260,17,20626,37,2,3:2:0:0:
305,35,20718,1,2,3:2:0:0:
319,81,20809,1,2,3:2:0:0:
300,126,20901,1,2,3:2:0:0:
219,188,20992,37,6,1:2:0:0:
190,182,21084,1,2,3:2:0:0:
163,176,21175,1,2,3:2:0:0:
135,170,21267,1,2,1:2:0:0:
49,151,21358,38,0,L|112:142,1,58.4999973220826,2|4,3:2|3:0,0:0:0:0:
495,88,21541,2,0,L|432:97,1,58.4999973220826,8|0,3:0|3:0,0:0:0:0:
391,34,21724,38,0,L|399:-2,2,29.2499986610413,0|0|4,1:0|3:0|3:0,0:0:0:0:
319,81,21907,37,4,3:1:0:0:
252,127,21998,1,2,3:2:0:0:
249,209,22090,1,2,3:2:0:0:
302,271,22181,1,2,3:2:0:0:
383,272,22273,1,4,3:0:0:0:
436,211,22364,1,2,3:2:0:0:
373,168,22456,37,4,3:0:0:0:
355,177,22547,1,8,3:0:0:0:
218,289,22639,37,2,1:2:0:0:
200,280,22730,1,8,3:0:0:0:
120,216,22821,38,0,L|86:228,1,29.2499986610413,2|0,3:2|3:0,0:0:0:0:
110,209,22913,2,0,L|69:223,1,29.2499986610413,8|0,3:0|3:0,0:0:0:0:
23,266,23004,38,0,P|36:301|47:345,1,67.5000025749208,4|4,1:2|3:0,0:0:0:0:
142,97,23187,2,0,P|129:62|118:18,1,67.5000025749208,0|0,3:0|3:0,0:0:0:0:
33,15,23370,37,8,3:0:0:0:
40,31,23462,1,8,3:0:0:0:
231,51,23553,70,0,P|283:50|319:85,1,101.250003862381,4|0,3:2|0:0,0:0:0:0:
352,152,23919,2,0,P|404:153|440:118,1,101.250003862381,2|0,1:2|0:0,0:0:0:0:
505,72,24285,6,0,P|508:53|519:25,1,33.7500012874604,2|0,0:0|0:0,0:0:0:0:
426,12,24468,2,0,P|423:31|412:59,1,33.7500012874604,2|0,3:2|0:0,0:0:0:0:
246,216,24651,69,0,1:0:0:0:
246,216,24742,2,0,B|252:249|252:249|258:254|258:254|263:291,1,67.5000025749208
203,349,25017,6,0,P|170:327|126:332,1,67.5000025749208,0|0,3:0|0:0,0:0:0:0:
77,291,25291,1,8,3:0:0:0:
77,291,25382,2,0,L|10:312,1,67.5000025749208,2|0,1:2|3:0,0:0:0:0:
352,152,25748,69,2,1:2:0:0:
352,152,25840,1,0,1:0:0:0:
404,205,25931,2,0,L|393:262,1,33.7500012874604,2|8,3:2|3:0,0:0:0:0:
449,384,26114,5,0,1:0:0:0:
492,375,26206,1,0,1:0:0:0:
512,336,26297,1,2,1:2:0:0:
499,293,26389,1,0,1:0:0:0:
413,261,26480,70,0,L|317:287,1,90,2|2,3:2|0:0,0:0:0:0:
232,362,26754,1,4,0:3:0:0:
243,371,26846,2,0,P|260:331|273:315,1,45,2|0,1:2|0:0,0:0:0:0:
174,177,27029,2,0,P|157:217|144:233,1,45,2|0,3:2|0:0,0:0:0:0:
98,284,27212,6,0,L|63:294,2,22.5,2|0|0,0:0|0:0|0:0,0:0:0:0:
252,202,27395,2,0,P|278:212|311:217,1,45,2|0,3:2|0:0,0:0:0:0:
116,42,27578,69,2,1:2:0:0:
116,42,27760,2,0,L|129:98,1,45,2|0,0:0|0:0,0:0:0:0:
5,197,27943,5,0,3:0:0:0:
3,188,28035,1,0,0:0:0:0:
2,179,28126,1,2,0:0:0:0:
0,172,28218,1,8,0:3:0:0:
52,114,28309,70,0,B|149:111|126:169|215:168,1,175.499991966248,2|0,1:2|0:0,0:0:0:0:
462,107,28675,5,2,1:2:0:0:
448,113,28767,1,0,1:0:0:0:
457,165,28858,2,0,L|471:107,1,45,0|4,0:0|0:3,0:0:0:0:
512,39,29041,69,0,1:0:0:0:
443,14,29132,1,0,1:0:0:0:
372,48,29224,1,2,1:2:0:0:
365,125,29315,1,0,1:0:0:0:
405,231,29407,6,0,P|474:212|525:215,1,116.999994644165,2|8,3:1|3:0,0:0:0:0:
484,346,29681,1,2,3:1:0:0:
418,309,29773,2,0,P|479:307|536:290,1,116.999994644165,0|4,1:0|3:0,0:0:0:0:
359,384,30047,69,0,0:0:0:0:
352,384,30139,2,0,P|328:360|330:334,1,49.5000015106202,2|0,0:3|0:0,0:0:0:0:
273,291,30321,2,0,P|255:308|253:332,1,49.5000015106202,2|0,3:2|0:0,0:0:0:0:
321,220,30504,5,0,1:0:0:0:
324,205,30596,1,0,0:0:0:0:
321,191,30687,1,2,0:0:0:0:
313,179,30779,1,0,0:0:0:0:
240,219,30870,70,0,P|190:202|93:194,1,125.999996154785,2|0,3:1|0:0,0:0:0:0:
211,64,31145,1,2,3:1:0:0:
265,115,31236,2,0,P|200:108|136:89,1,125.999996154785,2|4,1:2|3:0,0:0:0:0:
411,182,31510,5,0,0:3:0:0:
421,189,31602,2,0,L|502:174,1,62.9999980773926,2|0,1:2|1:0,0:0:0:0:
252,331,31785,69,8,3:0:0:0:
226,322,31876,1,0,0:0:0:0:
199,325,31968,1,0,1:0:0:0:
178,344,32059,1,0,1:0:0:0:
114,292,32151,5,2,1:2:0:0:
114,292,32242,1,0,1:0:0:0:
78,366,32334,70,0,P|53:280|0:246,1,135.000005149842,2|2,3:1|0:0,0:0:0:0:
117,193,32608,1,2,3:1:0:0:
144,117,32699,2,0,P|168:202|222:236,1,135.000005149842,2|4,1:2|3:0,0:0:0:0:
288,219,32974,5,0,0:0:0:0:
288,219,33065,2,0,P|321:205|339:206,1,45,2|0,0:3|0:0,0:0:0:0:
512,168,33248,2,0,L|457:155,1,45,2|0,3:2|0:0,0:0:0:0:
355,109,33431,69,0,1:0:0:0:
347,92,33523,1,0,0:0:0:0:
347,74,33614,1,2,0:0:0:0:
354,57,33706,1,0,0:0:0:0:
394,0,33797,6,0,L|385:56,1,53.9999983520508,2|0,3:1|0:0,0:0:0:0:
416,293,33980,1,0,0:0:0:0:
416,293,34071,1,2,3:1:0:0:
416,293,34163,2,0,L|425:237,1,53.9999983520508,2|0,1:2|0:0,0:0:0:0:
269,76,34346,69,8,3:0:0:0:
259,71,34437,1,0,0:0:0:0:
254,79,34529,2,0,P|265:116|272:147,1,62.9999980773926,0|0,1:0|1:0,0:0:0:0:
512,368,34712,2,0,P|500:330|494:300,1,62.9999980773926,0|0,0:0|3:0,0:0:0:0:
255,160,34895,5,0,1:0:0:0:
230,234,34986,1,0,1:0:0:0:
289,293,35078,69,8,3:0:0:0:
292,305,35169,1,4,3:0:0:0:
248,381,35260,6,0,B|193:326|227:254|289:179|301:206|362:285|388:254|492:157|485:-1|312:-76|214:-57|86:-32|114:162|236:235|396:227|351:123,1,863.999973632813,4|4,3:1|3:2,0:0:0:0:
352,127,38187,6,0,B|396:227|236:235|114:162|86:-32|214:-57|312:-76|485:-1|492:157|388:254|362:285|301:206|289:179|227:254|193:326|248:381,1,863.999973632813,4|4,3:2|3:2,0:0:0:0:
256,192,39742,12,0,41023,0:0:0:0:
229,86,41114,69,4,3:1:0:0:
155,124,41480,5,0,3:0:0:0:
94,77,41846,69,0,3:0:0:0:
24,114,42212,5,0,3:0:0:0:
275,347,42578,69,4,3:2:0:0:
332,298,42943,5,0,3:0:0:0:
405,321,43309,69,0,3:0:0:0:
482,288,43675,5,0,3:0:0:0:
415,30,44041,70,0,L|399:109,1,62.9999980773926,4|0,3:2|0:0,0:0:0:0:
478,109,44407,2,0,L|494:24,1,62.9999980773926,0|0,3:0|0:0,0:0:0:0:
165,245,44773,6,0,L|180:324,1,62.9999980773926,0|0,3:0|0:0,0:0:0:0:
102,324,45139,2,0,L|85:239,1,62.9999980773926,0|0,3:0|0:0,0:0:0:0:
318,11,45504,70,0,P|288:21|252:30,1,67.5000025749208,2|0,1:2|0:0,0:0:0:0:
57,167,45687,1,8,3:0:0:0:
53,175,45779,1,4,3:0:0:0:
0,117,45870,6,0,B|65:129|116:159|116:159|158:133,1,153.000002918243,2|0,1:2|3:0,0:0:0:0:
178,71,46145,69,8,3:0:0:0:
170,67,46236,2,0,B|161:61|161:61|182:-8,1,67.5000025749208,2|0,1:2|0:0,0:0:0:0:
327,188,46419,2,0,L|340:218,1,33.7500012874604,0|0,3:0|3:0,0:0:0:0:
338,185,46510,2,0,L|348:216,1,33.7500012874604,4|0,3:0|3:0,0:0:0:0:
386,126,46602,6,0,B|377:154|377:154|181:213|181:213|164:248,1,270,2|0,1:2|0:0,0:0:0:0:
130,371,46968,70,0,B|141:355|160:355|160:355|239:110,2,283.499991348267,4|8|4,1:2|1:0|1:0,0:0:0:0:
54,348,47608,53,0,1:0:0:0:
54,348,47699,2,0,P|28:349|0:361,1,45,2|2,0:1|0:1,0:0:0:0:
165,245,47882,22,0,L|174:215,2,22.5,2|0|0,0:0|0:0|0:0,0:0:0:0:
98,129,48065,1,0,3:0:0:0:
98,129,48248,54,0,P|123:140|141:143,1,45,2|0,0:0|0:0,0:0:0:0:
413,376,48431,22,0,B|404:270|288:231|229:285|229:285|304:297|301:356,2,337.5,6|8|12,1:0|1:0|1:0,0:0:0:0:
502,121,49163,1,2,0:1:0:0:
499,112,49254,1,2,0:1:0:0:
497,102,49346,1,2,0:1:0:0:
494,93,49437,1,0,0:0:0:0:
474,72,49529,54,2,P|426:85|401:94,1,67.5,0|0,0:0|0:0,0:1:0:0:
273,50,49895,22,0,B|397:-1|397:-1|360:112|343:228,2,337.5,6|12|14,1:0|1:0|1:0,0:0:0:0:
189,67,50535,53,0,0:0:0:0:
186,63,50626,2,0,L|196:16,2,45,2|2|2,0:1|0:1|0:0,0:0:0:0:
140,264,51175,22,0,B|132:278|139:299|139:299|140:282|155:264,1,67.5000025749208,2|0,0:0|0:0,0:0:0:0:
226,332,51358,54,0,B|64:307|64:307|54:280|17:262,1,225,6|0,1:0|1:0,0:0:0:0:
9,265,51632,1,4,1:3:0:0:
1,255,51724,2,0,P|15:223|17:196,1,45,8|0,3:0|0:0,0:0:0:0:
186,63,51907,2,0,L|200:123,1,45,2|0,1:0|0:0,0:0:0:0:
24,40,52090,21,8,0:1:0:0:
22,32,52181,2,0,L|11:-6,5,22.5,8|0|2|2|2|2,0:1|0:0|0:1|0:1|0:1|0:1,0:0:0:0:
107,90,52821,54,0,B|152:110|197:69|181:68|225:29|275:50,1,180,6|0,1:0|3:0,0:0:0:0:
281,45,53096,1,8,3:0:0:0:
290,40,53187,2,0,P|300:81|304:114,1,67.5000025749208,4|0,3:0|3:0,0:0:0:0:
421,233,53370,2,0,P|411:192|407:159,1,67.5000025749208,2|0,1:0|0:0,0:0:0:0:
488,30,53553,2,0,P|499:41|502:64,1,33.7500012874604,12|8,0:1|0:1,0:0:0:0:
512,55,53645,2,0,P|510:79|492:94,1,33.7500012874604,8|0,0:1|0:0,0:0:0:0:
431,96,53736,22,0,L|400:87,2,29.2499986610413,2|2|2,0:1|0:1|0:1,0:0:0:0:
283,205,53919,1,2,0:1:0:0:
283,205,54102,54,0,P|305:193|340:189,1,45,2|0,0:1|0:0,0:0:0:0:
482,318,54285,22,0,B|504:223|413:206|413:206|424:243,1,180,6|8,1:0|3:0,0:0:0:0:
386,305,54559,1,4,3:0:0:0:
386,305,54651,2,0,L|347:319,2,22.5,0|0|0,3:0|0:0|0:0,0:0:0:0:
311,371,54834,2,0,L|289:363,2,22.5,2|0|2,1:0|0:0|3:1,0:0:0:0:
208,298,55017,54,0,L|169:315,1,33.7500012874604,14|0,0:1|3:0,0:0:0:0:
193,293,55108,2,0,L|154:310,1,33.7500012874604,8|0,0:1|3:0,0:0:0:0:
114,368,55199,22,2,P|75:353|23:343,1,90,2|0,0:1|0:0,0:1:0:0:
27,343,55748,53,6,1:0:0:0:
0,307,55840,1,0,0:0:0:0:
19,266,55931,1,4,3:0:0:0:
63,260,56023,1,2,1:0:0:0:
118,201,56114,21,10,1:0:0:0:
127,206,56206,1,4,3:0:0:0:
68,136,56297,53,2,1:0:0:0:
42,148,56389,1,0,0:0:0:0:
126,74,56480,22,0,B|155:82|155:82|157:86|157:86|191:94,1,67.5000025749208,10|0,0:1|0:0,0:0:0:0:
373,43,56663,54,0,P|376:25|367:-6,1,45,2|0,3:1|0:0,0:0:0:0:
294,7,56846,2,0,P|291:25|300:56,1,45,8|2,3:0|0:1,0:0:0:0:
427,221,57029,22,0,B|444:185|484:185|484:185|500:201,1,90,2|2,3:1|0:1,0:0:0:0:
498,199,57212,54,0,B|396:226|438:121|304:153,1,180,6|8,1:0|3:0,0:0:0:0:
255,202,57486,1,4,3:0:0:0:
288,287,57578,22,0,B|293:276|293:276|276:206,1,67.5000025749208,2|2,3:1|0:1,0:0:0:0:
117,9,57760,54,0,B|112:20|112:20|129:90,1,67.5000025749208,2|0,1:0|3:0,0:0:0:0:
200,103,57943,21,0,1:0:0:0:
213,134,58035,1,0,1:0:0:0:
197,163,58126,1,0,1:0:0:0:
167,175,58218,1,0,1:0:0:0:
94,168,58309,53,0,1:0:0:0:
17,203,58401,21,8,1:3:0:0:
15,287,58492,53,0,1:0:0:0:
93,314,58584,21,4,1:3:0:0:
129,384,58675,6,0,B|124:359|143:353|143:353|91:158,1,229.500004377365,10|0,3:2|3:0,0:0:0:0:
17,67,59041,70,0,B|39:42|39:42|19:97,1,67.5000025749208,10|0,1:2|3:0,0:0:0:0:
202,271,59224,5,0,3:0:0:0:
213,266,59315,1,0,3:0:0:0:
255,202,59407,69,10,3:2:0:0:
300,189,59498,1,0,1:0:0:0:
342,211,59590,1,8,3:0:0:0:
361,253,59681,1,0,3:0:0:0:
355,328,59773,6,0,P|318:331|280:360,1,67.5000025749208,10|0,1:2|0:0,0:0:0:0:
439,161,59956,1,8,3:0:0:0:
453,166,60047,1,0,3:0:0:0:
478,234,60139,70,0,B|485:208|505:199|505:199|490:148|480:82,1,153.000002918243,10|0,3:2|3:0,0:0:0:0:
344,14,60413,5,0,3:0:0:0:
341,23,60504,2,0,P|349:58|368:70,1,45,10|0,1:2|3:0,0:0:0:0:
431,42,60687,2,0,P|423:7|404:-5,1,45,8|0,3:0|3:0,0:0:0:0:
273,108,60870,69,4,3:0:0:0:
273,108,61053,2,0,B|236:99|236:99|234:97|234:97|203:89,1,67.5000025749208,8|0,1:1|3:0,0:0:0:0:
36,127,61236,6,0,B|35:54|96:-12|189:-18|227:75|160:147|88:78,1,315,12|0,1:0|0:0,0:0:0:0:
105,91,61602,70,0,L|118:29,1,58.4999973220826,10|0,3:2|0:0,0:0:0:0:
225,208,61785,2,0,P|215:239|211:269,1,58.4999973220826,8|0,3:0|3:0,0:0:0:0:
119,365,61968,6,0,B|66:346|81:292|113:280|113:280|152:300,1,135.000005149842,10|8,1:2|3:0,0:0:0:0:
139,294,62242,1,0,1:0:0:0:
205,347,62334,70,0,P|250:336|259:335,1,45,10|0,3:2|1:0,0:0:0:0:
474,361,62517,2,0,P|434:369|420:373,1,45,8|0,3:0|3:0,0:0:0:0:
361,253,62699,6,0,L|351:220,2,29.2499986610413,10|0|8,1:2|3:0|3:0,0:0:0:0:
332,323,62882,70,0,B|322:335|328:353|328:353|330:339|345:330,1,58.4999973220826,4|0,3:0|3:0,0:0:0:0:
225,208,63065,5,10,3:2:0:0:
199,183,63157,1,0,1:0:0:0:
165,174,63248,1,8,3:0:0:0:
132,188,63340,1,0,3:0:0:0:
66,238,63431,70,0,P|112:221|131:221,1,58.4999973220826,8|0,1:2|3:0,0:0:0:0:
345,124,63614,2,0,P|316:119|290:106,1,58.4999973220826,2|0,3:2|3:0,0:0:0:0:
222,63,63797,6,0,L|239:0,1,58.4999973220826,4|0,3:0|0:0,0:0:0:0:
493,248,63980,1,8,3:1:0:0:
431,287,64071,1,0,1:0:0:0:
361,253,64163,70,0,L|378:202,1,45,8|0,1:0|3:0,0:0:0:0:
458,64,64346,1,4,3:0:0:0:
464,49,64437,1,4,3:0:0:0:
404,7,64529,38,0,P|424:56|427:71,1,53.9999983520508,4|0,3:1|0:0,0:0:0:0:
492,165,64712,2,0,P|500:139|512:115,1,53.9999983520508,2|0,3:0|0:0,0:0:0:0:
290,210,64895,37,2,1:0:0:0:
265,231,64986,1,2,0:1:0:0:
255,262,65078,1,2,0:3:0:0:
265,292,65169,1,2,0:1:0:0:
284,317,65260,2,0,P|327:303|347:302,1,53.9999983520508,4|0,3:0|0:0,0:0:0:0:
117,223,65443,1,2,3:3:0:0:
117,223,65535,1,0,0:0:0:0:
117,223,65626,2,0,P|74:237|54:238,1,53.9999983520508,2|0,1:0|0:0,0:0:0:0:
7,303,65809,38,0,P|10:317|10:300,1,53.9999983520508,2|0,0:3|0:0,0:0:0:0:
203,126,65992,37,8,3:0:0:0:
209,105,66084,1,0,0:0:0:0:
215,84,66175,1,2,0:3:0:0:
222,63,66267,1,0,0:0:0:0:
160,17,66358,37,2,1:0:0:0:
118,4,66449,1,0,0:0:0:0:
78,23,66541,1,2,0:3:0:0:
59,61,66632,1,0,0:0:0:0:
71,136,66724,38,0,P|105:126|135:121,1,62.9999980773926,4|0,3:0|0:0,0:0:0:0:
404,7,66907,2,0,P|369:15|342:20,1,62.9999980773926,2|0,3:3|0:0,0:0:0:0:
290,106,67090,37,2,1:0:0:0:
335,172,67181,1,0,1:0:0:0:
414,187,67273,1,4,3:0:0:0:
484,150,67364,1,8,3:0:0:0:
478,138,67456,38,0,P|467:172|466:201,1,53.9999983520508,4|0,3:1|0:0,0:0:0:0:
317,384,67639,2,0,P|313:357|304:331,1,53.9999983520508,2|0,0:3|0:0,0:0:0:0:
491,258,67821,37,2,1:0:0:0:
506,272,67913,1,2,0:1:0:0:
512,292,68004,1,2,0:3:0:0:
507,312,68096,1,2,0:1:0:0:
437,341,68187,2,0,P|404:331|369:324,1,53.9999983520508,4|0,3:0|0:0,0:0:0:0:
212,216,68370,1,2,0:3:0:0:
212,216,68462,1,0,0:0:0:0:
212,216,68553,2,0,P|247:221|277:235,1,53.9999983520508,2|0,1:0|0:0,0:0:0:0:
335,172,68736,38,0,P|349:144|341:110,1,67.5000025749208,2|0,0:3|0:0,0:0:0:0:
134,290,68919,38,0,L|157:377,1,67.5000025749208,8|0,3:0|1:0,0:0:0:0:
137,371,69193,37,0,1:0:0:0:
101,356,69285,1,0,1:0:0:0:
81,311,69376,1,8,3:0:0:0:
93,258,69468,1,8,3:0:0:0:
142,226,69559,1,6,3:0:0:0:
212,216,69651,1,0,1:0:0:0:
261,158,69742,1,4,3:0:0:0:
244,78,69834,1,8,3:0:0:0:
162,64,69925,1,8,3:0:0:0:
109,140,70017,37,4,3:0:0:0:
142,226,70108,1,0,1:0:0:0:
237,240,70199,37,8,3:3:0:0:
216,318,70291,1,4,3:0:0:0:
137,371,70382,6,0,P|240:325|370:341,1,229.500004377365,10|0,3:2|3:0,0:0:0:0:
512,276,70748,2,0,P|501:298|444:292,1,76.5000014591217,10|0,1:2|3:0,0:0:0:0:
341,110,70931,69,8,3:0:0:0:
346,94,71023,1,0,1:0:0:0:
410,44,71114,5,10,3:2:0:0:
452,61,71206,1,8,3:0:0:0:
466,104,71297,1,4,3:0:0:0:
446,146,71389,1,0,3:0:0:0:
385,200,71480,70,0,P|358:189|315:182,1,53.9999983520508,10|0,1:2|3:0,0:0:0:0:
155,70,71663,1,4,3:0:0:0:
170,63,71754,1,0,3:0:0:0:
243,34,71846,6,0,B|212:29|187:3|187:3|227:121,1,180,10|8,3:2|3:0,0:0:0:0:
102,252,72120,69,0,3:0:0:0:
92,257,72212,2,0,P|73:245|50:243,1,45,10|0,1:2|0:0,0:0:0:0:
80,163,72395,2,0,P|99:174|122:178,1,45,4|0,3:0|3:0,0:0:0:0:
281,359,72578,5,10,3:2:0:0:
281,359,72760,2,0,B|270:350|270:350|294:285,1,67.5000025749208,8|0,1:1|3:0,0:0:0:0:
404,246,72943,70,0,B|418:253|478:175|400:94|289:157|295:267|308:316|400:312,1,315,12|0,1:0|0:0,0:0:0:0:
376,311,73309,6,0,P|418:297|438:301,1,58.4999973220826,10|0,3:2|0:0,0:0:0:0:
176,165,73492,2,0,P|134:179|114:175,1,58.4999973220826,4|0,3:0|3:0,0:0:0:0:
43,225,73675,70,0,P|121:228|154:269,1,116.999994644165,10|8,1:2|3:0,0:0:0:0:
148,264,73949,1,0,1:0:0:0:
211,323,74041,6,0,P|217:302|227:282,1,45,10|4,3:2|3:0,0:0:0:0:
13,72,74224,1,8,3:0:0:0:
1,85,74315,1,0,3:0:0:0:
50,143,74407,70,0,B|40:114|40:114|43:107|43:107|33:69,1,67.5000025749208,10|2,1:2|3:0,0:0:0:0:
199,8,74590,6,0,B|222:29|222:29|161:93|178:179,1,180,2|8,3:2|3:2,0:0:0:0:
175,164,74864,2,0,P|146:140|169:93,1,67.5000025749208,0|4,1:0|3:0,0:0:0:0:
264,57,75047,69,0,3:0:0:0:
264,57,75139,2,0,L|331:68,1,58.4999973220826,10|0,1:2|3:0,0:0:0:0:
487,11,75321,2,0,P|447:15|416:38,1,58.4999973220826,6|0,3:0|3:0,0:0:0:0:
402,156,75504,5,10,3:2:0:0:
409,173,75596,1,0,1:0:0:0:
472,201,75687,69,0,1:0:0:0:
395,198,75779,1,0,1:0:0:0:
334,242,75870,1,4,3:0:0:0:
326,318,75962,1,4,3:0:0:0:
375,375,76053,6,0,L|408:362,1,29.2499986610413,8|0,3:0|3:0,0:0:0:0:
385,383,76145,2,0,L|418:370,1,29.2499986610413,0|0,1:0|1:0,0:0:0:0:
326,318,76236,70,0,P|284:325|263:346,1,53.9999983520508,4|0,3:1|0:0,0:0:0:0:
43,225,76419,2,0,L|104:237,1,53.9999983520508,2|0,0:3|0:0,0:0:0:0:
175,364,76602,21,2,1:0:0:0:
164,377,76693,1,2,0:1:0:0:
152,365,76785,2,0,L|170:300,1,62.9999980773926,2|2,0:3|0:1,0:0:0:0:
264,57,76968,2,0,L|248:124,1,62.9999980773926,4|0,3:0|3:0,0:0:0:0:
305,178,77151,54,0,P|328:175|309:171,1,62.9999980773926,2|0,0:3|0:0,0:0:0:0:
174,86,77334,2,0,L|109:102,1,62.9999980773926,2|8,1:0|3:0,0:0:0:0:
44,48,77517,22,0,L|54:10,2,31.4999990386963,2|0|0,3:3|0:0|0:0,0:0:0:0:
93,234,77699,54,0,P|77:306|69:370,1,125.999996154785,4|2,3:0|3:3,0:0:0:0:
0,374,77974,1,0,0:0:0:0:
0,374,78065,2,0,P|-5:338|5:319,1,53.9999983520508,2|2,1:0|0:1,0:0:0:0:
176,215,78248,21,2,0:3:0:0:
182,225,78340,1,2,0:1:0:0:
168,304,78431,53,4,3:0:0:0:
239,330,78523,1,0,1:0:0:0:
311,308,78614,1,8,1:1:0:0:
343,239,78706,1,0,1:0:0:0:
312,169,78797,22,0,L|244:189,1,67.5000025749208,8|0,3:1|0:0,0:0:0:0:
0,374,78980,2,0,L|68:354,1,67.5000025749208,0|0,0:0|1:0,0:0:0:0:
240,54,79163,54,0,B|193:44|155:94|180:114|153:168|88:151,1,180,4|2,3:1|0:3,0:0:0:0:
38,102,79437,21,0,0:0:0:0:
32,96,79529,2,0,P|33:59|53:42,2,53.9999983520508,2|2|2,1:0|0:1|0:3,0:0:0:0:
177,243,79803,1,2,0:1:0:0:
180,251,79895,2,0,L|164:321,1,53.9999983520508,4|0,3:0|0:0,0:0:0:0:
226,356,80078,54,0,L|266:344,2,26.9999991760254,2|0|0,0:3|0:0|0:0,0:0:0:0:
472,201,80260,2,0,L|397:225,1,62.9999980773926,2|0,1:0|0:0,0:0:0:0:
357,285,80443,22,0,L|372:323,2,31.4999990386963,2|0|0,0:3|0:0|0:0,0:0:0:0:
415,126,80626,54,0,B|424:65|372:37,1,90,4|0,3:0|1:0,0:0:0:0:
314,3,80901,1,0,1:0:0:0:
258,65,80992,2,0,L|198:51,1,53.9999983520508,0|0,1:0|0:0,0:0:0:0:
32,96,81175,21,8,3:0:0:0:
44,102,81267,1,0,1:0:0:0:
110,43,81358,54,0,L|184:29,1,67.5000025749208,4|0,3:0|0:0,0:0:0:0:
313,201,81541,2,0,L|240:186,1,67.5000025749208,8|0,1:0|1:0,0:0:0:0:
64,354,81724,22,0,B|130:348|207:202|85:160|15:192|6:302|77:318|118:299,1,337.5,12|8,1:0|3:0,0:0:0:0:
226,356,82090,53,4,3:2:0:0:
268,376,82181,1,2,3:2:0:0:
315,373,82273,1,2,3:2:0:0:
343,335,82364,1,2,3:2:0:0:
392,270,82456,37,2,1:2:0:0:
412,243,82547,1,2,3:2:0:0:
445,238,82639,1,2,3:2:0:0:
476,250,82730,1,2,3:2:0:0:
512,325,82821,38,0,P|463:304|448:305,1,58.4999973220826,2|4,3:2|3:0,0:0:0:0:
246,187,83004,2,0,P|295:208|310:207,1,58.4999973220826,8|0,3:0|3:0,0:0:0:0:
356,151,83187,38,0,L|346:114,2,29.2499986610413,0|0|0,1:0|3:0|3:0,0:0:0:0:
258,282,83370,1,6,3:2:0:0:
269,293,83462,1,2,3:2:0:0:
226,356,83553,38,0,P|233:303|244:275,1,67.5000025749208,2|2,3:2|0:0,0:0:0:0:
154,79,83736,2,2,P|147:132|136:160,1,67.5000025749208,8|2,3:0|0:0,0:0:0:0:
77,267,83919,38,0,L|52:194,1,67.5000025749208,2|2,1:2|0:0,0:0:0:0:
247,13,84102,2,0,L|268:76,1,67.5000025749208,2|2,3:2|1:2,0:0:0:0:
348,122,84285,38,0,L|391:113,1,36,2|0,3:2|0:0,0:0:0:0:
451,140,84468,2,0,L|408:129,1,36,4|0,3:0|0:0,0:0:0:0:
45,58,84651,37,2,1:2:0:0:
93,2,84742,1,0,1:0:0:0:
165,26,84834,2,0,L|150:95,1,53.9999983520508,2|0,1:2|1:0,0:0:0:0:
67,357,85017,37,2,3:2:0:0:
25,347,85108,1,2,3:2:0:0:
3,309,85199,1,2,3:2:0:0:
19,267,85291,1,2,3:2:0:0:
87,224,85382,37,6,1:2:0:0:
109,209,85474,1,2,3:2:0:0:
115,182,85565,1,2,3:2:0:0:
100,159,85657,1,2,1:2:0:0:
42,95,85748,38,0,P|51:126|58:154,1,58.4999973220826,2|4,3:2|3:0,0:0:0:0:
128,384,85931,2,0,P|117:353|112:325,1,58.4999973220826,8|0,3:0|3:0,0:0:0:0:
195,215,86114,38,0,L|230:226,2,29.2499986610413,0|0|4,1:0|3:0|3:0,0:0:0:0:
278,154,86297,37,4,3:1:0:0:
348,122,86389,37,2,3:2:0:0:
421,143,86480,37,2,3:2:0:0:
468,202,86571,37,2,3:2:0:0:
456,278,86663,37,4,3:0:0:0:
394,321,86754,37,2,3:2:0:0:
342,310,86846,37,2,1:2:0:0:
329,265,86937,37,2,3:2:0:0:
357,234,87029,37,2,3:2:0:0:
391,238,87120,37,2,1:2:0:0:
456,278,87212,38,0,L|496:288,1,29.2499986610413,2|0,1:2|1:0,0:0:0:0:
465,289,87303,2,0,L|501:298,1,29.2499986610413,0|0,1:0|1:0,0:0:0:0:
405,349,87395,38,2,P|342:348|275:386,1,135.000005149842,4|0,3:1|1:0,0:1:0:0:
203,331,87852,37,0,1:0:0:0:
108,344,87943,38,0,L|114:316,1,16.8750006437302,4|0,3:2|0:0,0:0:0:0:
