osu file format v14

[General]
AudioFilename: audio.mp3
AudioLeadIn: 0
PreviewTime:58584
Countdown: 0
SampleSet: Soft
StackLeniency: 0.7
Mode: 0
LetterboxInBreaks: 0
WidescreenStoryboard: 1

[Editor]
Bookmarks: 11846,23553,35260,46968,58675
DistanceSpacing: 0.8
BeatDivisor: 8
GridSize: 32
TimelineZoom: 2.7

[Metadata]
Title:first death (TV Size)
TitleUnicode:first death (TV Size)
Artist:TK from Ling tosite sigure
ArtistUnicode:TK from 凛として時雨
Creator:Bazz B
Version:easy
Source:チェンソーマン
Tags:-mikan mikan bazz_b petal matha -_Matha_- vanya2 Big Sis Vaporfly God Haachama chainsaw man csm anime japanese rock j-rock jrock ed ending 8 eight
BeatmapID:3904546
BeatmapSetID:1894662

[Difficulty]
HPDrainRate:2
CircleSize:3
OverallDifficulty:3
ApproachRate:4
SliderMultiplier:1.1
SliderTickRate:1

[Events]
//Background and Video events
0,0,"102503233_p0_master1200.jpg",0,0
Video,-90,"dfdsaf.mp4"
//Break Periods
2,35460,39794
//Storyboard Layer 0 (Background)
//Storyboard Layer 1 (Fail)
//Storyboard Layer 2 (Pass)
//Storyboard Layer 3 (Foreground)
//Storyboard Layer 4 (Overlay)
//Storyboard Sound Samples

[TimingPoints]
139,365.853658536586,4,2,1,65,1,0
11503,-100,4,2,1,25,0,0
11846,-100,4,2,1,75,0,0
17471,-100,4,2,1,5,0,0
17517,-100,4,2,1,75,0,0
23553,-100,4,2,1,55,0,0
35260,-100,4,2,1,45,0,0
45504,-100,4,2,1,65,0,0
46968,-100,4,2,2,75,0,0
57943,-100,4,2,1,75,0,0
58309,-100,4,2,1,80,0,0
58675,-100,4,2,1,90,0,1
64529,-100,4,2,1,80,0,1
70382,-100,4,2,1,90,0,1
76236,-100,4,2,1,80,0,1
82090,-100,4,2,1,75,0,0

[Colours]
Combo1 : 241,220,67
Combo2 : 192,192,192
Combo3 : 64,255,112
Combo4 : 0,128,255
Combo5 : 255,162,68
Combo6 : 255,74,74

[HitObjects]
7,384,139,6,0,P|59:333|217:327,1,220,4|2,3:1|0:0,0:0:0:0:
264,259,1236,1,0,1:0:0:0:
201,197,1602,22,0,P|179:158|205:95,1,110,0|0,3:0|1:2,0:0:0:0:
253,30,2334,2,0,L|373:46,1,110,2|8,0:3|1:0,0:0:0:0:
443,10,3065,54,0,B|498:52|498:52|461:205,1,220,0|2,3:0|0:0,0:0:0:0:
501,277,4163,1,0,1:0:0:0:
429,328,4529,2,0,P|381:324|325:365,1,110,0|0,3:0|1:0,0:0:0:0:
252,312,5260,2,0,L|266:244,1,55,0|8,1:0|0:1,0:0:0:0:
175,158,5992,22,0,P|127:138|41:262,1,220,6|2,3:2|0:3,0:0:0:0:
69,328,7090,1,2,1:2:0:0:
149,364,7456,2,0,B|244:357|207:312|315:313,2,165,2|8|2,3:2|3:0|1:2,0:0:0:0:
69,328,8919,54,0,L|111:98,1,220,2|2,3:2|0:3,0:0:0:0:
79,28,10017,1,2,1:2:0:0:
164,7,10382,22,0,L|279:32,1,110,2|4,3:2|1:2,0:0:0:0:
331,94,11114,1,4,1:0:0:0:
401,40,11480,1,2,1:2:0:0:
476,84,11846,54,0,P|442:182|437:312,1,220,4|2,3:2|3:2,0:0:0:0:
379,364,12943,1,0,1:0:0:0:
310,308,13309,2,0,P|315:198|350:94,1,220,2|2,3:2|3:2,0:0:0:0:
295,25,14407,1,2,1:2:0:0:
225,78,14773,38,0,P|181:61|17:121,1,220,2|2,3:2|3:2,0:0:0:0:
6,198,15870,1,0,1:0:0:0:
56,270,16236,2,0,P|150:217|256:236,1,220,2|10,3:2|3:0,0:0:0:0:
304,310,17334,1,0,1:0:0:0:
388,288,17699,38,0,P|429:73|434:52,1,220,2|2,3:2|3:2,0:0:0:0:
367,9,18797,1,0,1:0:0:0:
280,27,19163,2,0,P|257:134|238:243,1,220,2|2,3:2|3:2,0:0:0:0:
286,317,20260,1,2,1:2:0:0:
213,367,20626,38,0,B|106:372|122:304|-6:311,1,220,2|2,3:2|3:2,0:0:0:0:
10,222,21724,1,0,1:0:0:0:
256,192,21907,12,4,23553,3:2:0:0:
56,350,25017,38,0,P|43:291|19:241,1,110,0|2,3:0|1:2,0:0:0:0:
63,168,25748,2,0,P|136:146|220:255,1,220,2|2,1:2|3:2,0:0:0:0:
245,328,26846,1,2,1:2:0:0:
332,332,27212,2,0,P|378:302|389:243,1,110,2|2,0:0|1:2,0:0:0:0:
284,110,28309,2,0,L|313:1,2,110,2|2|0,1:2|1:2|1:0,0:0:0:0:
211,161,29407,70,0,P|161:165|90:196,1,110,2|0,3:1|1:0,0:0:0:0:
34,133,30139,2,0,B|-8:184|-8:184|50:254|57:330,1,220,2|2,0:3|3:1,0:0:0:0:
136,357,31236,1,2,1:2:0:0:
214,314,31602,2,0,B|311:311|321:370|434:364,1,220,2|2,1:2|3:1,0:0:0:0:
500,317,32699,5,2,1:2:0:0:
400,171,33431,1,0,1:0:0:0:
469,116,33797,2,0,P|485:45|506:8,2,110,2|2|0,3:1|1:2|1:0,0:0:0:0:
400,171,34895,1,0,1:0:0:0:
323,128,35260,5,4,3:1:0:0:
36,187,41114,70,0,P|15:116|32:74,1,110,4|0,3:1|3:0,0:0:0:0:
113,75,41846,2,0,P|134:146|117:188,1,110,0|0,3:0|3:0,0:0:0:0:
196,227,42578,6,0,P|175:298|192:340,1,110,4|0,3:2|3:0,0:0:0:0:
273,339,43310,2,0,P|294:268|277:226,1,110,0|0,3:0|3:0,0:0:0:0:
350,179,44041,70,0,P|329:108|346:66,1,110,4|0,3:2|3:0,0:0:0:0:
427,67,44773,2,0,P|448:138|431:180,1,110,0|0,3:0|3:0,0:0:0:0:
484,243,45504,5,2,1:2:0:0:
451,324,45870,1,2,1:2:0:0:
369,357,46236,1,2,1:2:0:0:
282,340,46602,1,2,1:2:0:0:
226,271,46968,70,0,L|246:178,2,82.5,4|8|4,1:2|1:0|1:0,0:0:0:0:
8,304,48431,2,0,L|28:397,2,82.5,6|8|12,1:0|1:0|1:0,0:0:0:0:
64,90,49895,54,0,L|84:-3,2,82.5,6|12|14,1:0|1:0|1:0,0:0:0:0:
267,172,51358,2,0,L|287:265,2,82.5,6|4|2,1:0|1:3|1:0,0:0:0:0:
436,31,52821,22,0,P|495:61|496:118,1,110,6|4,1:0|3:0,0:0:0:0:
457,175,53553,1,12,0:1:0:0:
493,347,54285,2,0,P|435:330|375:326,1,110,6|0,1:0|3:0,0:0:0:0:
306,363,55017,1,14,0:1:0:0:
218,210,55748,54,0,L|247:92,1,110,6|10,1:0|1:0,0:0:0:0:
181,41,56480,1,10,0:1:0:0:
33,137,57212,2,0,L|66:255,1,110,6|2,1:0|3:1,0:0:0:0:
17,318,57943,1,0,1:0:0:0:
89,368,58309,1,0,1:0:0:0:
183,337,58675,22,0,P|248:310|307:318,1,110,10|10,3:2|1:2,0:0:0:0:
369,367,59407,1,10,3:2:0:0:
461,331,59773,1,10,1:2:0:0:
453,232,60139,2,0,L|487:120,2,110,10|10|4,3:2|1:2|3:0,0:0:0:0:
354,222,61236,1,12,1:0:0:0:
330,125,61602,6,0,L|207:106,1,110,10|10,3:2|1:2,0:0:0:0:
153,181,62334,1,10,3:2:0:0:
63,139,62700,1,10,1:2:0:0:
0,215,63065,2,0,L|24:330,2,110,10|8|4,3:2|1:2|3:0,0:0:0:0:
63,139,64163,1,8,1:0:0:0:
63,39,64529,70,0,P|190:18|266:86,1,220,4|4,3:1|3:0,0:0:0:0:
344,23,65626,1,2,1:0:0:0:
430,70,65992,2,0,P|411:121|405:190,1,110,8|2,3:0|1:0,0:0:0:0:
469,251,66724,2,0,L|344:269,1,110,4|2,3:0|1:0,0:0:0:0:
312,354,67456,38,0,B|193:351|241:286|100:276,1,220,4|4,3:1|3:0,0:0:0:0:
33,215,68553,1,2,1:0:0:0:
100,142,68919,2,0,B|107:129|107:129|77:29,1,110,8|0,3:0|1:0,0:0:0:0:
174,8,69651,2,0,B|167:21|167:21|197:121,1,110,0|4,1:0|3:0,0:0:0:0:
257,188,70382,38,0,L|238:297,1,110,10|10,3:2|1:2,0:0:0:0:
294,378,71114,1,10,3:2:0:0:
392,372,71480,1,10,1:2:0:0:
433,282,71846,2,0,B|473:275|473:275|494:253|494:253|544:246,2,110,10|10|10,3:2|1:2|3:2,0:0:0:0:
350,226,72943,1,12,1:0:0:0:
415,151,73309,6,0,B|432:136|432:136|410:37,1,110,10|10,3:2|1:2,0:0:0:0:
320,13,74041,1,10,3:2:0:0:
249,82,74407,1,10,1:2:0:0:
160,37,74773,2,0,L|45:67,2,110,8|10|10,3:2|1:2|3:2,0:0:0:0:
249,82,75870,1,4,3:0:0:0:
189,160,76236,70,0,B|159:267|159:267|186:342|259:311,1,220,4|4,3:1|3:0,0:0:0:0:
324,261,77334,1,2,1:0:0:0:
388,335,77699,2,0,P|449:317|509:317,2,110,4|2|4,3:0|1:0|3:0,0:0:0:0:
324,261,78797,1,8,3:1:0:0:
409,211,79163,22,0,B|416:145|455:87|455:87|369:18,1,220,4|4,3:1|3:0,0:0:0:0:
305,87,80260,1,2,1:0:0:0:
220,35,80626,2,0,B|169:42|169:42|160:50|160:50|98:60,1,110,4|0,3:0|1:0,0:0:0:0:
18,29,81358,2,0,B|-8:74|-8:74|23:127,1,110,4|12,3:0|1:0,0:0:0:0:
111,166,82090,54,0,B|99:257|17:255|17:364,1,220,4|2,3:2|3:2,0:0:0:0:
115,369,83187,1,0,1:0:0:0:
213,379,83553,2,0,B|212:274|294:276|306:185,1,220,2|2,3:2|3:2,0:0:0:0:
208,175,84651,1,2,1:2:0:0:
256,192,85017,12,4,87943,3:2:0:0:
