osu file format v14

[General]
AudioFilename: audio.mp3
AudioLeadIn: 0
PreviewTime: 58584
Countdown: 0
SampleSet: Soft
StackLeniency: 0.7
Mode: 0
LetterboxInBreaks: 0
WidescreenStoryboard: 1

[Editor]
DistanceSpacing: 0.4
BeatDivisor: 4
GridSize: 4
TimelineZoom: 3.699999

[Metadata]
Title:first death (TV Size)
TitleUnicode:first death (TV Size)
Artist:TK from Ling tosite sigure
ArtistUnicode:TK from 凛として時雨
Creator:Bazz B
Version:big sis' extra
Source:チェンソーマン
Tags:-mikan mikan bazz_b petal matha -_Matha_- vanya2 Big Sis Vaporfly God Haachama chainsaw man csm anime japanese rock j-rock jrock ed ending 8 eight
BeatmapID:3906952
BeatmapSetID:1894662

[Difficulty]
HPDrainRate:4
CircleSize:4.2
OverallDifficulty:8.8
ApproachRate:9.3
SliderMultiplier:1.9
SliderTickRate:1

[Events]
//Background and Video events
0,0,"102503233_p0_master1200.jpg",0,0
Video,-90,"dfdsaf.mp4"
//Break Periods
//Storyboard Layer 0 (Background)
//Storyboard Layer 1 (Fail)
//Storyboard Layer 2 (Pass)
//Storyboard Layer 3 (Foreground)
//Storyboard Layer 4 (Overlay)
//Storyboard Sound Samples

[TimingPoints]
139,365.853658536586,4,2,1,65,1,0
139,-83.3333333333333,4,2,1,65,0,0
1236,-66.6666666666667,4,2,1,65,0,0
1968,-83.3333333333333,4,2,1,65,0,0
2699,-142.857142857143,4,2,1,65,0,0
3065,-71.4285714285714,4,2,1,65,0,0
4163,-50,4,2,1,65,0,0
4895,-76.9230769230769,4,2,1,65,0,0
5992,-66.6666666666667,4,2,1,65,0,0
7090,-76.9230769230769,4,2,1,65,0,0
7456,-66.6666666666667,4,2,1,65,0,0
9651,-100,4,2,1,65,0,0
10017,-62.5,4,2,1,65,0,0
11480,-50,4,2,1,65,0,0
11503,-50,4,2,1,25,0,0
11846,-58.8235294117647,4,2,1,75,0,0
16053,-52.6315789473684,4,2,1,75,0,0
16968,-58.8235294117647,4,2,1,75,0,0
17151,-52.6315789473684,4,2,1,75,0,0
17471,-52.6315789473684,4,2,1,5,0,0
17517,-52.6315789473684,4,2,1,75,0,0
17699,-58.8235294117647,4,2,1,75,0,0
20260,-83.3333333333333,4,2,1,75,0,0
20626,-58.8235294117647,4,2,1,75,0,0
21907,-50,4,2,1,75,0,0
23004,-58.8235294117647,4,2,1,75,0,0
23553,-111.111111111111,4,2,1,55,0,0
29407,-90.9090909090908,4,2,1,55,0,0
35260,-166.666666666667,4,2,1,45,0,0
38187,-1000,4,2,1,45,0,0
39651,-250,4,2,1,45,0,0
41114,-142.857142857143,4,2,1,45,0,0
45504,-90.9090909090909,4,2,1,65,0,0
46602,-47.6190476190476,4,2,1,65,0,0
46968,-62.5,4,2,2,75,0,0
49529,-142.857142857143,4,2,2,75,0,0
49895,-76.923076923077,4,2,2,75,0,0
52090,-111.111111111111,4,2,2,75,0,0
52821,-76.9230769230769,4,2,2,75,0,0
54285,-66.6666666666667,4,2,2,75,0,0
55017,-111.111111111111,4,2,2,75,0,0
56480,-76.9230769230769,4,2,2,75,0,0
57943,-62.5,4,2,1,75,0,0
58309,-62.5,4,2,1,80,0,0
58675,-62.5,4,2,1,90,0,1
59041,-83.3333333333333,4,2,1,90,0,1
59773,-58.8235294117647,4,2,1,90,0,1
60139,-83.3333333333333,4,2,1,90,0,1
61236,-50,4,2,1,90,0,1
61602,-62.5,4,2,1,90,0,1
62882,-52.6315789473684,4,2,1,90,0,1
64529,-66.6666666666667,4,2,1,80,0,1
70382,-62.5,4,2,1,90,0,1
70748,-83.3333333333333,4,2,1,90,0,1
71846,-58.8235294117647,4,2,1,90,0,1
73309,-71.4285714285714,4,2,1,90,0,1
75504,-90.9090909090909,4,2,1,90,0,1
76236,-66.6666666666667,4,2,1,80,0,1
77517,-125,4,2,1,80,0,1
77699,-62.5,4,2,1,80,0,1
78431,-71.4285714285714,4,2,1,80,0,1
82090,-58.8235294117647,4,2,1,75,0,0
86297,-50,4,2,1,75,0,0
87395,-83.3333333333333,4,2,1,75,0,0
87943,-66.6666666666667,4,2,1,75,0,0
87989,-66.6666666666667,4,2,1,5,0,0

[Colours]
Combo1 : 241,220,67
Combo2 : 192,192,192
Combo3 : 64,255,112
Combo4 : 0,128,255
Combo5 : 255,162,68
Combo6 : 255,74,74

[HitObjects]
466,22,139,6,0,P|435:34|412:81,1,56.9999982604981,4|0,3:1|3:0,0:0:0:0:
348,32,321,2,0,P|340:64|365:110,1,56.9999982604981,2|0,3:2|3:0,0:0:0:0:
409,156,504,21,2,1:2:0:0:
411,152,596,1,0,3:0:0:0:
407,149,687,1,8,3:0:0:0:
405,153,779,1,0,0:0:0:0:
483,178,870,54,0,P|497:152|512:128,1,56.9999982604981,2|0,0:0|0:0,0:0:0:0:
320,191,1053,2,0,P|345:204|370:219,1,56.9999982604981,0|0,3:0|0:0,0:0:0:0:
445,258,1236,22,0,L|480:281,9,23.7500009059906,0|0|0|0|0|0|2|0|0|0,1:0|0:0|0:0|0:0|0:0|0:0|0:0|0:0|0:0|0:0,0:0:0:0:
251,266,1602,53,0,3:0:0:0:
239,262,1693,1,0,3:0:0:0:
222,262,1785,1,2,3:2:0:0:
208,271,1876,1,0,3:0:0:0:
138,308,1968,22,0,P|128:332|110:363,1,56.9999982604981,0|0,1:2|3:0,0:0:0:0:
46,209,2151,2,0,P|60:233|71:259,1,56.9999982604981,8|0,3:0|0:0,0:0:0:0:
176,112,2334,53,2,0:3:0:0:
207,146,2425,1,0,0:0:0:0:
195,187,2517,2,0,L|144:212,1,56.9999982604981,8|0,3:1|3:0,0:0:0:0:
0,126,2699,2,0,P|46:110|110:80,1,99.7499969558717,8|0,1:0|0:0,0:0:0:0:
147,35,3065,22,0,P|122:10|76:18,1,66.4999979705811,0|0,3:0|3:0,0:0:0:0:
351,61,3248,2,0,P|326:86|280:78,1,66.4999979705811,2|0,3:2|3:0,0:0:0:0:
229,48,3431,53,2,1:2:0:0:
226,44,3523,1,0,3:0:0:0:
230,42,3614,1,8,3:0:0:0:
232,45,3706,1,0,0:0:0:0:
300,92,3797,22,0,B|321:120|321:120|309:164,1,66.4999979705811,2|0,0:0|0:0,0:0:0:0:
156,220,3980,2,0,B|135:192|135:192|147:148,1,66.4999979705811,0|0,3:0|0:0,0:0:0:0:
221,131,4163,54,0,P|224:119|218:126,9,31.6666666666667,0|0|0|0|0|0|2|0|0|0,1:0|0:0|0:0|0:0|0:0|0:0|0:0|0:0|0:0|0:0,0:0:0:0:
366,359,4529,21,0,3:0:0:0:
411,332,4620,1,0,3:0:0:0:
418,281,4712,1,2,3:2:0:0:
392,238,4803,1,0,3:0:0:0:
317,223,4895,54,0,P|292:244|248:246,1,61.7499971733095,0|0,1:0|3:0,0:0:0:0:
257,325,5078,2,0,P|225:317|197:282,1,61.7499971733095,4|0,3:0|0:0,0:0:0:0:
156,220,5260,21,0,1:0:0:0:
366,359,5443,1,8,0:1:0:0:
366,359,5992,54,0,B|381:282|417:303|433:227,1,142.500005435944,6|8,3:2|3:0,0:0:0:0:
351,211,6267,1,0,3:0:0:0:
357,214,6358,2,0,P|344:246|357:278,1,71.2500027179719,2|0,1:2|3:0,0:0:0:0:
440,380,6541,2,0,P|452:347|439:315,1,71.2500027179719,8|0,3:0|3:0,0:0:0:0:
250,232,6724,22,0,P|223:260|167:260,1,71.2500027179719,2|0,0:3|0:0,0:0:0:0:
122,351,6907,2,0,P|87:342|64:316,1,71.2500027179719,0|0,3:2|0:0,0:0:0:0:
258,237,7090,2,0,P|217:271|91:226,1,185.249991519928,2|0,1:2|0:0,0:0:0:0:
31,196,7456,54,0,P|20:229|4:261,1,71.2500027179719,2|0,3:2|3:0,0:0:0:0:
171,177,7639,2,0,P|181:143|197:111,1,71.2500027179719,8|0,3:0|3:0,0:0:0:0:
118,66,7821,22,0,P|86:82|52:92,1,71.2500027179719,2|0,1:2|3:0,0:0:0:0:
274,153,8004,2,0,P|305:136|339:126,1,71.2500027179719,8|0,3:0|3:0,0:0:0:0:
197,111,8187,1,2,0:3:0:0:
197,111,8279,1,0,0:0:0:0:
150,138,8370,53,4,3:0:0:0:
148,185,8462,1,8,3:0:0:0:
182,225,8553,1,2,1:2:0:0:
233,247,8645,1,2,0:0:0:0:
244,296,8736,1,2,0:0:0:0:
210,342,8828,1,2,0:0:0:0:
139,319,8919,22,0,P|127:284|108:244,1,71.2500027179719,2|0,3:2|3:0,0:0:0:0:
328,307,9102,2,0,P|313:339|301:373,1,71.2500027179719,8|0,3:0|3:0,0:0:0:0:
105,241,9285,54,0,P|138:229|171:214,1,71.2500027179719,2|0,1:2|3:0,0:0:0:0:
296,382,9468,2,0,P|263:367|229:356,1,71.2500027179719,8|0,3:0|3:0,0:0:0:0:
366,100,9651,22,0,P|350:122|360:160,1,47.5,2|0,0:3|0:0,0:0:0:0:
363,148,9834,2,0,P|378:125|368:87,1,47.5,4|0,3:0|0:0,0:0:0:0:
337,26,10017,2,0,B|312:73|359:140|377:114|431:166|375:256,1,228,2|2,1:2|0:0,0:0:0:0:
335,282,10382,54,0,B|306:255|306:255|315:219,1,76,2|0,3:2|0:0,0:0:0:0:
446,179,10565,2,0,B|475:205|475:205|465:241,1,76,8|0,3:0|0:0,0:0:0:0:
329,286,10748,21,4,1:2:0:0:
297,294,10840,1,8,3:0:0:0:
263,309,10931,1,4,3:0:0:0:
233,330,11023,1,8,3:0:0:0:
181,379,11114,53,4,1:0:0:0:
136,346,11206,1,0,1:0:0:0:
126,293,11297,1,4,1:3:0:0:
160,247,11389,1,8,1:3:0:0:
117,180,11480,22,2,L|73:166,9,31.6666666666667,2|2|2|2|2|2|2|2|2|2,1:2|0:0|0:0|0:0|0:0|0:0|0:0|0:0|0:0|0:0,0:0:0:0:
35,252,11846,54,0,P|19:213|3:175,1,80.750001540184,4|2,3:2|3:2,0:0:0:0:
218,57,12029,2,0,P|201:93|187:131,1,80.750001540184,2|2,3:2|3:2,0:0:0:0:
115,174,12212,37,2,1:2:0:0:
120,175,12303,1,2,3:2:0:0:
117,180,12395,1,2,3:2:0:0:
112,179,12486,1,2,3:2:0:0:
66,117,12578,38,0,P|51:79|36:42,1,80.750001540184,2|4,3:2|3:0,0:0:0:0:
189,211,12760,2,0,P|172:247|158:285,1,80.750001540184,8|0,3:0|3:0,0:0:0:0:
447,130,12943,37,0,1:0:0:0:
391,124,13035,1,0,3:0:0:0:
356,163,13126,1,6,3:2:0:0:
365,213,13218,1,2,3:2:0:0:
425,256,13309,37,2,3:2:0:0:
422,260,13400,1,2,3:2:0:0:
428,261,13492,1,8,3:0:0:0:
430,257,13583,1,2,3:2:0:0:
363,219,13675,38,0,P|327:236|289:250,1,80.750001540184,2|2,1:2|0:0,0:0:0:0:
83,338,13858,1,2,3:2:0:0:
85,329,13949,1,2,1:2:0:0:
99,323,14041,38,0,P|135:340|173:354,1,80.750001540184,2|0,3:2|0:0,0:0:0:0:
30,214,14224,2,0,B|-2:242|-2:242|12:285,1,80.750001540184,4|0,3:0|0:0,0:0:0:0:
151,248,14407,1,2,1:2:0:0:
163,222,14498,1,0,1:0:0:0:
179,192,14590,1,2,1:2:0:0:
199,163,14681,1,0,1:0:0:0:
159,87,14773,38,0,P|121:73|84:55,1,80.750001540184,2|2,3:2|3:2,0:0:0:0:
246,235,14956,2,0,P|283:248|320:266,1,80.750001540184,2|2,3:2|3:2,0:0:0:0:
196,158,15139,37,6,1:2:0:0:
193,162,15230,1,2,3:2:0:0:
199,163,15322,1,2,3:2:0:0:
201,159,15413,1,2,1:2:0:0:
143,216,15504,38,0,P|105:229|68:247,1,80.750001540184,2|4,3:2|3:0,0:0:0:0:
247,102,15687,2,0,P|284:88|321:70,1,80.750001540184,8|0,3:0|3:0,0:0:0:0:
206,168,15870,37,0,1:0:0:0:
206,168,15962,1,4,3:0:0:0:
206,168,16053,2,0,L|230:233,8,60.1666650600434,4|2|2|2|2|2|4|2|2,3:1|3:2|3:2|3:2|3:2|3:2|3:0|3:2|3:2,0:0:0:0:
238,229,16602,37,2,1:2:0:0:
225,288,16693,1,2,3:2:0:0:
177,317,16785,1,2,3:2:0:0:
119,306,16876,1,2,1:2:0:0:
81,259,16968,2,0,P|43:246|6:228,1,80.750001540184,10|0,3:0|0:0,0:0:0:0:
256,371,17151,38,2,B|351:355|323:314|422:295,1,180.49999518013,2|0,3:2|1:0,0:1:0:0:
349,233,17425,1,0,1:0:0:0:
349,232,17517,2,0,P|318:264|320:308,1,90.2499975900651,0|0,0:0|1:3,0:0:0:0:
471,362,17699,37,2,3:2:0:0:
503,338,17791,1,2,3:2:0:0:
512,298,17882,1,2,3:2:0:0:
492,256,17974,1,2,3:2:0:0:
437,195,18065,37,6,1:2:0:0:
388,167,18157,1,2,3:2:0:0:
372,107,18248,1,2,3:2:0:0:
404,61,18340,1,2,3:2:0:0:
488,45,18431,38,0,P|495:89|471:125,1,80.750001540184,2|4,3:2|3:0,0:0:0:0:
399,353,18614,2,0,P|393:312|421:274,1,80.750001540184,8|0,3:0|3:0,0:0:0:0:
250,189,18797,1,0,1:0:0:0:
259,196,18889,1,0,3:0:0:0:
245,204,18980,2,0,P|212:215|171:238,1,80.750001540184,4|2,3:2|3:2,0:0:0:0:
33,168,19163,38,0,P|73:162|106:201,1,80.750001540184,2|2,3:2|3:2,0:0:0:0:
306,314,19346,2,0,P|265:319|232:280,1,80.750001540184,8|2,3:0|0:0,0:0:0:0:
168,233,19529,37,2,1:2:0:0:
171,237,19620,1,2,3:2:0:0:
165,238,19712,1,2,3:2:0:0:
163,234,19803,1,2,1:2:0:0:
232,196,19895,38,0,P|243:163|266:122,1,80.750001540184,2|0,3:2|0:0,0:0:0:0:
108,289,20078,2,0,P|128:323|141:362,1,80.750001540184,4|0,3:0|0:0,0:0:0:0:
151,113,20260,38,0,L|119:30,3,56.9999982604981,2|0|2|0,1:2|1:0|1:2|1:0,0:0:0:0:
199,12,20625,37,2,3:2:0:0:
244,23,20718,1,2,3:2:0:0:
272,56,20809,1,2,3:2:0:0:
262,107,20901,1,2,3:2:0:0:
202,166,20992,37,6,1:2:0:0:
154,202,21084,1,2,3:2:0:0:
151,257,21175,1,2,3:2:0:0:
187,297,21267,1,2,1:2:0:0:
255,354,21358,38,0,P|217:366|168:392,1,80.750001540184,2|4,3:2|3:0,0:0:0:0:
116,341,21541,2,0,P|78:329|29:303,1,80.750001540184,8|0,3:0|3:0,0:0:0:0:
270,219,21724,2,0,P|308:206|344:188,1,80.750001540184,0|4,1:0|3:0,0:0:0:0:
396,246,21907,38,0,P|427:256|475:287,8,63.3333333333333,4|2|2|2|2|2|4|2|2,3:1|3:2|3:2|3:2|3:2|3:2|3:0|3:2|3:2,0:0:0:0:
461,277,22456,37,4,3:0:0:0:
410,275,22547,1,8,3:0:0:0:
375,310,22639,1,2,1:2:0:0:
359,356,22730,1,8,3:0:0:0:
314,384,22821,1,2,3:2:0:0:
261,372,22913,1,8,3:0:0:0:
196,323,23004,38,0,P|184:285|164:244,1,80.750001540184,4|4,1:2|3:0,0:0:0:0:
307,180,23187,38,0,P|319:141|336:105,1,80.750001540184,0|0,3:0|3:0,0:0:0:0:
124,54,23370,37,8,3:0:0:0:
92,89,23462,37,8,3:0:0:0:
107,129,23553,70,0,P|164:149|231:187,1,128.249996086121,4|0,3:2|0:0,0:0:0:0:
223,181,23919,1,2,1:2:0:0:
344,103,24102,1,0,3:0:0:0:
217,5,24285,1,2,0:0:0:0:
217,5,24468,2,0,P|234:41|247:95,1,85.4999973907472,2|0,3:2|1:0,0:0:0:0:
390,220,24834,5,2,0:0:0:0:
390,220,24925,1,0,0:0:0:0:
390,220,25017,2,0,B|383:282|344:265|338:334,1,128.249996086121,0|8,3:0|3:0,0:0:0:0:
338,333,25382,2,0,P|391:355|424:373,1,85.4999973907472,2|0,1:2|3:0,0:0:0:0:
266,262,25748,1,2,1:2:0:0:
237,253,25840,1,0,1:0:0:0:
209,270,25931,1,2,3:2:0:0:
34,348,26114,69,0,1:0:0:0:
47,363,26206,1,0,1:0:0:0:
66,366,26297,1,2,1:2:0:0:
84,363,26389,1,0,1:0:0:0:
98,352,26480,6,0,L|69:217,1,128.249996086121,2|4,3:2|0:3,0:0:0:0:
71,226,26846,1,2,1:2:0:0:
148,77,27029,1,2,3:2:0:0:
100,18,27212,1,2,0:0:0:0:
35,62,27395,2,0,P|54:100|69:140,1,85.4999973907472,2|2,3:2|1:2,0:0:0:0:
175,206,27760,69,2,0:0:0:0:
175,206,27852,1,0,0:0:0:0:
175,206,27943,2,0,B|244:212|227:251|289:258,1,128.249996086121,0|8,3:0|0:3,0:0:0:0:
288,257,28309,2,0,P|247:271|209:291,1,85.4999973907472,2|0,1:2|3:0,0:0:0:0:
370,181,28675,5,2,1:2:0:0:
370,181,28767,1,0,1:0:0:0:
370,181,28858,2,0,L|426:198,1,42.7499986953736,0|4,0:0|0:3,0:0:0:0:
454,257,29041,2,0,L|441:297,1,42.7499986953736,0|0,1:0|1:0,0:0:0:0:
281,168,29224,69,2,1:2:0:0:
281,168,29315,1,0,1:0:0:0:
281,168,29407,2,0,P|268:111|253:60,1,104.500003189087,2|8,3:1|3:0,0:0:0:0:
255,66,29681,1,2,3:1:0:0:
255,66,29773,1,0,1:0:0:0:
334,14,29956,1,4,3:0:0:0:
188,146,30139,6,0,P|167:168|123:171,1,52.2500015945435,2|0,0:3|0:0,0:0:0:0:
102,243,30321,2,0,P|72:233|54:201,1,52.2500015945435,2|0,3:2|0:0,0:0:0:0:
146,174,30504,2,0,B|160:259|110:237|124:336,1,156.750004783631,0|0,1:0|0:0,0:0:0:0:
122,325,30870,70,0,P|171:338|224:362,1,104.500003189087,2|0,3:1|0:0,0:0:0:0:
220,359,31145,1,2,3:1:0:0:
220,359,31236,1,2,1:2:0:0:
413,294,31419,1,4,3:0:0:0:
284,247,31602,5,2,1:2:0:0:
293,271,31693,1,0,1:0:0:0:
302,295,31784,1,8,3:0:0:0:
310,320,31876,1,0,0:0:0:0:
316,346,31968,70,0,P|341:352|370:363,1,52.2500015945435,0|0,1:0|1:0,0:0:0:0:
413,294,32151,1,2,1:2:0:0:
413,294,32242,1,0,1:0:0:0:
413,294,32334,6,0,P|426:222|469:131,1,156.750004783631,2|2,3:1|3:1,0:0:0:0:
459,145,32699,1,2,1:2:0:0:
353,26,32882,1,4,3:0:0:0:
455,66,33065,2,0,L|388:97,1,52.2500015945435,2|0,0:3|0:0,0:0:0:0:
269,192,33248,1,2,3:2:0:0:
369,155,33431,2,0,L|321:133,1,52.2500015945435,0|0,1:0|0:0,0:0:0:0:
159,46,33614,69,2,0:0:0:0:
159,46,33706,1,0,0:0:0:0:
159,46,33797,2,0,P|202:97|190:139,1,104.500003189087,2|0,3:1|0:0,0:0:0:0:
138,180,34071,1,2,3:1:0:0:
138,180,34163,2,0,P|74:198|21:217,1,104.500003189087,2|8,1:2|3:0,0:0:0:0:
189,297,34529,5,0,1:0:0:0:
224,269,34621,1,0,1:0:0:0:
262,267,34712,1,0,0:0:0:0:
301,291,34804,1,0,3:0:0:0:
318,332,34895,70,0,L|300:384,1,52.2500015945435,0|0,1:0|1:0,0:0:0:0:
490,232,35078,1,8,3:0:0:0:
490,232,35169,1,4,3:0:0:0:
490,232,35260,6,0,B|475:162|408:147|393:184|338:121|328:70|373:18|373:18|455:55|407:124,1,398.999987823487,4|0,3:1|0:0,0:0:0:0:
330,322,36724,6,0,B|309:347|267:311|261:254|332:220|378:253|379:307|365:306|391:370|498:360|521:304|509:231|420:184|388:276,1,398.999987823487,4|0,3:2|0:0,0:0:0:0:
193,239,38187,70,0,L|127:262,1,66.5,4|0,3:2|0:0,0:0:0:0:
13,226,39651,6,0,B|55:202|104:220|121:277|110:284|99:290|109:339|156:366|204:344,1,266,4|0,3:2|0:0,0:0:0:0:
353,260,41114,70,0,P|332:306|303:394,3,132.999995941162,4|0|0|0,3:1|3:0|3:0|3:0,0:0:0:0:
80,132,42578,6,0,P|101:178|130:266,3,132.999995941162,4|0|0|0,3:2|3:0|3:0|3:0,0:0:0:0:
408,48,44041,70,0,P|366:52|347:80,1,66.4999979705811,4|0,3:2|0:0,0:0:0:0:
280,53,44407,2,0,P|265:88|276:126,1,66.4999979705811,0|0,3:0|0:0,0:0:0:0:
424,271,44773,6,0,P|449:240|441:191,1,66.4999979705811,0|0,3:0|0:0,0:0:0:0:
499,156,45139,2,0,P|469:125|431:123,1,66.4999979705811,0|0,3:0|0:0,0:0:0:0:
216,215,45504,70,0,P|265:232|313:252,1,104.500003189087,2|8,1:2|3:0,0:0:0:0:
156,269,45779,5,4,3:0:0:0:
156,269,45870,2,0,B|106:265|106:265|68:316,1,104.500003189087,2|0,1:2|3:0,0:0:0:0:
139,188,46145,69,8,3:0:0:0:
139,188,46236,2,0,B|169:142|176:90,1,104.500003189087,2|0,1:2|3:0,0:0:0:0:
117,42,46510,5,4,3:0:0:0:
117,42,46602,2,0,L|105:10,9,33.2499989852906,2|0|0|0|0|0|0|0|0|0,1:2|0:0|0:0|0:0|0:0|0:0|0:0|0:0|0:0|0:0,0:0:0:0:
181,98,46968,70,0,B|257:111|229:147|341:167,1,152,4|0,1:2|0:0,0:0:0:0:
416,239,47242,1,8,1:0:0:0:
416,239,47334,2,0,P|428:201|449:163,1,76
380,98,47517,2,0,P|397:131|408:167,1,76,4|0,1:0|1:0,0:0:0:0:
498,276,47699,54,0,P|421:260|326:414,1,228,2|0,0:1|0:0,0:0:0:0:
326,362,48065,2,0,P|367:368|409:383,1,76,0|0,3:0|0:0,0:0:0:0:
263,287,48248,2,0,P|296:269|333:258,1,76,2|0,0:0|0:0,0:0:0:0:
203,358,48431,22,0,P|111:378|71:331,1,152,6|0,1:0|0:0,0:0:0:0:
113,273,48706,1,8,1:0:0:0:
113,273,48797,2,0,P|124:236|141:202,1,76,8|0,3:0|0:0,0:0:0:0:
61,178,48980,2,0,P|50:141|33:107,1,76,12|0,1:0|0:0,0:0:0:0:
209,275,49163,1,2,0:1:0:0:
217,273,49255,1,2,0:1:0:0:
225,266,49346,1,2,0:1:0:0:
403,99,49529,54,2,P|375:143|385:194,1,99.7499969558717,0|0,0:0|0:0,0:1:0:0:
304,209,49895,22,0,P|375:228|396:305,1,123.499994346619,6|0,1:0|0:0,0:0:0:0:
406,273,50169,2,0,P|379:355|299:367,1,123.499994346619,12|0,1:0|0:0,0:0:0:0:
336,367,50443,2,0,B|313:345|313:345|321:308,1,61.7499971733095,14|0,1:0|0:0,0:0:0:0:
202,83,50626,53,2,0:1:0:0:
268,54,50809,1,2,0:1:0:0:
290,127,50992,1,2,0:0:0:0:
222,154,51175,1,2,0:0:0:0:
36,23,51358,22,0,L|78:148,1,123.499994346619,6|0,1:0|1:0,0:0:0:0:
132,188,51632,1,4,1:3:0:0:
127,200,51724,1,8,3:0:0:0:
115,213,51815,1,0,3:0:0:0:
102,222,51907,1,2,1:0:0:0:
89,227,51998,1,0,1:0:0:0:
19,247,52090,54,0,B|70:223|110:233|141:285|134:295|121:307|153:381|217:396|278:339,1,299.249990867615,8|0,0:1|0:0,0:0:0:0:
260,350,52821,22,0,P|291:356|322:394,1,61.7499971733095,6|0,1:0|0:0,0:0:0:0:
414,293,53004,2,0,P|417:326|386:362,1,61.7499971733095,0|8,3:0|3:0,0:0:0:0:
310,227,53187,54,0,L|331:286,1,61.7499971733095,4|0,3:0|3:0,0:0:0:0:
385,100,53370,2,0,L|365:159,1,61.7499971733095,2|0,1:0|0:0,0:0:0:0:
293,12,53553,21,12,0:1:0:0:
298,23,53736,1,2,0:1:0:0:
303,34,53919,1,2,0:1:0:0:
308,45,54102,1,2,0:1:0:0:
220,170,54285,54,0,B|148:191|179:225|96:250,1,142.500005435944,6|8,1:0|3:0,0:0:0:0:
276,229,54559,1,4,3:0:0:0:
276,229,54651,2,0,P|300:201|297:156,1,71.2500027179719,0|0,3:0|0:0,0:0:0:0:
167,112,54834,2,0,P|143:140|146:185,1,71.2500027179719,2|2,1:0|3:1,0:0:0:0:
191,243,55017,22,0,B|339:236|311:351|478:348,1,299.249990867615,14|0,0:1|0:0,0:0:0:0:
469,344,55748,53,6,1:0:0:0:
471,337,55840,1,0,3:0:0:0:
473,330,55931,1,4,3:0:0:0:
475,323,56023,1,2,1:0:0:0:
434,264,56114,2,0,L|417:208,3,42.7499986953736,10|4|2|0,1:0|3:0|1:0|0:0,0:0:0:0:
480,174,56480,22,0,L|508:105,1,61.7499971733095,10|0,0:1|0:0,0:0:0:0:
345,241,56663,2,0,L|317:310,1,61.7499971733095,2|0,3:1|0:0,0:0:0:0:
247,313,56846,54,0,L|270:370,1,61.7499971733095,8|2,3:0|0:1,0:0:0:0:
407,199,57029,2,0,L|383:141,1,61.7499971733095,2|2,3:1|0:1,0:0:0:0:
342,71,57212,21,6,1:0:0:0:
303,43,57303,1,0,3:0:0:0:
254,47,57395,1,8,3:0:0:0:
219,78,57486,1,4,3:0:0:0:
198,125,57578,1,2,3:1:0:0:
209,176,57669,1,2,3:1:0:0:
175,218,57760,1,2,1:0:0:0:
119,227,57852,1,0,3:0:0:0:
56,184,57943,54,0,L|37:119,7,38,0|0|0|0|0|0|0|0,1:0|3:0|1:0|3:0|1:0|3:0|1:0|3:0,0:0:0:0:
115,231,58309,22,0,L|106:265,9,25.3333333333333,0|0|0|8|0|0|0|0|0|4,1:0|0:0|0:0|1:3|0:0|0:0|1:0|0:0|0:0|1:3,0:0:0:0:
0,378,58675,6,0,P|101:345|226:317,1,228,10|0,3:2|3:0,0:0:0:0:
330,225,59041,2,0,P|349:203|347:173,1,56.9999982604981,10|0,1:2|3:0,0:0:0:0:
224,103,59224,1,0,3:0:0:0:
221,112,59315,1,0,3:0:0:0:
231,114,59407,2,0,P|242:137|252:175,1,56.9999982604981,10|0,3:2|1:0,0:0:0:0:
401,287,59590,2,0,P|385:311|377:353,1,56.9999982604981,8|0,3:0|3:0,0:0:0:0:
456,162,59773,70,0,P|371:167|328:240,1,161.500003080368,10|8,1:2|3:0,0:0:0:0:
152,363,60139,1,10,3:2:0:0:
109,373,60230,1,0,1:0:0:0:
88,327,60321,2,0,P|96:303|106:260,1,56.9999982604981,0|0,3:0|3:0,0:0:0:0:
231,114,60504,2,0,B|260:108|260:108|286:78,1,56.9999982604981,10|0,1:2|3:0,0:0:0:0:
69,193,60687,2,0,B|40:186|40:186|10:155,1,56.9999982604981,8|0,3:0|3:0,0:0:0:0:
194,239,60870,5,4,3:0:0:0:
194,239,61053,2,0,B|188:223|188:223|183:203,2,28.4999991302491,8|0|0,1:1|3:0|3:0,0:0:0:0:
186,32,61236,70,0,P|215:159|241:311,1,285,12|0,1:0|3:0,0:0:0:0:
177,384,61602,6,0,P|239:349|326:337,1,152,10|8,3:2|3:0,0:0:0:0:
451,182,61876,1,0,3:0:0:0:
451,182,61968,2,0,B|414:173|414:173|388:205,1,76,10|0,1:2|3:0,0:0:0:0:
512,323,62151,2,0,P|480:311|430:298,1,76,8|0,3:0|1:0,0:0:0:0:
269,220,62334,1,10,3:2:0:0:
238,159,62425,1,0,1:0:0:0:
265,119,62517,1,8,3:0:0:0:
298,125,62608,1,0,3:0:0:0:
309,141,62699,69,10,1:2:0:0:
8,296,62882,2,0,B|-10:260|24:210|38:229|78:190|36:122,1,180.49999518013,4|10,3:0|3:2,0:0:0:0:
168,60,63157,1,0,1:0:0:0:
168,60,63248,2,0,P|166:105|118:120,1,90.2499975900651,8|0,3:0|3:0,0:0:0:0:
0,22,63431,2,0,B|56:36|56:36|79:74,1,90.2499975900651,8|0,1:2|3:0,0:0:0:0:
165,200,63614,2,0,B|221:186|221:186|244:148,1,90.2499975900651,2|0,3:2|3:0,0:0:0:0:
103,246,63797,5,4,3:0:0:0:
103,246,63980,2,0,L|116:290,2,45.1249987950325,8|0|0,3:1|3:0|1:0,0:0:0:0:
17,380,64163,1,8,1:0:0:0:
73,351,64254,1,0,3:0:0:0:
123,384,64346,1,4,3:0:0:0:
180,357,64437,1,4,3:0:0:0:
255,384,64529,70,0,L|298:164,1,213.750008153916,4|0,3:1|0:0,0:0:0:0:
446,53,64895,2,0,L|491:37,2,35.625001358986,2|0|2,1:0|0:0|0:1,0:0:0:0:
365,228,65078,1,2,0:3:0:0:
512,162,65260,38,0,L|358:123,1,142.500005435944,4|2,3:0|3:3,0:0:0:0:
169,0,65535,1,0,0:0:0:0:
169,0,65626,2,0,P|147:27|154:76,1,71.2500027179719,2|0,1:0|0:0,0:0:0:0:
275,187,65809,2,0,P|297:159|297:124,1,71.2500027179719,2|0,0:3|0:0,0:0:0:0:
97,119,65992,37,8,3:0:0:0:
90,115,66084,1,0,0:0:0:0:
91,127,66175,2,0,P|111:155|160:161,1,71.2500027179719,2|0,0:3|0:0,0:0:0:0:
342,60,66358,2,0,P|321:31|287:22,1,71.2500027179719,2|0,1:0|0:0,0:0:0:0:
217,79,66541,2,0,L|228:115,2,35.625001358986,2|0|0,0:3|0:0|0:0,0:0:0:0:
354,205,66724,38,0,L|328:287,2,71.2500027179719,4|0|2,3:0|0:0|3:3,0:0:0:0:
54,384,67090,1,2,1:0:0:0:
18,336,67181,1,0,1:0:0:0:
44,290,67273,1,4,3:0:0:0:
93,291,67364,1,8,3:0:0:0:
116,353,67456,38,0,B|95:311|134:253|150:275|196:230|148:151,1,213.750008153916,4|0,3:1|0:0,0:0:0:0:
42,42,67821,2,0,P|34:23|28:5,2,35.625001358986,2|0|2,1:0|0:0|0:1,0:0:0:0:
168,85,68004,1,2,0:3:0:0:
14,194,68187,38,0,L|170:154,1,142.500005435944,4|2,3:0|0:3,0:0:0:0:
309,223,68462,1,0,0:0:0:0:
309,223,68553,2,0,L|326:151,1,71.2500027179719,2|0,1:0|0:0,0:0:0:0:
151,15,68736,2,0,L|168:87,1,71.2500027179719,2|0,0:3|0:0,0:0:0:0:
238,139,68919,37,8,3:0:0:0:
0,373,69102,1,0,1:0:0:0:
56,351,69193,1,0,1:0:0:0:
112,335,69285,1,0,1:0:0:0:
166,322,69376,1,8,3:0:0:0:
221,307,69468,1,8,3:0:0:0:
273,293,69559,1,6,3:0:0:0:
349,316,69651,37,0,1:0:0:0:
375,328,69742,1,4,3:0:0:0:
365,351,69834,1,8,3:0:0:0:
340,339,69925,1,8,3:0:0:0:
419,261,70017,38,0,P|424:238|432:220,2,35.625001358986,4|0|0,3:0|3:0|1:0,0:0:0:0:
306,204,70199,1,8,3:3:0:0:
306,204,70291,2,0,P|301:184|289:160,1,35.625001358986,4|0,3:0|0:0,0:0:0:0:
353,108,70382,6,0,B|217:130|280:176|149:207,1,228,10|0,3:2|3:0,0:0:0:0:
47,283,70748,2,0,P|70:287|101:299,1,56.9999982604981,10|0,1:2|3:0,0:0:0:0:
150,128,70931,1,8,3:0:0:0:
159,121,71023,1,0,1:0:0:0:
148,116,71114,2,0,P|125:112|94:100,1,56.9999982604981,10|8,3:2|3:0,0:0:0:0:
0,217,71297,2,0,P|26:206|54:200,1,56.9999982604981,4|0,3:0|3:0,0:0:0:0:
54,29,71480,2,0,P|27:39|0:45,1,56.9999982604981,10|0,1:2|3:0,0:0:0:0:
157,216,71663,69,4,3:0:0:0:
157,216,71754,1,0,3:0:0:0:
157,216,71846,2,0,P|221:227|319:275,1,161.500003080368,10|8,3:2|3:0,0:0:0:0:
315,351,72120,1,0,3:0:0:0:
315,351,72212,2,0,B|328:261|372:301|395:198,1,161.500003080368,10|4,1:2|3:0,0:0:0:0:
316,93,72578,5,10,3:2:0:0:
316,93,72760,2,0,L|329:146,2,40.375000770092,8|0|0,1:1|3:0|3:0,0:0:0:0:
485,276,72943,2,0,L|495:237,2,40.375000770092,12|0|0,1:0|0:0|0:0,0:0:0:0:
395,206,73126,70,0,L|356:218,3,26.9166671800613,0|0|0|0,0:0|0:0|0:0|3:0,0:0:0:0:
154,341,73309,6,0,P|131:316|136:271,1,66.4999979705811,10|0,3:2|0:0,0:0:0:0:
184,225,73492,2,0,P|207:250|202:295,1,66.4999979705811,4|0,3:0|3:0,0:0:0:0:
260,350,73675,70,0,P|292:358|323:370,1,66.4999979705811,10|0,1:2|3:0,0:0:0:0:
73,223,73858,2,0,P|42:235|9:243,1,66.4999979705811,8|0,3:0|1:0,0:0:0:0:
239,30,74041,5,10,3:2:0:0:
239,30,74132,1,4,3:0:0:0:
239,30,74224,2,0,P|229:62|214:113,1,66.4999979705811,8|0,3:0|3:0,0:0:0:0:
221,102,74407,1,10,1:2:0:0:
475,191,74590,70,0,P|410:196|375:262,1,132.999995941162,2|8,3:2|3:2,0:0:0:0:
296,245,74864,1,0,1:0:0:0:
296,245,74956,2,0,P|268:221|277:170,1,66.4999979705811,4|0,3:0|3:0,0:0:0:0:
326,126,75139,2,0,P|357:114|387:100,1,66.4999979705811,10|0,1:2|3:0,0:0:0:0:
208,273,75321,2,0,P|174:257|132:244,1,66.4999979705811,6|0,3:0|3:0,0:0:0:0:
16,119,75504,6,0,L|35:199,3,52.2500015945435,10|0|0|0,3:2|1:0|1:0|1:0,0:0:0:0:
25,187,75870,69,4,3:0:0:0:
75,173,75961,1,4,3:0:0:0:
125,159,76052,1,8,3:0:0:0:
176,145,76144,1,0,1:0:0:0:
246,174,76236,21,4,3:1:0:0:
484,41,76419,1,2,0:3:0:0:
303,118,76602,2,0,L|386:143,1,71.2500027179719,2|2,1:0|0:1,0:0:0:0:
454,161,76785,1,2,0:3:0:0:
186,268,76968,53,4,3:0:0:0:
186,268,77059,1,0,3:0:0:0:
186,268,77151,2,0,P|150:280|100:300,1,71.2500027179719,2|0,0:3|0:0,0:0:0:0:
93,220,77334,2,0,P|57:208|7:188,1,71.2500027179719,2|8,1:0|3:0,0:0:0:0:
252,358,77517,2,0,B|267:342|267:342|262:321,1,38,2|0,3:3|0:0,0:0:0:0:
259,317,77699,22,0,B|339:326|321:356|421:366,1,152,4|2,3:0|3:3,0:0:0:0:
267,162,78065,1,2,1:0:0:0:
327,111,78248,1,2,0:3:0:0:
236,19,78431,54,0,P|245:50|253:83,1,66.4999979705811,4|0,3:0|1:0,0:0:0:0:
323,250,78614,2,0,B|345:223|345:223|336:185,1,66.4999979705811,8|0,1:1|1:0,0:0:0:0:
55,152,78797,1,8,3:1:0:0:
48,185,78889,1,0,3:0:0:0:
57,211,78980,1,0,3:0:0:0:
88,223,79071,1,0,1:0:0:0:
145,136,79163,22,0,B|180:207|113:273|93:240|49:321|93:395,1,265.999991882324,4|2,3:1|1:0,0:0:0:0:
294,331,79712,2,0,P|260:318|215:298,1,66.4999979705811,2|2,0:3|0:1,0:0:0:0:
166,341,79895,1,4,3:0:0:0:
443,230,80078,1,2,0:3:0:0:
285,147,80260,1,2,1:0:0:0:
341,256,80443,2,0,P|359:186|379:119,1,132.999995941162,2|4,0:3|3:0,0:0:0:0:
152,17,80809,53,0,1:0:0:0:
197,43,80901,1,0,1:0:0:0:
191,94,80992,2,0,B|127:113|140:133|72:154,1,132.999995941162,0|8,1:0|3:0,0:0:0:0:
0,188,81267,21,0,1:0:0:0:
0,188,81358,2,0,P|16:217|28:249,1,66.4999979705811,4|0,3:0|0:0,0:0:0:0:
92,295,81541,2,0,P|76:324|64:355,1,66.4999979705811,8|0,1:0|1:0,0:0:0:0:
248,156,81724,53,12,1:0:0:0:
192,175,81815,1,4,3:0:0:0:
177,232,81907,1,4,3:0:0:0:
206,282,81998,1,8,3:0:0:0:
297,271,82090,38,0,P|309:229|331:172,1,80.750001540184,4|2,3:2|3:2,0:0:0:0:
155,16,82273,2,0,P|168:54|179:92,1,80.750001540184,2|2,3:2|3:2,0:0:0:0:
383,126,82456,37,2,1:2:0:0:
378,127,82547,1,2,3:2:0:0:
381,132,82639,1,2,3:2:0:0:
386,131,82730,1,2,3:2:0:0:
431,72,82821,38,0,B|396:46|396:46|359:52,1,80.750001540184,2|4,3:2|3:0,0:0:0:0:
328,197,83004,2,0,B|363:223|363:223|399:217,1,80.750001540184,8|0,3:0|3:0,0:0:0:0:
462,287,83187,38,0,P|473:248|486:210,1,80.750001540184,0|0,1:0|3:0,0:0:0:0:
287,111,83370,2,0,P|275:72|262:34,1,80.750001540184,6|2,3:2|3:2,0:0:0:0:
60,232,83553,37,2,3:2:0:0:
73,273,83645,1,2,3:2:0:0:
109,295,83736,1,8,3:0:0:0:
154,282,83828,1,2,3:2:0:0:
214,216,83919,37,2,1:2:0:0:
260,184,84010,1,2,3:2:0:0:
314,191,84102,1,2,3:2:0:0:
354,230,84193,1,2,1:2:0:0:
328,301,84285,38,0,P|287:310|240:327,1,80.750001540184,2|0,3:2|0:0,0:0:0:0:
440,254,84468,2,0,P|400:245|362:231,1,80.750001540184,4|0,3:0|0:0,0:0:0:0:
111,32,84651,37,2,1:2:0:0:
153,55,84742,1,0,1:0:0:0:
168,98,84834,1,2,1:2:0:0:
150,140,84925,1,0,1:0:0:0:
82,193,85017,37,2,3:2:0:0:
87,194,85108,1,2,3:2:0:0:
84,199,85200,1,2,3:2:0:0:
79,198,85291,1,2,3:2:0:0:
22,143,85382,38,0,P|13:103|-1:65,1,80.750001540184,6|2,1:2|3:2,0:0:0:0:
123,313,85565,2,0,P|150:284|148:242,1,80.750001540184,2|2,3:2|1:2,0:0:0:0:
79,198,85748,38,0,P|52:229|56:275,1,80.750001540184,2|4,3:2|3:0,0:0:0:0:
214,349,85931,2,0,P|253:357|291:371,1,80.750001540184,8|0,3:0|3:0,0:0:0:0:
448,263,86114,37,0,1:0:0:0:
448,263,86206,1,4,3:0:0:0:
448,263,86297,2,0,L|436:305,15,31.6666666666667,4|0|2|2|2|0|2|0|2|2|2|0|4|0|2|2,3:1|0:0|3:2|3:2|3:2|0:0|3:2|0:0|3:2|3:2|3:2|0:0|3:0|0:0|3:2|3:2,0:0:0:0:
364,315,86846,37,2,1:2:0:0:
341,284,86937,1,2,3:2:0:0:
376,220,87029,37,2,3:2:0:0:
397,177,87120,1,2,1:2:0:0:
338,124,87212,37,2,1:2:0:0:
313,75,87303,1,0,1:0:0:0:
367,17,87395,38,2,B|413:26|413:26|411:23|411:23|453:31|453:31|451:34|451:34|484:41|484:41|484:40|484:40|539:50,1,170.999994781494,4|4,3:1|3:0,0:1:0:0:
255,141,87760,37,0,1:0:0:0:
249,131,87852,1,0,1:0:0:0:
237,128,87943,2,0,B|214:120|214:120|190:115,1,35.625001358986,4|0,3:2|0:0,0:0:0:0:
