osu file format v14

[General]
AudioFilename: audio.mp3
AudioLeadIn: 0
PreviewTime: 40934
Countdown: 0
SampleSet: Soft
StackLeniency: 0.7
Mode: 0
LetterboxInBreaks: 0
WidescreenStoryboard: 1

[Editor]
DistanceSpacing: 1
BeatDivisor: 4
GridSize: 4
TimelineZoom: 2.3

[Metadata]
Title:Signal (TV Size)
TitleUnicode:Signal (TV Size)
Artist:TK from Ling tosite sigure
ArtistUnicode:TK from 凛として時雨
Creator:Antalf
Version:Insane
Source:91 Days
Tags:anime opening drama action japanese rock
BeatmapID:1174331
BeatmapSetID:554731

[Difficulty]
HPDrainRate:6
CircleSize:4
OverallDifficulty:8
ApproachRate:9
SliderMultiplier:1.6
SliderTickRate:1

[Events]
//Background and Video events
Video,0,"SignalOpnm1.mp4"
0,0,"91_days_1.png",0,0
//Break Periods
//Storyboard Layer 0 (Background)
//Storyboard Layer 1 (Fail)
//Storyboard Layer 2 (Pass)
//Storyboard Layer 3 (Foreground)
//Storyboard Sound Samples

[TimingPoints]
1773,359.281437125748,4,2,0,55,1,0
42012,-100,4,2,0,65,0,1
88000,-100,4,2,0,55,0,0

[Colours]
Combo1 : 103,103,103
Combo2 : 255,36,36
Combo3 : 192,164,1
Combo4 : 255,128,0

[HitObjects]
92,64,515,21,0,0:0:0:0:
92,64,605,1,0,0:0:0:0:
92,64,695,1,0,0:0:0:0:
168,152,874,1,0,0:0:0:0:
168,152,964,2,0,L|220:152,1,40
288,84,1234,1,0,0:0:0:0:
336,184,1413,1,0,0:0:0:0:
320,8,1593,1,0,0:0:0:0:
408,220,1773,1,0,0:0:0:0:
256,192,2491,5,0,0:0:0:0:
144,304,3030,1,0,0:0:0:0:
80,160,3210,2,0,L|160:200,1,80
288,272,3569,1,0,0:0:0:0:
288,96,3749,2,0,L|372:132,1,80
464,272,4287,1,0,0:0:0:0:
320,288,4647,6,0,L|240:256,1,80
112,208,5006,1,0,0:0:0:0:
304,144,5186,2,0,L|224:112,1,80
400,192,5725,2,0,L|400:112,1,80
112,112,6084,2,0,L|112:192,1,80
256,192,6443,1,0,0:0:0:0:
256,272,6623,5,0,0:0:0:0:
256,272,6713,1,0,0:0:0:0:
256,272,6802,1,0,0:0:0:0:
336,208,6982,1,0,0:0:0:0:
176,192,7162,1,0,0:0:0:0:
344,316,7341,1,0,0:0:0:0:
100,264,7521,1,0,0:0:0:0:
64,128,7880,6,0,P|40:176|40:208,1,80
236,180,8240,2,0,P|216:144|180:120,1,80
104,296,8599,2,0,P|148:304|192:288,1,80
288,352,8958,1,0,0:0:0:0:
416,320,9138,1,0,0:0:0:0:
464,208,9317,2,0,P|392:160|312:168,1,160
224,272,10395,5,0,0:0:0:0:
320,192,10575,1,0,0:0:0:0:
400,303,10755,2,0,P|438:294|467:267,1,80
378,151,11114,2,0,P|340:158|320:192,1,80
320,320,11473,1,0,0:0:0:0:
464,272,11653,1,0,0:0:0:0:
464,128,11832,2,0,B|392:96|392:96|328:176|248:120,1,240
176,224,12551,1,0,0:0:0:0:
240,320,12731,2,0,P|292:328|324:320,1,80
400,192,13090,5,0,0:0:0:0:
400,192,13180,2,0,L|352:160,1,40
256,96,13449,2,0,L|180:52,1,80
158,211,13808,2,0,P|121:198|96:168,1,80
400,192,14527,2,0,P|372:152|328:128,1,80
320,288,15066,1,0,0:0:0:0:
208,304,15246,2,0,B|160:256|160:256|112:288|64:256|48:192|96:160,1,240
86,167,15964,1,0,0:0:0:0:
184,172,16144,2,0,L|268:172,1,80
256,192,16503,12,0,19018,0:0:0:0:
104,288,19377,6,0,L|84:208,1,80
256,204,19737,1,0,0:0:0:0:
332,320,20275,2,0,P|404:288|456:224,1,160
364,140,20814,1,0,0:0:0:0:
192,140,21174,1,0,0:0:0:0:
192,140,21892,5,0,0:0:0:0:
276,140,22072,1,0,0:0:0:0:
388,68,22252,2,0,B|424:124|388:172,1,80
384,284,22611,1,0,0:0:0:0:
96,176,23150,2,0,P|88:136|96:96,1,80
236,60,23509,1,0,0:0:0:0:
236,280,23868,2,0,B|148:320|72:268,1,160
136,192,24767,6,0,L|216:192,1,80
364,56,25305,2,0,P|400:56|444:68,1,80
440,264,26024,2,0,P|392:288|332:280,1,80
180,264,26383,1,0,0:0:0:0:
120,128,26743,6,0,P|160:104|204:96,1,80
256,192,27102,1,0,0:0:0:0:
320,304,27281,2,0,P|376:296|408:272,1,80
312,120,27641,1,0,0:0:0:0:
232,252,28000,5,0,0:0:0:0:
152,252,28180,1,0,0:0:0:0:
52,164,28359,2,0,L|132:124,1,80
264,52,28719,2,0,L|304:124,1,80
232,252,29078,1,0,0:0:0:0:
336,252,29258,2,0,B|424:252,1,80
472,128,29617,2,0,L|408:68,1,80
256,192,29976,1,0,0:0:0:0:
256,192,30515,5,0,0:0:0:0:
256,192,30695,1,0,0:0:0:0:
412,200,30874,2,0,P|452:168|464:136,1,80
296,56,31234,1,0,0:0:0:0:
256,192,31413,2,0,P|232:232|196:240,1,80
84,220,31772,2,0,B|72:168|88:144|92:140,1,80
200,96,32132,1,0,0:0:0:0:
368,96,32311,2,0,P|448:116|504:184,1,160
404,300,33030,2,0,P|356:308|300:300,1,80
112,264,33389,5,0,0:0:0:0:
180,220,33569,1,0,0:0:0:0:
256,192,33749,2,0,L|336:148,1,80
252,36,34108,1,0,0:0:0:0:
256,192,34287,2,0,L|256:288,1,80
356,192,34647,5,0,0:0:0:0:
472,136,34826,1,0,0:0:0:0:
416,292,35006,1,0,0:0:0:0:
284,320,35186,2,0,L|200:272,1,80
40,192,35545,1,0,0:0:0:0:
168,175,36084,6,0,P|202:157|242:155,1,80
420,152,36443,1,0,0:0:0:0:
256,344,36982,1,0,0:0:0:0:
32,340,37521,2,0,L|116:264,1,80
120,160,37880,1,0,0:0:0:0:
224,216,38060,1,0,0:0:0:0:
320,160,38240,1,0,0:0:0:0:
224,308,38419,1,0,0:0:0:0:
160,220,38778,6,0,L|192:188,1,40
332,192,38958,2,0,L|368:148,1,40
256,192,39138,12,0,40575,0:0:0:0:
256,192,40934,37,0,0:0:0:0:
256,192,41114,1,0,0:0:0:0:
48,160,42012,6,0,L|144:160,1,80
256,160,42371,1,0,0:0:0:0:
112,288,42551,2,0,P|160:283|216:243,1,80
256,160,42910,1,0,0:0:0:0:
336,272,43090,1,0,0:0:0:0:
415,112,43270,2,0,P|379:127|349:154,1,80
480,208,43629,5,0,0:0:0:0:
280,256,43808,2,0,B|272:332|272:332|216:304|176:348,1,160
112,256,44347,2,0,P|44:244|32:228,1,80
192,112,44707,2,0,L|192:72,2,40
344,256,45066,6,0,L|280:208,1,80
160,208,45425,1,0,0:0:0:0:
64,104,45605,2,0,P|104:72|144:72,1,80
264,72,45964,1,0,0:0:0:0:
264,200,46144,1,0,0:0:0:0:
152,264,46323,2,0,P|108:232|92:208,1,80
192,128,46683,1,0,0:0:0:0:
93,211,46862,1,0,0:0:0:0:
312,332,47042,2,0,B|240:300|240:300|176:380|88:324,1,240
160,240,47761,5,0,0:0:0:0:
16,155,47940,2,0,P|52:86|125:58,1,160
256,96,48479,2,0,L|368:96,1,80
464,32,48838,1,0,0:0:0:0:
396,192,49018,1,0,0:0:0:0:
400,196,49108,1,0,0:0:0:0:
404,200,49198,2,0,P|400:248|376:288,1,80
312,328,49557,1,0,0:0:0:0:
132,324,49737,2,0,P|176:296|192:268,1,80
80,216,50096,5,0,0:0:0:0:
24,96,50275,1,0,0:0:0:0:
136,16,50455,2,0,B|156:76|220:56|220:56|256:100,1,160
256,184,50994,2,0,L|327:142,2,80
256,184,51533,2,0,L|192:132,2,80
256,184,52072,2,0,L|256:284,2,80
176,296,52611,1,0,0:0:0:0:
48,312,52790,6,0,L|93:291,1,40
56,247,52970,2,0,L|101:226,1,40
65,182,53150,2,0,L|110:161,1,40
74,116,53329,2,0,P|119:95|119:95,1,40
155,84,53509,1,0,0:0:0:0:
64,272,53868,6,0,P|96:304|144:320,1,80
144,128,54228,2,0,P|184:144|224:176,1,80
240,288,54587,1,0,0:0:0:0:
48,176,54767,1,0,0:0:0:0:
48,64,54946,2,0,B|80:24|136:12,1,80
272,32,55305,2,0,B|352:52|352:52|344:112|384:140,1,160
432,256,55844,5,0,0:0:0:0:
224,256,56024,2,0,P|292:244|304:228,1,80
320,88,56383,1,0,0:0:0:0:
296,238,56563,1,0,0:0:0:0:
480,128,56743,6,0,L|412:180,1,80
416,48,57102,1,0,0:0:0:0:
256,64,57281,2,0,P|291:27|332:16,1,80
320,160,57641,1,0,0:0:0:0:
256,64,57820,1,0,0:0:0:0:
128,80,58000,2,0,P|94:101|69:132,1,80
48,256,58359,1,0,0:0:0:0:
208,336,58539,2,0,B|248:288|248:288|312:288|352:220,1,160
488,200,59078,1,0,0:0:0:0:
336,192,59258,5,0,0:0:0:0:
189,191,59617,2,0,B|92:180|72:99,1,160
256,80,60156,2,0,L|356:32,1,80
448,96,60515,1,0,0:0:0:0:
448,240,60695,2,0,P|424:288|400:304,1,80
272,304,61054,1,0,0:0:0:0:
272,192,61234,2,0,P|316:164|332:136,1,80
256,32,61593,5,0,0:0:0:0:
144,96,61772,1,0,0:0:0:0:
256,144,61952,2,0,B|276:204|340:184|340:184|376:228,1,160
448,336,62491,1,0,0:0:0:0:
320,336,62671,1,0,0:0:0:0:
112,272,62850,5,0,0:0:0:0:
256,192,63030,2,0,L|156:152,1,80
64,96,63389,2,0,L|128:48,1,80
320,48,63749,2,0,L|368:112,1,80
464,256,64108,5,0,0:0:0:0:
312,256,64287,1,0,0:0:0:0:
264,256,64377,1,0,0:0:0:0:
216,256,64467,1,0,0:0:0:0:
168,248,64557,1,0,0:0:0:0:
120,232,64647,1,0,0:0:0:0:
80,208,64737,1,0,0:0:0:0:
48,176,64826,1,0,0:0:0:0:
256,112,65006,1,0,0:0:0:0:
216,280,65365,6,0,P|260:288|328:272,1,80
292,88,65725,2,0,P|248:80|204:88,1,80
256,192,66084,1,0,0:0:0:0:
480,192,66264,1,0,0:0:0:0:
400,304,66443,2,0,P|361:314|320:304,1,80
128,304,66802,2,0,B|144:224|144:224|192:224|224:176,1,160
256,80,67341,5,0,0:0:0:0:
368,176,67521,2,0,P|333:195|290:191,1,80
216,332,67880,1,0,0:0:0:0:
124,256,68060,1,0,0:0:0:0:
208,64,68240,6,0,L|272:112,1,80
400,112,68599,1,0,0:0:0:0:
432,240,68778,2,0,P|400:272|364:282,1,80
200,192,69138,1,0,0:0:0:0:
304,64,69317,1,0,0:0:0:0:
128,64,69497,2,0,P|96:104|88:144,1,80
88,256,69856,1,0,0:0:0:0:
256,304,70036,2,0,B|320:348|320:348|347:299|419:307,1,160
432,192,70575,1,0,0:0:0:0:
256,192,70755,5,0,0:0:0:0:
84,332,71114,2,0,B|64:236|144:176,1,160
256,304,71653,2,0,P|304:304|336:256,1,80
324,96,72012,1,0,0:0:0:0:
432,128,72192,2,0,P|440:176|424:224,1,80
288,288,72551,1,0,0:0:0:0:
128,272,72731,2,0,P|84:244|68:216,1,80
64,80,73090,5,0,0:0:0:0:
192,80,73270,1,0,0:0:0:0:
256,192,73449,2,0,B|276:252|340:232|340:232|376:276,1,160
256,336,73988,1,0,0:0:0:0:
256,192,74168,1,0,0:0:0:0:
128,304,74347,5,0,0:0:0:0:
64,160,74527,2,0,L|128:88,1,80
256,192,74886,2,0,L|313:132,1,80
424,24,75246,2,0,L|480:80,1,80
480,260,75605,1,0,0:0:0:0:
80,160,75784,6,0,L|16:96,1,80
432,160,76144,2,0,L|520:88,1,80
256,304,76503,1,0,0:0:0:0:
176,144,76862,6,0,P|168:188|184:256,1,80
384,176,77222,2,0,P|336:184|296:176,1,80
256,72,77581,1,0,0:0:0:0:
256,272,77761,1,0,0:0:0:0:
152,304,77940,2,0,P|109:313|64:288,1,80
76,144,78299,2,0,B|105:62|105:62|160:80|188:40,1,160
304,48,78838,5,0,0:0:0:0:
304,160,79018,2,0,P|342:168|384:152,1,80
432,336,79377,1,0,0:0:0:0:
288,336,79557,1,0,0:0:0:0:
96,288,79737,6,0,L|160:336,1,80
48,176,80096,1,0,0:0:0:0:
240,240,80275,2,0,P|200:200|168:192,1,80
176,32,80635,1,0,0:0:0:0:
272,96,80814,1,0,0:0:0:0:
384,96,80994,2,0,P|384:152|355:180,1,80
256,208,81353,1,0,0:0:0:0:
112,328,81533,2,0,B|192:344|192:344|224:304|280:328,1,160
408,336,82072,1,0,0:0:0:0:
256,192,82252,5,0,0:0:0:0:
408,336,82611,2,0,B|488:280|468:180,1,160
256,192,83150,2,0,L|256:104,1,80
88,192,83509,1,0,0:0:0:0:
184,304,83689,2,0,P|241:314|279:293,1,80
352,192,84048,1,0,0:0:0:0:
208,192,84228,2,0,P|164:164|148:136,1,80
224,40,84587,5,0,0:0:0:0:
352,64,84767,1,0,0:0:0:0:
352,192,84946,2,0,B|372:252|436:232|436:232|472:276,1,160
360,344,85485,1,0,0:0:0:0:
232,304,85665,1,0,0:0:0:0:
112,192,85844,5,0,0:0:0:0:
288,160,86024,2,0,L|212:100,1,80
368,96,86383,2,0,L|400:16,1,80
448,192,86743,1,0,0:0:0:0:
452,272,86922,5,0,0:0:0:0:
432,308,87012,1,0,0:0:0:0:
396,324,87102,1,0,0:0:0:0:
356,324,87192,1,0,0:0:0:0:
320,320,87281,1,0,0:0:0:0:
288,304,87371,1,0,0:0:0:0:
256,280,87461,1,0,0:0:0:0:
232,248,87551,1,0,0:0:0:0:
224,208,87641,1,0,0:0:0:0:
232,168,87731,1,0,0:0:0:0:
248,132,87820,1,0,0:0:0:0:
280,108,87910,1,0,0:0:0:0:
352,128,88000,6,0,L|352:208,2,80
260,48,88539,1,0,0:0:0:0:
192,128,88719,2,0,L|192:216,2,80
112,48,89258,1,0,0:0:0:0:
