osu file format v14

[General]
AudioFilename: audio.mp3
AudioLeadIn: 0
PreviewTime: 40934
Countdown: 0
SampleSet: Soft
StackLeniency: 0.7
Mode: 3
LetterboxInBreaks: 0
SpecialStyle: 1
WidescreenStoryboard: 1

[Editor]
DistanceSpacing: 1.1
BeatDivisor: 2
GridSize: 4
TimelineZoom: 1.9

[Metadata]
Title:Signal (TV Size)
TitleUnicode:Signal (TV Size)
Artist:TK from Ling tosite sigure
ArtistUnicode:TK from 凛として時雨
Creator:Antalf
Version:EZ
Source:91 Days
Tags:anime opening drama action japanese rock
BeatmapID:1175044
BeatmapSetID:554731

[Difficulty]
HPDrainRate:6
CircleSize:4
OverallDifficulty:6
ApproachRate:9
SliderMultiplier:1.6
SliderTickRate:1

[Events]
//Background and Video events
0,0,"91_days_4.jpg",0,0
Video,0,"SignalOpnm1.mp4"
//Break Periods
//Storyboard Layer 0 (Background)
//Storyboard Layer 1 (Fail)
//Storyboard Layer 2 (Pass)
//Storyboard Layer 3 (Foreground)
//Storyboard Sound Samples

[TimingPoints]
1773,359.281437125748,4,2,0,55,1,0
42016,-100,4,2,0,65,0,1
88000,-100,4,2,0,55,0,0

[Colours]
Combo1 : 103,103,103
Combo2 : 255,36,36
Combo3 : 192,164,1
Combo4 : 255,128,0

[HitObjects]
64,192,515,5,0,0:0:0:0:
320,192,695,1,0,0:0:0:0:
448,192,1054,1,0,0:0:0:0:
64,192,1413,1,0,0:0:0:0:
320,192,1773,1,0,0:0:0:0:
192,192,1773,1,0,0:0:0:0:
448,192,2491,1,0,0:0:0:0:
64,192,3210,1,0,0:0:0:0:
192,192,3210,1,0,0:0:0:0:
320,192,3569,1,0,0:0:0:0:
192,192,3928,1,0,0:0:0:0:
448,192,3928,1,0,0:0:0:0:
448,192,4647,1,0,0:0:0:0:
192,192,5365,1,0,0:0:0:0:
64,192,5365,1,0,0:0:0:0:
448,192,5904,1,0,0:0:0:0:
320,192,6084,1,0,0:0:0:0:
448,192,6443,1,0,0:0:0:0:
192,192,6802,1,0,0:0:0:0:
64,192,7162,1,0,0:0:0:0:
320,192,7521,1,0,0:0:0:0:
192,192,7521,1,0,0:0:0:0:
64,192,8240,1,0,0:0:0:0:
320,192,8240,1,0,0:0:0:0:
192,192,9138,1,0,0:0:0:0:
320,192,9677,1,0,0:0:0:0:
448,192,9677,1,0,0:0:0:0:
192,192,10395,1,0,0:0:0:0:
64,192,11114,1,0,0:0:0:0:
448,192,11114,1,0,0:0:0:0:
320,192,12012,1,0,0:0:0:0:
64,192,12551,1,0,0:0:0:0:
192,192,12551,1,0,0:0:0:0:
192,192,13270,1,0,0:0:0:0:
448,192,13988,1,0,0:0:0:0:
320,192,13988,1,0,0:0:0:0:
64,192,14886,1,0,0:0:0:0:
320,192,15425,1,0,0:0:0:0:
448,192,15425,1,0,0:0:0:0:
192,192,16144,1,0,0:0:0:0:
448,192,16862,1,0,0:0:0:0:
64,192,16862,1,0,0:0:0:0:
320,192,17581,1,0,0:0:0:0:
192,192,17940,1,0,0:0:0:0:
64,192,18299,1,0,0:0:0:0:
448,192,18479,128,0,19018:0:0:0:0:
64,192,19018,1,0,0:0:0:0:
192,192,19737,1,0,0:0:0:0:
448,192,19737,1,0,0:0:0:0:
448,192,20635,1,0,0:0:0:0:
320,192,21174,1,0,0:0:0:0:
64,192,21174,1,0,0:0:0:0:
192,192,21892,1,0,0:0:0:0:
64,192,22611,1,0,0:0:0:0:
448,192,22611,1,0,0:0:0:0:
192,192,23509,1,0,0:0:0:0:
448,192,24048,1,0,0:0:0:0:
320,192,24048,1,0,0:0:0:0:
64,192,24767,1,0,0:0:0:0:
192,192,25485,1,0,0:0:0:0:
448,192,25485,1,0,0:0:0:0:
320,192,26383,1,0,0:0:0:0:
192,192,26922,1,0,0:0:0:0:
64,192,26922,1,0,0:0:0:0:
320,192,27641,1,0,0:0:0:0:
448,192,28359,1,0,0:0:0:0:
192,192,28898,1,0,0:0:0:0:
192,192,29796,1,0,0:0:0:0:
320,192,29796,1,0,0:0:0:0:
64,192,30515,1,0,0:0:0:0:
192,192,31234,1,0,0:0:0:0:
448,192,31234,1,0,0:0:0:0:
192,192,32132,1,0,0:0:0:0:
64,192,32671,1,0,0:0:0:0:
320,192,32671,1,0,0:0:0:0:
192,192,33389,1,0,0:0:0:0:
320,192,34108,1,0,0:0:0:0:
448,192,34108,1,0,0:0:0:0:
192,192,35006,1,0,0:0:0:0:
64,192,35545,1,0,0:0:0:0:
448,192,35545,1,0,0:0:0:0:
192,192,36264,1,0,0:0:0:0:
192,192,36982,1,0,0:0:0:0:
320,192,36982,1,0,0:0:0:0:
64,192,37880,1,0,0:0:0:0:
320,192,38419,1,0,0:0:0:0:
448,192,38419,1,0,0:0:0:0:
192,192,38778,1,0,0:0:0:0:
64,192,39138,1,0,0:0:0:0:
448,192,40934,1,0,0:0:0:0:
64,192,41114,1,0,0:0:0:0:
64,192,42012,1,0,0:0:0:0:
448,192,42012,1,0,0:0:0:0:
192,192,42371,1,0,0:0:0:0:
320,192,42731,1,0,0:0:0:0:
448,192,42731,1,0,0:0:0:0:
192,192,43449,1,0,0:0:0:0:
448,192,43808,1,0,0:0:0:0:
192,192,44168,1,0,0:0:0:0:
64,192,44168,1,0,0:0:0:0:
192,192,44886,1,0,0:0:0:0:
448,192,45246,1,0,0:0:0:0:
320,192,45605,1,0,0:0:0:0:
64,192,45605,1,0,0:0:0:0:
192,192,46323,1,0,0:0:0:0:
64,192,46683,1,0,0:0:0:0:
192,192,47042,1,0,0:0:0:0:
320,192,47042,1,0,0:0:0:0:
448,192,47761,1,0,0:0:0:0:
320,192,48120,1,0,0:0:0:0:
64,192,48479,1,0,0:0:0:0:
192,192,48479,1,0,0:0:0:0:
192,192,49198,1,0,0:0:0:0:
64,192,49557,1,0,0:0:0:0:
320,192,49916,1,0,0:0:0:0:
448,192,49916,1,0,0:0:0:0:
64,192,50635,1,0,0:0:0:0:
448,192,50994,1,0,0:0:0:0:
192,192,51353,1,0,0:0:0:0:
320,192,51353,1,0,0:0:0:0:
448,192,52072,1,0,0:0:0:0:
64,192,52431,1,0,0:0:0:0:
320,192,52790,1,0,0:0:0:0:
192,192,53150,1,0,0:0:0:0:
64,192,53509,1,0,0:0:0:0:
448,192,53509,1,0,0:0:0:0:
320,192,54228,1,0,0:0:0:0:
64,192,54767,1,0,0:0:0:0:
320,192,55305,1,0,0:0:0:0:
192,192,55665,1,0,0:0:0:0:
448,192,55665,1,0,0:0:0:0:
64,192,56383,1,0,0:0:0:0:
448,192,56743,1,0,0:0:0:0:
192,192,57102,1,0,0:0:0:0:
320,192,57102,1,0,0:0:0:0:
64,192,57641,1,0,0:0:0:0:
320,192,58180,1,0,0:0:0:0:
64,192,58539,1,0,0:0:0:0:
192,192,58539,1,0,0:0:0:0:
448,192,59258,1,0,0:0:0:0:
192,192,59976,1,0,0:0:0:0:
320,192,59976,1,0,0:0:0:0:
64,192,60515,1,0,0:0:0:0:
320,192,61054,1,0,0:0:0:0:
64,192,61413,1,0,0:0:0:0:
448,192,61413,1,0,0:0:0:0:
192,192,62132,1,0,0:0:0:0:
320,192,62850,1,0,0:0:0:0:
64,192,62850,1,0,0:0:0:0:
192,192,63389,1,0,0:0:0:0:
448,192,63749,1,0,0:0:0:0:
320,192,63749,1,0,0:0:0:0:
64,192,64287,1,0,0:0:0:0:
448,192,64647,1,0,0:0:0:0:
192,192,65006,1,0,0:0:0:0:
320,192,65006,1,0,0:0:0:0:
64,192,65725,1,0,0:0:0:0:
448,192,65725,1,0,0:0:0:0:
320,192,66264,1,0,0:0:0:0:
320,192,67162,1,0,0:0:0:0:
448,192,67162,1,0,0:0:0:0:
64,192,67880,1,0,0:0:0:0:
192,192,68599,1,0,0:0:0:0:
448,192,68599,1,0,0:0:0:0:
64,192,69138,1,0,0:0:0:0:
320,192,69677,1,0,0:0:0:0:
64,192,70036,1,0,0:0:0:0:
448,192,70036,1,0,0:0:0:0:
192,192,70755,1,0,0:0:0:0:
192,192,71473,1,0,0:0:0:0:
320,192,71473,1,0,0:0:0:0:
448,192,72012,1,0,0:0:0:0:
64,192,72551,1,0,0:0:0:0:
320,192,72910,1,0,0:0:0:0:
448,192,72910,1,0,0:0:0:0:
64,192,73629,1,0,0:0:0:0:
192,192,74347,1,0,0:0:0:0:
320,192,74347,1,0,0:0:0:0:
448,192,74707,1,0,0:0:0:0:
320,192,75425,1,0,0:0:0:0:
64,192,75784,1,0,0:0:0:0:
448,192,75784,1,0,0:0:0:0:
192,192,76144,1,0,0:0:0:0:
320,192,76144,1,0,0:0:0:0:
64,192,76503,1,0,0:0:0:0:
448,192,76503,1,0,0:0:0:0:
192,192,77222,1,0,0:0:0:0:
320,192,77222,1,0,0:0:0:0:
448,192,77761,1,0,0:0:0:0:
64,192,78299,1,0,0:0:0:0:
320,192,78659,1,0,0:0:0:0:
448,192,78659,1,0,0:0:0:0:
192,192,79377,1,0,0:0:0:0:
64,192,80096,1,0,0:0:0:0:
320,192,80096,1,0,0:0:0:0:
192,192,80635,1,0,0:0:0:0:
64,192,81174,1,0,0:0:0:0:
192,192,81533,1,0,0:0:0:0:
448,192,81533,1,0,0:0:0:0:
320,192,82252,1,0,0:0:0:0:
448,192,82970,1,0,0:0:0:0:
64,192,82970,1,0,0:0:0:0:
320,192,83509,1,0,0:0:0:0:
64,192,84048,1,0,0:0:0:0:
192,192,84407,1,0,0:0:0:0:
320,192,84407,1,0,0:0:0:0:
64,192,85126,1,0,0:0:0:0:
320,192,85844,1,0,0:0:0:0:
448,192,85844,1,0,0:0:0:0:
64,192,86383,1,0,0:0:0:0:
320,192,86922,1,0,0:0:0:0:
448,192,87281,1,0,0:0:0:0:
64,192,87641,1,0,0:0:0:0:
448,192,88000,1,0,0:0:0:0:
192,192,88359,1,0,0:0:0:0:
64,192,88719,1,0,0:0:0:0:
320,192,89078,1,0,0:0:0:0:
