osu file format v14

[General]
AudioFilename: audio.mp3
AudioLeadIn: 0
PreviewTime: 53602
Countdown: 1
SampleSet: Soft
StackLeniency: 0.7
Mode: 0
LetterboxInBreaks: 0
WidescreenStoryboard: 1

[Editor]
Bookmarks: 5674,15779,20832,25885,33464,38516,43569,53674,63779,73885,83990,94095,101674,107990,113043,118095,128200,133253,138306,148411,158516,168622,178727,186306,188832,193885,203990,214095
DistanceSpacing: 1
BeatDivisor: 4
GridSize: 4
TimelineZoom: 2.999999

[Metadata]
Title:Fu re te Fu re ru
TitleUnicode:Fu re te Fu re ru
Artist:TK from Ling tosite sigure
ArtistUnicode:TK from 凛として時雨
Creator:Mao
Version:Expert
Source:
Tags:unravel tokyo ghoul single lasse lmt rock japanese
BeatmapID:1841827
BeatmapSetID:880806

[Difficulty]
HPDrainRate:5.5
CircleSize:4.2
OverallDifficulty:8
ApproachRate:9.3
SliderMultiplier:2
SliderTickRate:1

[Events]
//Background and Video events
0,0,"174341.jpg",0,0
//Break Periods
//Storyboard Layer 0 (Background)
//Storyboard Layer 1 (Fail)
//Storyboard Layer 2 (Pass)
//Storyboard Layer 3 (Foreground)
//Storyboard Layer 4 (Overlay)
//Storyboard Sound Samples

[TimingPoints]
642,315.789473684211,4,2,1,5,1,0
2536,-100,4,2,1,10,0,0
3168,-100,4,2,1,15,0,0
3799,-100,4,2,1,20,0,0
4431,-100,4,2,1,25,0,0
5063,-100,4,2,1,30,0,0
5536,-100,4,2,1,5,0,0
5694,-133.333333333333,4,2,1,50,0,0
15799,-111.111111111111,4,2,1,70,0,0
19579,315.789473684211,4,2,1,70,1,0
19579,-111.111111111111,4,2,1,70,0,0
20526,-100,4,2,1,70,0,0
20842,-66.6666666666667,4,2,1,70,0,0
25599,305.343511450382,4,2,1,70,1,0
25904,315.789473684211,4,2,1,90,1,0
25905,-50,4,2,1,90,0,0
26693,-100,4,2,1,90,0,0
27009,-50,4,2,1,90,0,0
27640,342.857142857143,4,2,1,90,1,0
27640,-50,4,2,1,90,0,0
27811,315.789473684211,4,2,1,90,1,0
27932,315.789473684211,4,2,1,90,1,0
28109,315.789473684211,4,2,1,90,1,0
28424,315.789473684211,4,2,1,90,1,0
28581,-100,4,2,1,90,0,0
28897,-66.6666666666667,4,2,1,90,0,0
29220,315.789473684211,4,2,1,90,1,0
29220,-50,4,2,1,90,0,0
29377,315.789473684211,4,2,1,90,1,0
29692,315.789473684211,4,2,1,90,1,0
30007,-50,4,2,1,90,0,0
30244,400,4,2,1,90,1,0
30481,315.789473684211,4,2,1,90,1,0
30481,-100,4,2,1,90,0,0
30797,-50,4,2,1,90,0,0
30955,315.789473684211,4,2,1,90,1,0
30955,-50,4,2,1,90,0,0
32376,-100,4,2,1,90,0,0
32692,-66.6666666666667,4,2,1,90,0,0
33010,-100,4,2,1,90,0,0
33165,-40,4,2,1,90,0,0
33481,-153.846153846153,4,2,1,50,0,0
33956,315.789473684211,4,2,1,50,1,0
33956,-153.846153846154,4,2,1,50,0,0
34113,315.789473684211,4,2,1,50,1,0
34744,315.789473684211,4,2,1,50,1,0
34744,-153.846153846154,4,2,1,50,0,0
36962,315.789473684211,4,2,1,50,1,0
36962,-153.846153846154,4,2,1,50,0,0
37277,315.789473684211,4,2,1,50,1,0
37277,-153.846153846154,4,2,1,50,0,0
38220,-133.333333333333,4,2,1,70,0,0
42010,-83.3333333333333,4,2,1,90,0,0
42309,292.540224280839,4,2,1,90,1,0
42309,-133.333333333333,4,2,1,90,0,0
42747,339.943342776204,4,2,1,90,1,0
43086,315.789473684211,4,2,1,90,1,0
43580,315.789473684211,4,2,1,90,1,0
44530,315.789473684211,4,2,1,90,1,0
44530,-40,4,2,1,90,0,0
44845,315.789473684211,4,2,1,90,1,0
46110,315.789473684211,4,2,1,90,1,0
46110,-66.6666666666667,4,2,1,90,0,0
47520,315.789473684211,4,2,1,90,1,0
47677,315.789473684211,4,2,1,90,1,0
47986,315.789473684211,4,2,1,90,1,0
48617,-66.6666666666667,4,2,1,90,0,0
49256,315.789473684211,4,2,1,90,1,0
49256,-66.6666666666667,4,2,1,90,0,0
50369,315.789473684211,4,2,1,90,1,0
50526,315.789473684211,4,2,1,90,1,0
51164,315.789473684211,4,2,1,90,1,0
51164,-66.6666666666667,4,2,1,90,0,0
53201,315.789473684211,4,2,1,90,1,0
53358,326.08695652174,4,2,1,90,1,0
53684,315.789473684211,4,2,1,90,1,1
53684,-100,4,2,1,90,0,1
55578,333.333333333334,4,2,1,90,1,1
55894,315.789473684211,4,2,1,90,1,1
56210,315.789473684211,4,2,1,90,1,1
60180,270.270270270271,4,2,1,90,1,1
60315,315.789473684211,4,2,1,90,1,1
61262,315.789473684211,4,2,1,90,1,1
63709,-100,4,2,1,90,0,0
63788,-100,4,2,1,90,0,1
71840,-142.857142857143,4,2,1,90,0,1
72457,315.789473684211,4,2,1,90,1,1
72641,315.789473684211,4,2,1,90,1,1
72641,-111.111111111111,4,2,1,90,0,1
73825,-111.111111111111,4,2,1,90,0,0
73904,-100,4,2,1,90,0,1
77693,375.000000000001,4,2,1,90,1,1
78009,315.789473684211,4,2,1,90,1,1
78956,315.789473684211,4,2,1,90,1,1
83929,-100,4,2,1,90,0,0
84008,-100,4,2,1,90,0,1
87798,333.333333333334,4,2,1,90,1,1
88113,315.789473684211,4,2,1,90,1,1
89061,315.789473684211,4,2,1,90,1,1
90797,295.566502463054,4,2,1,90,1,1
91092,315.789473684211,4,2,1,90,1,1
91249,315.789473684211,4,2,1,90,1,1
91564,315.789473684211,4,2,1,90,1,1
92534,315.789473684211,4,2,1,90,1,1
92849,315.789473684211,4,2,1,90,1,1
94112,-100,4,2,1,90,0,0
97782,322.580645161291,4,2,1,90,1,0
98052,315.789473684211,4,2,1,90,1,0
99148,315.789473684211,4,2,1,90,1,0
101071,315.789473684211,4,2,1,90,1,0
101277,315.789473684211,4,2,1,90,1,0
101500,315.789473684211,4,2,1,90,1,0
101686,315.789473684211,4,2,1,90,1,0
101990,-40,4,2,1,90,0,0
103091,335.195530726257,4,2,1,90,1,0
103258,315.789473684211,4,2,1,90,1,0
103258,-40,4,2,1,90,0,0
104205,315.789473684211,4,2,1,90,1,0
104520,-40,4,2,1,90,0,0
104832,-50,4,2,1,90,0,0
105779,-40,4,2,1,90,0,0
106253,-50,4,2,1,90,0,0
106723,315.789473684211,4,2,1,90,1,0
107512,-222.222222222221,4,2,1,90,0,0
107986,-125,4,2,0,60,0,0
109419,315.789473684211,4,2,0,60,1,0
109576,298.507462686568,4,2,0,60,1,0
109576,-125,4,2,0,60,0,0
109725,315.789473684211,4,2,0,60,1,0
109725,-125,4,2,0,60,0,0
109882,315.789473684211,4,2,0,60,1,0
109882,-125,4,2,0,60,0,0
110523,315.789473684211,4,2,0,60,1,0
110523,-125,4,2,0,60,0,0
110992,315.789473684211,4,2,0,60,1,0
110992,-125,4,2,0,60,0,0
111149,315.789473684211,4,2,0,60,1,0
111149,-125,4,2,0,60,0,0
111780,315.789473684211,4,2,0,60,1,0
112727,-125,4,2,0,60,0,0
113043,-111.111111111111,4,2,0,60,0,0
116516,-83.3333333333333,4,2,1,90,0,0
117623,333.333333333334,4,2,1,90,1,0
118095,-50,4,2,1,90,0,0
118097,315.789473684211,4,2,1,90,1,0
119043,-40,4,2,1,90,0,0
119200,-66.6666666666667,4,2,1,90,0,0
122029,333.333333333333,4,2,1,90,1,0
122214,315.789473684211,4,2,1,90,1,0
122965,315.789473684211,4,2,1,90,1,0
123130,315.789473684211,4,2,1,90,1,0
123130,-66.6666666666667,4,2,1,90,0,0
123787,315.789473684211,4,2,1,90,1,0
123787,-66.6666666666667,4,2,1,90,0,0
124576,315.789473684211,4,2,1,90,1,0
124733,315.789473684211,4,2,1,90,1,0
125680,315.789473684211,4,2,1,90,1,0
125680,-66.6666666666667,4,2,1,90,0,0
127857,337.078651685393,4,2,1,90,1,0
127857,-66.6666666666667,4,2,1,90,0,0
128166,336.889387984279,4,2,1,90,1,0
128166,-250,4,2,1,20,0,0
128839,315.789473684211,4,2,1,20,1,0
128839,-250,4,2,1,20,0,0
129961,310.880829015544,4,2,1,20,1,0
130780,275.229357798165,4,2,1,20,1,0
130780,-250,4,2,1,20,0,0
131681,315.789473684211,4,2,1,20,1,0
131996,315.789473684211,4,2,1,20,1,0
132627,-142.857142857143,4,2,1,20,0,0
133253,-142.857142857143,4,2,1,30,0,0
133597,315.789473684211,4,2,1,30,1,0
134516,-142.857142857143,4,2,1,40,0,0
134534,315.789473684211,4,2,1,30,1,0
135779,-142.857142857143,4,2,1,50,0,0
136885,-142.857142857143,4,2,1,60,0,0
137200,-142.857142857143,4,2,1,70,0,0
137674,-142.857142857143,4,2,1,80,0,0
138323,-100,4,2,1,90,0,1
138797,294.117647058824,4,2,1,90,1,1
139091,315.789473684211,4,2,1,90,1,1
139248,315.789473684211,4,2,1,90,1,1
139563,315.789473684211,4,2,1,90,1,1
142106,315.789473684211,4,2,1,90,1,1
145405,315.789473684211,4,2,1,90,1,1
146358,-142.857142857143,4,2,1,90,0,1
146990,-111.111111111111,4,2,1,90,0,1
146993,315.789473684211,4,2,1,90,1,1
147150,315.789473684211,4,2,1,90,1,1
147150,-111.111111111111,4,2,1,90,0,1
148334,-111.111111111111,4,2,1,90,0,0
148421,315.789473684211,4,2,1,90,1,1
148421,-100,4,2,1,90,0,1
150315,267.857142857143,4,2,1,90,1,1
150448,315.789473684211,4,2,1,90,1,1
150605,315.789473684211,4,2,1,90,1,1
150920,315.789473684211,4,2,1,90,1,1
152202,352.941176470589,4,2,1,90,1,1
152517,315.789473684211,4,2,1,90,1,1
153464,315.789473684211,4,2,1,90,1,1
154770,333.333333333334,4,2,1,90,1,1
155054,315.789473684211,4,2,1,90,1,1
155223,299.25187032419,4,2,1,90,1,1
155522,285.714285714286,4,2,1,90,1,1
155995,315.789473684211,4,2,1,90,1,1
158442,-100,4,2,1,90,0,0
158545,315.789473684211,4,2,1,90,1,1
158545,-100,4,2,1,90,0,1
160742,315.789473684211,4,2,1,90,1,1
161057,315.789473684211,4,2,1,90,1,1
163573,315.789473684211,4,2,1,90,1,1
165492,315.789473684211,4,2,1,90,1,1
165794,315.789473684211,4,2,1,90,1,1
166095,315.789473684211,4,2,1,90,1,1
166434,269.058295964126,4,2,1,90,1,1
166568,315.789473684211,4,2,1,90,1,1
166725,-83.3333333333333,4,2,1,90,0,1
167051,315.789473684211,4,2,1,90,1,1
167200,-50,4,2,1,90,0,1
167366,315.789473684211,4,2,1,90,1,1
167516,-47.6190476190476,4,2,1,90,0,1
168550,-47.6190476190476,4,2,1,90,0,0
168642,315.789473684211,4,2,1,90,1,1
168642,-100,4,2,1,90,0,1
170391,284.36018957346,4,2,1,90,1,1
170675,315.789473684211,4,2,1,90,1,1
170832,315.789473684211,4,2,1,90,1,1
171147,315.789473684211,4,2,1,90,1,1
173682,315.789473684211,4,2,1,90,1,1
177803,315.789473684211,4,2,1,90,1,1
178671,-100,4,2,1,90,0,0
178750,315.789473684211,4,2,1,90,1,1
178750,-100,4,2,1,90,0,1
182562,315.789473684211,4,2,1,90,1,1
183815,315.789473684211,4,2,1,90,1,1
185709,279.069767441861,4,2,1,90,1,1
185848,315.789473684211,4,2,1,90,1,1
186005,315.789473684211,4,2,1,90,1,1
186321,315.789473684211,4,2,1,90,1,1
187136,315.789473684211,4,2,1,90,1,1
187293,315.789473684211,4,2,1,90,1,1
187897,271.493212669684,4,2,1,90,1,1
188168,315.789473684211,4,2,1,90,1,1
188544,300,4,2,1,90,1,1
188544,-66.6666666666667,4,2,1,90,0,1
188694,315.789473684211,4,2,1,90,1,1
188851,315.789473684211,4,2,1,90,1,0
193885,328.227571115974,4,2,1,60,1,0
194213,315.789473684211,4,2,1,60,1,0
194213,-117.647058823529,4,2,1,60,0,0
195160,315.789473684211,4,2,1,60,1,0
195160,-117.647058823529,4,2,1,60,0,0
195811,285.714285714286,4,2,1,60,1,0
196120,285.714285714286,4,2,1,60,1,0
196411,315.789473684211,4,2,1,60,1,0
196411,-117.647058823529,4,2,1,60,0,0
197690,315.789473684211,4,2,1,60,1,0
197690,-117.647058823529,4,2,1,60,0,0
203990,-111.111111111111,4,2,1,70,0,0
207468,315.789473684211,4,2,1,70,1,0
207783,315.789473684211,4,2,1,70,1,0
207783,-111.111111111111,4,2,1,70,0,0
208256,342.857142857143,4,2,1,70,1,0
208256,-111.111111111111,4,2,1,70,0,0
208427,315.789473684211,4,2,1,70,1,0
208727,-100,4,2,1,70,0,0
209058,315.789473684211,4,2,1,70,1,0
209058,-66.6666666666667,4,2,1,70,0,0
213819,315.789473684211,4,2,1,70,1,0

[Colours]
Combo1 : 255,206,234
Combo2 : 255,0,89
Combo3 : 223,218,254
Combo4 : 148,84,254
SliderBorder : 95,95,140
SliderTrackOverride : 40,20,40

[HitObjects]
256,192,1905,12,0,5536,0:0:0:0:
61,52,5694,5,4,3:0:0:0:
122,183,5852,1,4,3:0:0:0:
147,28,6010,6,0,L|133:112,1,75.0000028610231,2|0,0:0|0:0,0:0:0:0:
221,75,6326,2,0,L|207:159,2,75.0000028610231,2|0|0,0:0|0:0|0:0,0:0:0:0:
384,25,6799,1,0,0:0:0:0:
384,25,6957,6,0,L|358:179,1,150.000005722046,2|0,0:0|0:0,0:0:0:0:
417,242,7431,1,2,0:0:0:0:
417,242,7747,1,2,0:0:0:0:
61,332,8220,5,4,3:0:0:0:
122,201,8378,1,4,3:0:0:0:
147,356,8536,6,0,L|133:272,1,75.0000028610231,2|0,0:0|0:0,0:0:0:0:
221,309,8852,2,0,L|207:225,2,75.0000028610231,2|0|0,0:0|0:0|0:0,0:0:0:0:
384,359,9325,1,0,0:0:0:0:
384,359,9483,6,0,L|358:204,1,150.000005722046,2|0,0:0|0:0,0:0:0:0:
431,156,9957,1,2,0:0:0:0:
431,156,10273,2,0,L|455:303,1,150.000005722046,2|2,0:0|0:0,0:0:0:0:
487,77,10747,5,4,3:0:0:0:
487,77,10905,1,4,3:0:0:0:
224,108,12010,5,4,3:0:0:0:
224,108,12168,1,4,3:0:0:0:
342,294,13273,5,4,3:0:0:0:
342,294,13431,1,4,3:0:0:0:
86,343,14536,5,4,3:0:0:0:
86,343,14694,1,4,3:0:0:0:
369,76,15484,2,2,L|505:101,1,112.500004291535,4|0,0:0|0:0,0:3:0:0:
498,102,15799,6,0,P|448:146|421:208,1,134.999995880127,4|0,1:0|0:0,0:0:0:0:
418,229,16115,1,8,0:3:0:0:
443,348,16273,2,0,P|371:338|305:222,1,179.999994506836,2|0,0:0|0:0,0:0:0:0:
205,109,16747,1,8,0:3:0:0:
226,208,16905,1,2,0:0:0:0:
45,298,17063,6,0,P|32:281|19:198,1,89.9999972534181,4|0,0:0|0:0,0:0:0:0:
51,120,17378,1,8,0:3:0:0:
103,350,17536,2,0,P|105:261|135:176,1,179.999994506836,2|2,0:0|0:0,0:0:0:0:
309,27,18010,2,0,L|356:17,3,44.999998626709,8|0|0|0,0:3|0:0|0:0|0:0,0:0:0:0:
302,42,18326,6,0,P|257:33|201:55,1,89.9999972534181,6|0,0:0|0:0,0:0:0:0:
142,89,18642,1,4,0:3:0:0:
296,133,18799,2,0,P|266:179|265:325,1,179.999994506836,2|0,0:0|0:0,0:0:0:0:
315,368,19273,1,8,0:3:0:0:
488,249,19431,1,2,0:0:0:0:
488,249,19510,1,0,0:0:0:0:
488,249,19579,6,0,P|449:283|406:368,1,134.999995880127,4|0,0:0|0:0,0:0:0:0:
405,375,19894,1,8,0:3:0:0:
376,227,20052,2,0,P|367:182|375:137,1,89.9999972534181,2|8,0:0|0:3,0:0:0:0:
427,61,20368,1,0,0:0:0:0:
240,0,20526,6,0,P|205:25|171:137,1,150,4|0,0:0|0:0,0:0:0:0:
170,122,20842,6,0,P|130:80|99:90,2,75.0000028610231,2|0|0,1:0|0:0|0:0,0:0:0:0:
38,108,21157,1,8,3:0:0:0:
333,177,21315,6,0,P|373:135|404:145,2,75.0000028610231,2|0|4,1:0|0:0|3:0,0:0:0:0:
465,163,21631,1,2,0:0:0:0:
183,275,21789,6,0,P|143:233|112:243,2,75.0000028610231,2|0|0,1:0|0:0|0:0,0:0:0:0:
51,261,22105,1,6,0:0:0:0:
347,334,22263,6,0,P|387:292|418:302,2,75.0000028610231,2|0|8,1:0|0:0|3:0,0:0:0:0:
479,320,22579,1,2,0:0:0:0:
212,35,22736,6,0,P|254:92|283:207,1,150.000005722046,6|0,1:0|0:0,0:0:0:0:
280,192,23052,1,4,3:0:0:0:
96,371,23210,6,0,L|73:289,1,75.0000028610231,6|0,1:0|0:0,0:0:0:0:
175,312,23368,5,8,1:3:0:0:
190,310,23447,1,0,1:0:0:0:
205,308,23526,1,0,1:0:0:0:
220,306,23605,1,0,1:0:0:0:
229,327,23684,1,8,1:3:0:0:
245,309,23763,1,0,1:0:0:0:
268,315,23842,1,0,1:0:0:0:
283,294,23921,1,0,1:0:0:0:
298,275,24000,5,8,1:3:0:0:
311,300,24079,1,0,1:0:0:0:
323,324,24158,1,0,1:0:0:0:
334,349,24237,1,0,1:0:0:0:
346,374,24316,5,8,1:3:0:0:
373,366,24395,1,0,1:0:0:0:
400,359,24474,1,0,1:0:0:0:
426,352,24553,1,0,1:0:0:0:
453,345,24632,5,8,1:3:0:0:
443,310,24710,1,0,1:0:0:0:
447,274,24789,1,0,1:0:0:0:
461,239,24868,1,0,1:0:0:0:
483,206,24947,1,8,1:3:0:0:
490,165,25026,1,0,1:0:0:0:
481,126,25105,1,0,1:0:0:0:
455,97,25184,1,0,1:0:0:0:
418,88,25263,5,0,1:0:0:0:
376,150,25368,1,0,1:0:0:0:
301,160,25474,1,0,1:0:0:0:
233,119,25599,6,0,P|170:119|129:189,1,150,4|0,0:0|0:0,0:0:0:0:
200,182,25904,5,6,1:0:0:0:
125,117,26062,1,8,0:3:0:0:
65,110,26141,1,0,0:0:0:0:
25,154,26219,1,10,0:0:0:0:
2,272,26377,1,8,0:3:0:0:
114,371,26535,1,2,0:0:0:0:
286,301,26693,2,0,L|327:187,1,100,2|0,1:0|0:0,0:0:0:0:
478,46,27009,6,0,B|500:70|504:75|442:235,1,200,6|0,1:0|0:0,0:0:0:0:
281,319,27325,2,0,B|290:287|293:281|462:255,1,200,2|4,1:0|0:0,0:0:0:0:
349,129,27640,2,0,B|318:140|312:142|185:27,1,200,2|2,0:1|0:0,0:0:0:0:
173,298,27932,5,8,0:0:0:0:
187,239,28010,1,0,0:0:0:0:
235,203,28109,1,2,1:0:0:0:
271,296,28266,1,4,3:0:0:0:
141,371,28424,1,8,0:0:0:0:
52,188,28581,2,0,P|57:127|66:73,1,100,2|0,1:0|0:0,0:0:0:0:
33,277,28897,2,0,P|28:216|-1:126,1,150.000005722046,10|8,0:0|0:0,0:0:0:0:
217,15,29213,5,12,3:0:0:0:
217,15,29377,1,8,0:0:0:0:
252,50,29455,1,0,0:0:0:0:
213,84,29534,1,2,0:1:0:0:
252,134,29613,1,0,0:0:0:0:
212,188,29692,5,6,1:0:0:0:
332,230,29849,1,2,0:0:0:0:
478,128,30007,6,0,B|488:113|487:120|419:41,1,100,2|0,1:0|0:0,0:0:0:0:
410,160,30165,1,4,3:0:0:0:
469,151,30244,1,0,0:0:0:0:
493,205,30344,1,8,0:0:0:0:
414,368,30481,2,0,P|412:310|420:265,1,100,2|4,1:0|3:0,0:0:0:0:
218,178,30797,6,0,B|240:202|244:207|182:367,1,200,6|2,1:0|0:0,0:0:0:0:
27,232,31113,2,0,B|36:200|39:194|208:168,1,200,2|4,1:0|0:0,0:0:0:0:
16,0,31428,2,0,B|5:31|3:37|118:164,1,200,2|4,0:1|3:0,0:0:0:0:
44,356,31744,5,8,0:0:0:0:
97,329,31823,1,0,1:0:0:0:
123,274,31902,1,2,1:0:0:0:
32,260,32060,1,12,3:0:0:0:
201,334,32218,1,2,0:0:0:0:
331,158,32376,2,0,P|345:100|352:54,1,100,2|4,1:0|3:0,0:0:0:0:
306,242,32692,2,2,P|292:184|289:89,1,150.000005722046,8|8,0:0|0:0,0:3:0:0:
407,371,33007,5,0,1:0:0:0:
407,371,33165,2,2,B|435:363|435:363|429:362|429:362|454:379,6,62.5,2|2|2|2|2|2|2,0:1|0:1|0:1|0:1|0:1|0:1|0:1,0:1:0:0:
496,168,33481,6,0,P|469:209|447:311,1,129.999994049073,4|0,0:0|0:0,0:0:0:0:
428,204,33956,2,0,P|401:163|379:61,1,129.999994049073,8|2,0:3|0:0,0:0:0:0:
405,5,34428,1,2,0:0:0:0:
351,242,34665,1,0,3:0:0:0:
351,242,34744,6,0,P|308:248|278:267,2,64.9999970245363,2|0|2,0:0|0:0|0:0,0:0:0:0:
344,329,35217,2,0,P|301:311|207:324,1,129.999994049073,8|0,0:3|0:0,0:0:0:0:
150,367,35691,1,4,0:0:0:0:
17,137,35928,1,0,0:0:0:0:
17,137,36007,6,0,P|42:162|70:192,2,64.9999970245363,8|0|2,0:3|0:0|0:0,0:0:0:0:
40,51,36480,2,0,P|59:103|80:190,1,129.999994049073,6|0,0:0|0:0,0:0:0:0:
175,142,36962,2,0,P|157:190|145:260,1,97.4999955368044,2|0,0:0|0:0,0:0:0:0:
146,255,37277,5,4,0:3:0:0:
50,286,37434,6,0,P|62:296|72:309,1,32.4999985122681,0|0,3:0|3:0,3:0:0:0:
81,328,37592,1,2,0:0:0:0:
256,373,37750,1,8,0:3:0:0:
256,373,38066,1,2,0:0:0:0:
299,291,38224,2,0,P|291:235|274:152,1,112.500004291535,4|0,0:0|0:0,0:0:0:0:
274,160,38540,5,4,0:0:0:0:
309,91,38698,1,0,0:0:0:0:
375,58,38855,1,2,0:0:0:0:
451,66,39013,1,8,0:3:0:0:
259,147,39171,6,0,P|269:113|300:70,1,75.0000028610231,2|0,3:0|0:0,0:0:0:0:
373,39,39487,2,0,P|408:36|459:51,1,75.0000028610231,8|0,0:0|3:0,0:0:0:0:
465,53,39724,1,0,3:0:0:0:
479,63,39803,5,4,3:2:0:0:
329,355,40119,1,2,0:0:0:0:
329,355,40277,2,0,P|375:341|419:312,1,75.0000028610231,8|0,0:3|0:0,0:0:0:0:
451,267,40592,1,2,0:0:0:0:
310,358,40750,1,8,0:0:0:0:
267,275,40908,1,2,0:0:0:0:
113,352,41066,6,0,B|48:338|65:374|2:361,2,112.500004291535,4|2|8,0:0|0:0|0:3,0:0:0:0:
192,380,41698,1,2,0:0:0:0:
56,57,41934,1,0,0:0:0:0:
56,57,42013,6,2,B|95:59|95:59|53:203,1,179.999994506836,8|0,0:0|0:0,0:3:0:0:
50,214,42309,5,6,1:0:0:0:
462,214,42455,1,8,0:0:0:0:
462,214,42747,1,4,0:0:0:0:
491,300,43086,5,6,1:0:0:0:
21,300,43243,1,8,0:0:0:0:
83,15,43480,5,2,0:0:0:0:
83,15,43580,1,6,1:0:0:0:
155,77,43737,1,2,0:0:0:0:
207,109,43816,1,0,0:0:0:0:
267,98,43895,1,8,0:0:0:0:
365,29,44053,1,0,0:0:0:0:
452,178,44211,1,2,1:0:0:0:
335,349,44369,1,2,0:1:0:0:
446,160,44530,6,0,B|387:265|387:265|395:261|395:261|327:388,1,250,4|4,1:2|1:2,1:2:0:0:
256,32,45002,5,8,0:0:0:0:
308,124,45160,1,4,3:0:0:0:
251,152,45239,1,4,3:0:0:0:
223,209,45318,1,4,3:0:0:0:
274,292,45476,1,2,1:1:0:0:
223,378,45634,1,0,1:0:0:0:
109,200,45792,1,8,0:0:0:0:
129,218,45871,1,0,0:0:0:0:
142,239,45950,1,0,0:0:0:0:
150,263,46029,1,0,0:0:0:0:
153,289,46110,6,0,B|117:288|113:294|91:341|91:346|18:343,1,150.000005722046,6|0,1:0|0:0,0:0:0:0:
221,178,46425,2,0,B|185:179|181:173|159:126|159:121|86:124,1,150.000005722046,8|0,0:0|0:0,0:0:0:0:
410,293,46741,2,0,B|374:292|370:298|348:345|348:350|275:347,1,150.000005722046,12|0,0:0|0:0,0:0:0:0:
479,126,47057,1,2,1:0:0:0:
348,71,47215,1,0,1:0:0:0:
256,360,47520,5,0,1:0:0:0:
230,316,47598,1,0,1:0:0:0:
239,266,47677,1,2,1:0:0:0:
290,175,47834,1,2,0:0:0:0:
235,381,47986,5,8,1:2:0:0:
201,318,48064,1,0,1:0:0:0:
213,247,48143,1,2,1:0:0:0:
276,98,48301,1,2,0:0:0:0:
64,247,48459,5,2,0:0:0:0:
64,247,48538,1,0,0:0:0:0:
64,247,48617,2,0,B|89:343|88:350|140:360,1,150.000005722046,6|0,1:0|0:0,0:0:0:0:
422,204,48933,2,0,B|398:300|399:307|345:317,1,150.000005722046,8|0,0:0|0:0,0:0:0:0:
88,63,49256,2,0,B|78:161|75:167|122:195,1,150.000005722046,10|0,0:0|0:0,0:0:0:0:
395,9,49572,1,2,1:0:0:0:
360,141,49730,1,0,1:0:0:0:
12,192,50046,5,10,0:0:0:0:
106,227,50203,1,4,3:0:0:0:
184,179,50369,1,2,0:0:0:0:
217,131,50447,1,0,0:0:0:0:
274,120,50526,1,6,3:0:0:0:
361,192,50683,1,0,1:0:0:0:
464,154,50841,1,2,1:0:0:0:
415,362,50999,1,2,0:0:0:0:
415,362,51078,1,0,0:0:0:0:
415,362,51164,6,0,B|381:324|380:315|441:217,1,150.000005722046,6|0,1:0|0:0,0:0:0:0:
336,30,51479,2,0,B|295:61|293:70|336:177,1,150.000005722046,8|0,0:0|0:0,0:0:0:0:
217,382,51795,2,0,B|182:343|181:334|242:236,1,150.000005722046,12|0,0:0|0:0,0:0:0:0:
64,40,52111,1,2,1:0:0:0:
118,176,52269,1,4,1:2:0:0:
476,360,53201,5,4,3:0:0:0:
476,360,53358,1,8,0:0:0:0:
416,87,53684,6,2,P|456:141|488:277,1,200,6|8,1:0|0:0,0:3:0:0:
366,372,54157,2,0,P|385:307|368:168,1,200,2|8,0:0|0:3,0:0:0:0:
206,43,54631,1,8,0:0:0:0:
223,182,54789,1,2,0:0:0:0:
351,17,54947,6,2,P|320:74|268:104,2,100,4|8|8,0:0|0:3|0:0,0:3:0:0:
260,223,55420,2,2,P|202:198|142:201,1,100,10|0,0:3|0:0,0:3:0:0:
27,59,55744,1,10,0:0:0:0:
121,36,55894,1,8,0:0:0:0:
103,273,56052,1,0,0:0:0:0:
103,273,56131,1,0,0:0:0:0:
103,273,56210,6,2,P|115:229|98:125,1,150,6|0,1:0|0:0,0:3:0:0:
92,112,56526,1,10,0:0:0:0:
66,359,56684,2,0,P|132:300|165:185,1,200,8|8,0:3|0:3,0:0:0:0:
279,50,57157,1,10,0:0:0:0:
334,217,57315,1,2,0:0:0:0:
260,148,57473,5,4,0:0:0:0:
316,214,57631,1,8,0:3:0:0:
317,309,57789,1,8,0:0:0:0:
468,293,57947,6,0,P|443:332|418:397,1,100,2|0,0:0|0:0,0:0:0:0:
230,281,58262,1,8,0:3:0:0:
249,374,58420,1,8,0:0:0:0:
477,96,58578,5,0,0:0:0:0:
477,96,58657,1,0,0:0:0:0:
477,96,58736,2,2,P|433:153|300:204,1,200,6|8,1:0|0:0,0:3:0:0:
246,99,59210,2,0,P|293:113|343:109,1,100,8|0,0:3|0:0,0:0:0:0:
73,135,59526,5,2,0:0:0:0:
106,16,59684,2,0,L|118:91,1,50,8|0,0:0|0:0,0:0:0:0:
179,155,59841,2,0,L|172:205,1,50,8|0,0:0|0:0,0:0:0:0:
197,348,59999,5,4,0:0:0:0:
97,329,60180,1,2,0:0:0:0:
212,341,60315,5,8,0:0:0:0:
306,225,60472,2,0,P|317:183|310:104,1,100,2|8,0:0|0:3,0:0:0:0:
442,355,60788,1,0,0:0:0:0:
469,251,60946,1,12,0:0:0:0:
298,308,61104,5,2,0:0:0:0:
298,308,61183,1,0,0:0:0:0:
298,308,61262,2,2,P|316:253|432:154,1,200,6|8,1:0|0:0,0:3:0:0:
295,13,61735,2,2,P|283:69|334:213,1,200,8|8,0:3|0:3,0:3:0:0:
209,347,62209,5,8,0:0:0:0:
225,262,62367,1,4,3:0:0:0:
34,33,62525,5,4,0:0:0:0:
71,31,62603,1,0,3:0:0:0:
106,41,62682,1,0,3:0:0:0:
136,64,62761,1,0,3:0:0:0:
156,96,62840,1,8,0:0:0:0:
103,277,62999,5,4,0:0:0:0:
128,260,63077,1,0,3:0:0:0:
145,236,63156,1,2,3:0:0:0:
153,208,63235,1,0,3:0:0:0:
152,178,63314,1,0,3:0:0:0:
9,120,63473,5,8,0:0:0:0:
28,111,63551,1,0,3:0:0:0:
48,109,63630,1,0,3:0:0:0:
69,114,63709,1,0,3:0:0:0:
84,126,63788,6,2,P|34:181|2:313,1,200,6|8,1:0|0:0,0:3:0:0:
170,369,64262,2,0,P|141:300|156:165,1,200,8|8,0:3|0:3,0:0:0:0:
285,27,64735,1,10,0:0:0:0:
340,215,64893,1,2,0:0:0:0:
271,134,65051,5,4,0:0:0:0:
344,204,65209,1,8,0:3:0:0:
438,159,65367,1,8,0:0:0:0:
464,353,65525,6,2,P|441:296|431:251,1,100,10|0,0:3|0:0,0:3:0:0:
366,67,65840,1,2,0:0:0:0:
477,47,65998,1,8,0:0:0:0:
289,370,66156,5,2,0:0:0:0:
289,370,66235,1,0,0:0:0:0:
289,370,66314,2,2,P|268:307|303:219,1,150,6|0,1:0|0:0,0:3:0:0:
308,213,66630,1,8,0:0:0:0:
227,28,66788,2,0,P|221:90|240:146,1,100,8|0,0:3|0:0,0:0:0:0:
148,307,67103,5,10,0:3:0:0:
0,354,67261,1,10,0:0:0:0:
160,301,67419,1,8,0:3:0:0:
66,258,67577,5,4,0:0:0:0:
174,295,67735,1,8,0:3:0:0:
243,212,67893,1,8,0:0:0:0:
30,137,68051,6,0,P|69:150|127:156,1,100,2|2,0:0|3:0,0:0:0:0:
329,23,68367,2,0,P|267:52|213:148,1,150,12|0,3:0|0:0,0:0:0:0:
218,136,68682,5,2,0:0:0:0:
261,168,68761,1,0,0:0:0:0:
310,151,68840,2,2,P|329:75|411:-23,1,200,6|8,1:0|0:0,0:3:0:0:
423,96,69315,2,0,P|402:171|426:297,1,200,8|8,0:3|0:3,0:0:0:0:
235,378,69788,5,10,0:0:0:0:
295,221,69946,1,8,0:3:0:0:
401,366,70104,6,2,P|440:336|495:328,1,100,6|0,0:0|0:0,0:3:0:0:
314,317,70420,1,8,0:0:0:0:
330,131,70578,2,2,P|302:171|295:221,1,100,14|0,0:3|0:0,0:3:0:0:
117,192,70894,2,2,P|87:152|79:104,1,100,2|8,0:0|0:0,0:3:0:0:
81,382,71209,5,2,0:0:0:0:
81,382,71288,1,0,0:0:0:0:
81,382,71367,2,2,P|148:338|203:214,1,200,6|8,1:0|0:0,0:3:0:0:
57,46,71840,5,8,3:0:0:0:
57,46,71998,2,2,P|109:80|147:150,1,139.999995727539,6|8,0:0|0:0,0:3:0:0:
351,20,72457,5,2,0:0:0:0:
351,20,72535,1,0,0:0:0:0:
351,20,72641,2,2,P|294:48|174:36,1,179.999994506836,4|8,0:0|0:0,0:3:0:0:
226,284,73114,5,0,1:0:0:0:
226,284,73193,1,0,1:0:0:0:
226,284,73272,1,2,1:0:0:0:
226,239,73350,1,0,1:0:0:0:
238,195,73429,1,0,1:0:0:0:
261,157,73508,1,0,1:0:0:0:
294,126,73587,5,8,1:2:0:0:
336,166,73667,1,0,1:0:0:0:
344,223,73746,1,4,1:3:0:0:
368,275,73825,1,10,1:3:0:0:
413,311,73904,6,2,P|347:316|232:395,1,200,6|8,1:0|0:0,0:3:0:0:
461,227,74377,2,0,P|401:198|262:209,1,200,8|8,0:3|0:3,0:0:0:0:
443,21,74851,5,10,0:0:0:0:
387,160,75009,1,0,0:0:0:0:
198,16,75167,6,2,P|268:15|380:80,1,200,4|8,0:0|0:0,0:3:0:0:
402,169,75641,1,8,0:3:0:0:
189,108,75798,2,2,P|236:93|292:40,1,100,2|0,0:0|0:0,0:3:0:0:
24,28,76114,1,8,0:0:0:0:
24,28,76193,1,0,0:0:0:0:
24,28,76272,1,0,1:0:0:0:
24,28,76351,1,0,1:0:0:0:
24,28,76430,6,0,P|56:73|66:139,2,100,6|0|8,1:0|0:0|0:0,0:0:0:0:
158,198,76904,2,2,P|107:220|66:273,1,100,8|2,0:3|0:0,0:3:0:0:
39,326,77219,1,8,0:3:0:0:
218,366,77377,2,2,P|218:317|237:271,1,100,8|0,0:0|0:0,0:3:0:0:
250,256,77614,1,0,0:0:0:0:
265,246,77693,5,6,0:0:0:0:
363,301,77880,1,0,0:0:0:0:
408,236,78009,1,8,0:0:0:0:
293,138,78166,2,0,P|326:175|379:320,1,200,8|8,0:3|0:3,0:0:0:0:
493,33,78641,1,8,0:0:0:0:
493,33,78719,1,0,0:0:0:0:
493,33,78798,1,0,1:0:0:0:
493,33,78877,1,0,1:0:0:0:
493,33,78956,6,2,P|459:116|359:183,1,200,6|8,1:0|0:0,0:3:0:0:
306,367,79429,2,2,P|271:322|224:301,1,100,8|0,0:3|0:0,0:3:0:0:
251,59,79745,1,8,0:3:0:0:
164,144,79903,2,0,P|143:111|139:76,3,50,8|0|2|0,0:0|0:0|0:0|0:0,0:0:0:0:
176,155,80219,5,6,0:0:0:0:
84,197,80377,1,2,0:0:0:0:
51,297,80534,1,10,0:0:0:0:
7,53,80692,6,2,P|23:159|128:220,1,200,4|8,0:0|0:3,0:3:0:0:
227,369,81166,1,10,0:0:0:0:
223,344,81245,1,0,0:0:0:0:
219,319,81324,1,0,1:0:0:0:
215,294,81403,1,0,1:0:0:0:
211,269,81482,6,0,L|166:368,1,100,6|0,1:0|0:0,0:0:0:0:
304,88,81798,1,12,0:0:0:0:
304,88,81956,2,0,P|341:136|497:172,1,200,8|8,0:3|0:3,0:0:0:0:
372,353,82429,5,10,0:0:0:0:
345,270,82587,1,2,0:0:0:0:
413,71,82745,5,12,0:0:0:0:
276,214,82903,1,2,0:0:0:0:
221,21,83061,5,14,0:0:0:0:
196,212,83219,2,0,P|146:244|123:315,1,100,2|0,0:0|0:0,0:0:0:0:
30,122,83534,5,0,3:0:0:0:
75,127,83613,1,0,3:0:0:0:
109,159,83692,1,8,0:0:0:0:
109,357,83850,1,0,1:0:0:0:
159,351,83929,1,0,1:0:0:0:
197,315,84008,6,2,P|127:297|39:174,1,200,6|8,1:0|0:0,0:3:0:0:
190,3,84482,2,2,P|154:94|178:190,1,200,8|8,0:3|0:3,0:3:0:0:
289,349,84956,5,8,0:0:0:0:
262,253,85113,1,2,0:0:0:0:
491,146,85271,6,2,P|429:173|346:308,1,200,4|8,0:0|0:0,0:3:0:0:
478,372,85745,2,2,P|449:319|453:264,2,100,8|2|0,0:3|0:0|0:0,0:3:0:0:
479,36,86219,1,10,0:0:0:0:
479,36,86298,1,0,0:0:0:0:
479,36,86377,1,0,1:0:0:0:
479,36,86456,1,0,1:0:0:0:
479,36,86534,6,2,P|423:56|399:88,1,100,6|0,1:0|0:0,0:3:0:0:
373,178,86850,1,8,0:0:0:0:
268,59,87008,2,2,P|308:141|333:283,1,200,8|8,0:3|0:3,0:3:0:0:
208,367,87482,6,0,P|207:334|214:308,1,50,8|0,0:0|0:0,0:0:0:0:
176,236,87640,2,0,P|186:204|201:182,1,50,8|0,0:0|0:0,0:0:0:0:
166,73,87798,5,4,0:0:0:0:
71,40,87964,1,8,0:3:0:0:
7,117,88113,1,8,0:0:0:0:
181,82,88270,2,0,P|122:92|31:196,1,200,6|8,0:0|0:3,0:0:0:0:
150,380,88744,1,8,0:0:0:0:
150,380,88823,1,0,0:0:0:0:
150,380,88902,1,0,1:0:0:0:
150,380,88981,1,0,1:0:0:0:
150,380,89061,6,2,P|115:331|124:193,1,200,6|8,1:0|0:0,0:3:0:0:
279,166,89534,2,2,P|313:214|319:289,1,100,10|0,0:3|0:0,0:3:0:0:
323,349,89850,1,8,0:3:0:0:
185,255,90008,2,2,P|175:190|194:81,1,150,8|0,0:0|0:0,0:3:0:0:
193,92,90324,5,4,0:0:0:0:
295,77,90482,1,2,0:0:0:0:
366,12,90639,1,8,0:0:0:0:
441,185,90797,2,2,P|383:114|270:67,1,200,8|0,0:3|0:0,0:3:0:0:
510,29,91249,2,2,P|475:76|426:103,1,100,12|0,0:0|0:0,0:3:0:0:
494,287,91564,6,2,P|402:277|289:324,1,200,6|8,1:0|0:0,0:3:0:0:
86,256,92037,2,2,P|176:295|240:371,1,200,4|8,0:0|0:3,0:3:0:0:
420,137,92534,5,8,0:0:0:0:
387,249,92691,1,2,0:0:0:0:
149,86,92849,6,2,P|187:125|206:180,1,100,12|0,0:0|0:0,0:3:0:0:
407,37,93164,2,0,P|357:60|321:105,1,100,8|2,0:0|0:0,0:0:0:0:
380,369,93481,5,8,0:0:0:0:
371,327,93560,1,0,0:0:0:0:
351,289,93639,1,8,0:0:0:0:
319,263,93717,1,0,0:0:0:0:
279,248,93796,2,0,P|266:309|265:368,1,100,12|0,0:0|0:0,0:0:0:0:
43,119,94112,5,4,3:0:0:0:
121,98,94270,1,0,1:0:0:0:
23,287,94427,1,12,0:0:0:0:
469,119,96006,5,4,3:0:0:0:
391,98,96164,1,0,1:0:0:0:
489,287,96322,1,12,0:0:0:0:
34,33,97269,5,0,0:0:0:0:
68,41,97348,1,0,0:0:0:0:
95,62,97427,1,4,3:0:0:0:
226,117,97585,1,4,3:0:0:0:
204,115,97664,1,4,3:0:0:0:
165,146,97782,2,0,B|157:180|157:180|170:250,1,100,2|0,0:0|0:0,0:0:0:0:
197,368,98052,5,0,1:0:0:0:
62,161,98209,1,12,0:0:0:0:
200,27,99148,6,0,L|141:40,2,50,2|0|0,0:0|0:0|0:0,0:0:0:0:
312,75,99463,2,0,L|371:88,2,50,2|0|0,0:0|0:0|0:0,0:0:0:0:
472,112,99779,5,4,3:0:0:0:
433,35,99937,1,0,1:0:0:0:
298,242,100095,1,12,0:0:0:0:
15,31,101071,5,8,0:0:0:0:
18,41,101149,1,8,0:0:0:0:
124,100,101277,1,8,0:0:0:0:
119,112,101355,1,12,0:0:0:0:
2,212,101500,1,12,0:0:0:0:
8,222,101578,1,4,0:0:0:0:
29,207,101686,5,4,1:0:0:0:
135,237,101843,1,2,0:0:0:0:
256,328,102001,6,2,B|280:312|284:312|284:316|280:316|252:56,1,250,2|0,1:0|0:0,0:3:0:0:
236,66,102238,1,8,0:0:0:0:
256,24,102317,1,0,0:0:0:0:
472,84,102475,5,8,0:0:0:0:
410,74,102554,1,4,3:0:0:0:
370,122,102633,1,2,0:1:0:0:
447,163,102791,1,8,0:0:0:0:
483,262,102949,5,2,0:0:0:0:
419,366,103091,1,4,3:0:0:0:
256,318,103258,6,2,B|232:302|228:302|228:306|232:306|257:199|260:46,1,250,6|0,1:0|0:0,0:3:0:0:
276,56,103494,1,0,0:0:0:0:
256,14,103573,1,8,0:0:0:0:
18,47,103731,5,4,3:0:0:0:
57,95,103810,1,0,0:0:0:0:
115,117,103889,1,2,0:1:0:0:
105,31,104047,1,8,0:0:0:0:
31,138,104205,5,4,0:0:0:0:
59,295,104362,1,2,0:1:0:0:
256,308,104520,6,2,B|280:292|284:292|284:296|280:296|237:218|296:161|252:36,1,250,2|4,1:0|3:0,0:3:0:0:
236,46,104757,1,8,0:0:0:0:
256,4,104836,6,0,B|281:39|286:40|451:67,1,200,4|0,3:0|0:0,0:0:0:0:
512,40,105073,2,0,B|379:123|375:126|366:168,1,200,12|0,0:0|0:0,0:0:0:0:
448,177,105310,2,0,B|474:250|475:253|465:272,1,100,6|0,0:1|0:0,0:0:0:0:
501,337,105468,5,6,0:0:0:0:
394,375,105626,1,2,0:1:0:0:
256,298,105783,6,2,B|232:282|228:282|228:286|232:286|282:214|284:183|212:151|212:136|260:26,1,250,6|0,1:0|0:0,0:3:0:0:
276,36,106020,1,8,0:0:0:0:
256,0,106099,1,2,1:0:0:0:
26,122,106257,6,0,B|29:99|33:92|103:206,1,100,6|0,1:0|0:0,0:0:0:0:
0,314,106415,2,0,B|10:329|15:332|21:235,1,100,8|0,0:0|0:0,0:0:0:0:
110,255,106573,1,8,0:0:0:0:
90,302,106652,1,8,0:0:0:0:
94,355,106723,5,4,1:0:0:0:
181,306,106880,1,4,3:0:0:0:
256,360,107038,1,8,0:0:0:0:
300,240,107196,1,0,0:0:0:0:
300,240,107275,1,8,0:0:0:0:
216,124,107433,1,8,0:0:0:0:
216,124,107512,2,2,L|160:140,1,44.999998626709,4|0,1:0|0:0,0:0:0:0:
436,20,107828,5,8,0:0:0:0:
420,88,107907,1,8,0:0:0:0:
404,156,107986,6,0,P|385:117|403:1,1,160,4|2,1:0|0:0,0:0:0:0:
336,88,108459,2,0,P|317:127|335:243,1,160,8|4,0:0|0:3,0:0:0:0:
435,251,108933,2,0,P|409:300|407:339,1,80,8|0,0:0|0:0,0:0:0:0:
250,366,109249,5,4,0:3:0:0:
250,366,109419,1,4,0:3:0:0:
174,294,109576,1,2,0:0:0:0:
105,372,109725,2,0,P|130:307|128:208,1,160,8|0,0:0|0:0,0:0:0:0:
127,209,110118,1,2,0:0:0:0:
122,202,110197,2,0,P|92:254|61:280,1,80,8|0,0:0|0:0,0:0:0:0:
6,20,110523,6,0,P|42:60|153:85,1,160,4|2,0:0|0:0,0:0:0:0:
59,153,110992,2,0,P|106:127|219:142,1,160,8|4,0:0|0:3,0:0:0:0:
221,146,111385,2,0,P|210:164|197:189,1,40,0|8,0:0|0:0,0:0:0:0:
276,286,111622,2,0,P|287:304|300:329,1,40,4|0,0:2|0:0,0:0:0:0:
303,338,111780,5,4,3:0:0:0:
382,270,111937,1,4,3:0:0:0:
341,174,112095,1,8,0:0:0:0:
425,368,112332,1,8,0:0:0:0:
425,368,112411,1,2,0:0:0:0:
492,40,112727,2,2,P|441:34|482:68,1,120,2|0,0:0|0:0,0:0:0:0:
485,74,113043,5,6,0:0:0:0:
448,170,113201,1,0,0:0:0:0:
353,214,113358,1,2,0:0:0:0:
250,194,113516,1,8,0:0:0:0:
500,95,113674,6,0,P|480:152|447:189,1,89.9999972534181,2|4,0:0|0:3,0:0:0:0:
342,229,113990,2,0,P|284:225|240:202,1,89.9999972534181,2|8,0:0|0:0,0:0:0:0:
315,74,114306,5,4,0:0:0:0:
224,24,114464,1,4,0:3:0:0:
123,51,114622,1,8,0:0:0:0:
57,133,114780,1,2,0:0:0:0:
312,48,114937,6,0,P|260:17|210:10,1,89.9999972534181,4|2,3:0|0:0,0:0:0:0:
105,47,115253,2,0,P|63:87|44:133,1,89.9999972534181,2|8,0:0|0:0,0:0:0:0:
0,250,115569,6,0,P|46:263|89:317,1,89.9999972534181,4|4,0:0|3:0,0:0:0:0:
131,366,115885,1,8,0:0:0:0:
286,267,116043,2,0,P|243:312|233:358,1,89.9999972534181,2|4,0:0|0:3,0:0:0:0:
456,327,116358,1,2,0:1:0:0:
456,327,116437,1,0,0:0:0:0:
456,327,116516,6,2,B|417:325|417:325|459:181,1,179.999994506836,8|0,0:0|0:0,0:3:0:0:
462,170,116832,5,6,1:0:0:0:
50,170,116990,1,8,0:0:0:0:
50,170,117306,1,4,0:0:0:0:
21,84,117623,5,6,1:0:0:0:
491,84,117789,1,8,0:0:0:0:
256,368,118039,5,2,0:0:0:0:
256,368,118097,1,6,1:0:0:0:
362,312,118254,1,2,0:0:0:0:
394,260,118333,1,0,0:0:0:0:
383,200,118412,1,8,0:0:0:0:
269,237,118570,1,0,0:0:0:0:
435,42,118728,1,2,1:0:0:0:
244,124,118886,1,2,0:1:0:0:
451,51,119044,6,0,B|336:88|336:88|342:81|342:81|204:124,1,250,4|4,1:2|1:2,1:2:0:0:
488,192,119518,5,8,0:0:0:0:
391,166,119676,1,4,3:0:0:0:
334,194,119755,1,4,3:0:0:0:
306,251,119834,1,4,3:0:0:0:
224,192,119992,1,2,1:1:0:0:
159,268,120150,1,0,1:0:0:0:
12,74,120307,1,8,0:0:0:0:
30,54,120386,1,0,0:0:0:0:
51,41,120465,1,0,0:0:0:0:
75,33,120544,1,0,0:0:0:0:
101,30,120623,6,0,B|93:55|154:141|144:175,1,150.000005722046,6|0,1:0|0:0,0:0:0:0:
407,71,120939,2,0,B|414:96|353:182|363:216,1,150.000005722046,8|0,0:0|0:0,0:0:0:0:
45,177,121254,2,0,B|46:203|133:263|136:298,1,150.000005722046,10|0,0:0|0:0,0:0:0:0:
470,221,121570,1,2,1:0:0:0:
379,338,121728,1,0,1:0:0:0:
256,24,122029,5,0,1:0:0:0:
282,68,122112,1,0,1:0:0:0:
273,118,122214,1,2,1:0:0:0:
222,209,122371,1,2,0:0:0:0:
232,3,122529,5,8,1:2:0:0:
191,62,122608,1,0,1:0:0:0:
209,132,122687,1,2,1:0:0:0:
276,286,122845,1,2,0:0:0:0:
449,40,122965,5,2,0:0:0:0:
449,40,123043,1,0,0:0:0:0:
449,40,123130,2,0,B|440:92|446:87|337:116,1,150.000005722046,6|0,1:0|0:0,0:0:0:0:
395,344,123445,2,0,B|385:292|391:297|282:268,1,150.000005722046,8|0,0:0|0:0,0:0:0:0:
230,11,123787,2,0,B|238:62|242:56|150:120,1,150.000005722046,10|0,0:0|0:0,0:0:0:0:
148,363,124102,1,2,1:0:0:0:
68,253,124260,1,0,1:0:0:0:
469,35,124576,5,10,0:0:0:0:
373,63,124733,1,4,3:0:0:0:
356,165,124890,1,2,0:0:0:0:
297,177,124969,1,0,0:0:0:0:
258,223,125048,1,6,3:0:0:0:
236,325,125206,1,0,1:0:0:0:
135,357,125364,1,2,1:0:0:0:
35,172,125522,1,2,0:0:0:0:
35,172,125601,1,0,0:0:0:0:
35,172,125680,6,0,B|85:174|92:180|119:292,1,150.000005722046,6|0,1:0|0:0,0:0:0:0:
394,384,125995,2,0,B|401:333|396:325|290:280,1,150.000005722046,8|0,0:0|0:0,0:0:0:0:
126,14,126311,2,0,B|178:16|185:22|211:134,1,150.000005722046,12|0,0:0|0:0,0:0:0:0:
512,156,126627,1,2,1:0:0:0:
378,98,126785,1,4,1:2:0:0:
256,356,127101,5,2,1:0:0:0:
278,308,127180,1,0,0:0:0:0:
325,285,127258,1,8,0:0:0:0:
343,369,127416,1,2,0:0:0:0:
256,226,127574,5,2,0:1:0:0:
234,178,127653,1,0,0:0:0:0:
187,155,127732,1,8,0:0:0:0:
175,242,127857,6,0,L|220:124,1,75.0000028610231,8|0,0:0|0:0,0:0:0:0:
312,131,128025,2,0,L|284:48,1,75.0000028610231,8|0,0:0|0:0,0:0:0:0:
256,308,128166,6,0,B|173:306|192:363|107:362,1,160,4|0,1:0|0:0,0:0:0:0:
37,56,129154,1,0,0:0:0:0:
37,56,129470,6,0,P|56:89|79:177,1,124.5,2|2,0:0|0:0,0:0:0:0:
22,46,130427,1,0,3:0:0:0:
256,192,130780,2,0,P|237:225|214:313,1,120,6|2,0:0|0:0,0:0:0:0:
432,364,131681,5,0,0:0:0:0:
469,302,131838,1,0,0:0:0:0:
470,229,131996,1,2,0:0:0:0:
57,57,132627,6,2,B|67:37|87:30|104:46|106:81|82:102|48:125|4:95|-8:45|38:6|84:22,1,209.999993591309,2|0,0:0|0:0,0:0:0:0:
160,147,133259,5,4,0:0:0:0:
164,133,133597,1,8,0:3:0:0:
168,119,133912,1,8,0:3:0:0:
172,105,134228,1,8,0:3:0:0:
366,228,134534,5,8,0:3:0:0:
358,200,134849,1,8,0:3:0:0:
350,172,135165,1,8,0:3:0:0:
342,145,135481,1,8,0:3:0:0:
77,348,135797,5,8,0:3:0:0:
89,302,136112,1,8,0:3:0:0:
102,257,136428,1,8,0:3:0:0:
115,213,136744,1,8,0:3:0:0:
176,357,136902,5,4,0:0:0:0:
200,278,137060,1,8,0:3:0:0:
324,320,137218,5,8,0:0:0:0:
285,146,137376,1,4,3:0:0:0:
106,177,137533,5,0,1:0:0:0:
113,153,137612,1,0,1:0:0:0:
120,129,137691,5,0,1:0:0:0:
155,144,137770,1,0,1:0:0:0:
190,159,137849,1,2,1:0:0:0:
225,174,137928,1,0,1:0:0:0:
260,189,138007,5,0,1:0:0:0:
297,156,138086,1,0,1:0:0:0:
334,124,138165,1,0,1:0:0:0:
371,92,138244,1,0,1:0:0:0:
424,46,138323,6,2,P|476:97|503:153,1,100,6|0,1:0|0:0,0:3:0:0:
496,219,138639,1,8,0:0:0:0:
359,384,138797,2,0,P|388:315|373:180,1,200,8|8,0:3|0:3,0:0:0:0:
240,30,139248,1,10,0:0:0:0:
198,235,139405,1,0,0:0:0:0:
262,139,139563,5,6,0:0:0:0:
193,217,139720,1,8,0:3:0:0:
62,21,139878,6,2,P|85:78|95:123,1,100,8|0,0:0|0:0,0:3:0:0:
109,349,140194,2,2,P|89:290|68:249,1,100,4|0,0:0|0:0,0:3:0:0:
4,179,140510,1,8,0:0:0:0:
209,376,140668,5,2,0:0:0:0:
209,376,140747,1,0,0:0:0:0:
209,376,140826,2,2,P|247:321|339:298,1,150,2|0,1:0|0:0,0:3:0:0:
343,306,141141,1,8,0:0:0:0:
512,195,141299,2,2,P|468:239|445:382,1,200,8|8,0:3|0:3,0:3:0:0:
371,76,141773,5,12,0:0:0:0:
426,249,141931,1,2,0:0:0:0:
480,114,142106,5,6,0:0:0:0:
420,238,142263,1,8,0:3:0:0:
299,169,142421,1,8,0:0:0:0:
283,375,142579,6,2,P|305:330|318:282,2,100,4|2|8,0:0|0:0|0:0,0:3:0:0:
166,60,143053,1,8,0:0:0:0:
245,107,143211,5,2,0:0:0:0:
211,146,143290,1,0,0:0:0:0:
163,152,143369,2,2,P|194:223|191:280,1,100,6|0,1:0|0:0,0:3:0:0:
161,343,143684,1,8,0:0:0:0:
91,181,143842,2,2,P|189:193|272:247,1,200,8|0,0:3|0:0,0:3:0:0:
488,30,144316,5,8,0:0:0:0:
428,187,144474,1,0,0:0:0:0:
322,42,144632,6,0,P|283:72|228:80,1,100,6|8,0:0|0:3,0:0:0:0:
411,92,144948,1,8,0:0:0:0:
138,101,145106,2,2,P|143:51|172:11,1,100,2|0,0:0|0:0,0:3:0:0:
146,215,145405,2,2,P|91:175|40:166,1,100,2|8,0:0|0:0,0:3:0:0:
43,366,145720,5,2,0:0:0:0:
43,366,145799,1,0,0:0:0:0:
43,366,145878,2,2,P|102:317|249:338,1,200,6|8,1:0|0:0,0:3:0:0:
486,249,146352,5,2,0:0:0:0:
486,249,146510,2,2,P|434:283|396:353,1,139.999995727539,4|8,0:0|0:0,0:3:0:0:
243,107,146993,5,2,0:0:0:0:
243,107,147071,1,0,0:0:0:0:
243,107,147150,2,2,P|295:141|348:249,1,179.999994506836,4|8,0:0|0:0,0:3:0:0:
493,15,147624,5,0,1:0:0:0:
493,15,147702,1,0,1:0:0:0:
493,15,147782,1,4,1:3:0:0:
454,37,147860,1,0,1:0:0:0:
422,69,147939,1,0,1:0:0:0:
400,108,148018,1,0,1:0:0:0:
388,151,148097,5,8,0:0:0:0:
346,191,148176,1,0,1:0:0:0:
294,217,148255,1,4,1:3:0:0:
235,216,148334,1,0,1:0:0:0:
183,189,148421,6,2,P|258:176|403:227,1,200,6|8,1:0|0:0,0:3:0:0:
258,269,148894,2,0,P|183:282|64:379,1,200,8|8,0:3|0:3,0:0:0:0:
13,93,149367,5,8,0:0:0:0:
69,232,149525,1,2,0:0:0:0:
275,80,149683,6,2,P|193:135|94:141,1,200,4|8,0:0|0:0,0:3:0:0:
13,75,150157,1,8,0:3:0:0:
167,121,150315,2,2,P|214:136|270:189,1,100,2|0,0:0|0:0,0:3:0:0:
477,84,150605,1,8,0:0:0:0:
426,5,150762,1,0,1:0:0:0:
426,5,150841,1,0,1:0:0:0:
426,5,150920,6,0,P|394:50|384:116,2,100,6|0|8,1:0|0:0|0:0,0:0:0:0:
503,245,151393,2,2,P|452:223|411:170,1,100,8|2,0:3|0:0,0:3:0:0:
355,358,151709,1,8,0:3:0:0:
317,175,151867,2,2,P|297:220|297:270,1,100,8|0,0:0|0:0,0:3:0:0:
301,284,152104,1,0,0:0:0:0:
308,295,152202,5,6,0:0:0:0:
192,274,152378,1,0,0:0:0:0:
123,360,152517,1,8,0:0:0:0:
20,148,152674,6,0,P|63:172|96:209,2,100,8|8|0,0:3|0:3|0:0,0:0:0:0:
302,33,153149,1,8,0:0:0:0:
302,33,153227,1,0,0:0:0:0:
302,33,153306,1,0,1:0:0:0:
302,33,153385,1,0,1:0:0:0:
302,33,153464,6,2,P|236:94|193:200,1,200,6|8,1:0|0:0,0:3:0:0:
285,370,153937,2,2,P|279:313|290:265,1,100,8|0,0:3|0:0,0:3:0:0:
501,68,154253,1,8,0:3:0:0:
417,117,154411,2,0,P|414:153|427:182,3,50,8|0|2|0,0:0|0:0|0:0|0:0,0:0:0:0:
421,99,154770,5,6,0:0:0:0:
499,211,154936,1,2,0:0:0:0:
458,284,155054,1,10,0:0:0:0:
254,86,155223,6,2,P|360:98|425:201,1,200,4|8,0:0|0:3,0:3:0:0:
233,349,155664,1,10,0:0:0:0:
229,193,155807,1,0,1:0:0:0:
210,220,155879,1,0,1:0:0:0:
222,250,155995,6,0,L|325:293,1,100,6|0,1:0|0:0,0:0:0:0:
122,123,156310,1,12,0:0:0:0:
122,123,156468,2,0,P|131:182|51:321,1,200,8|8,0:3|0:3,0:0:0:0:
193,46,156942,5,10,0:0:0:0:
276,19,157100,1,2,0:0:0:0:
432,161,157258,5,12,0:0:0:0:
256,104,157416,1,2,0:0:0:0:
142,252,157573,5,14,0:0:0:0:
300,187,157731,2,0,P|320:244|316:286,1,100,2|0,0:0|0:0,0:0:0:0:
485,299,158047,5,8,3:0:0:0:
440,304,158126,1,0,3:0:0:0:
406,336,158205,1,8,0:0:0:0:
132,176,158363,1,0,1:0:0:0:
177,181,158442,1,0,1:0:0:0:
211,213,158545,6,2,P|161:219|120:246,1,100,6|0,1:0|0:0,0:3:0:0:
86,337,158860,1,8,0:0:0:0:
289,272,159018,2,2,P|245:206|231:69,1,200,4|8,0:0|0:3,0:3:0:0:
473,99,159492,1,8,0:0:0:0:
426,209,159650,1,2,0:0:0:0:
340,0,159808,6,2,P|318:76|347:210,1,200,4|8,0:0|0:0,0:3:0:0:
470,384,160281,2,2,P|475:332|464:275,2,100,4|2|8,0:3|0:0|0:3,0:3:0:0:
289,265,160742,6,0,P|324:279|373:277,1,50,8|0,0:0|0:0,0:0:0:0:
207,357,160899,2,0,P|242:343|291:345,1,50,8|0,0:0|0:0,0:0:0:0:
172,245,161057,6,2,P|203:206|237:47,1,200,6|8,1:0|0:0,0:3:0:0:
84,70,161530,2,2,P|102:92|122:186,2,100,8|0|8,0:3|0:0|0:3,0:3:0:0:
0,27,162004,1,8,0:0:0:0:
27,230,162162,2,0,P|39:210|34:170,1,50,8|0,0:0|0:0,0:0:0:0:
28,168,162320,5,4,0:0:0:0:
28,310,162478,1,8,0:3:0:0:
149,378,162635,1,8,0:0:0:0:
182,114,162793,6,2,P|140:156|131:316,1,200,8|8,0:3|0:3,0:0:0:0:
266,382,163267,1,8,0:0:0:0:
229,347,163346,1,0,1:0:0:0:
206,304,163425,1,0,1:0:0:0:
197,255,163504,1,0,1:0:0:0:
204,205,163573,6,2,P|223:275|346:339,1,200,6|8,1:0|0:0,0:3:0:0:
317,66,164046,2,2,P|280:128|322:261,1,200,4|8,0:0|0:3,0:3:0:0:
493,47,164520,6,0,P|456:53|426:70,1,50,8|0,0:0|0:0,0:0:0:0:
375,121,164678,2,0,P|366:145|361:169,1,50,8|0,0:0|0:0,0:0:0:0:
511,53,164836,5,4,0:0:0:0:
385,110,164994,1,8,0:0:0:0:
492,303,165151,1,8,0:0:0:0:
445,321,165230,1,0,1:0:0:0:
395,318,165309,1,0,1:0:0:0:
348,300,165388,1,0,1:0:0:0:
312,265,165492,1,0,1:0:0:0:
263,168,165649,1,2,0:0:0:0:
282,333,165794,5,12,0:0:0:0:
202,275,165951,1,0,0:0:0:0:
132,351,166095,6,0,L|22:337,1,100,6|0,1:0|0:0,0:0:0:0:
139,362,166434,1,8,0:0:0:0:
27,324,166568,1,4,0:3:0:0:
141,203,166725,2,0,L|62:108,1,119.999996337891,8|0,0:0|0:0,0:0:0:0:
6,38,167051,1,2,0:0:0:0:
261,155,167208,6,8,B|240:54|240:54|109:25,1,200,6|2,1:0|0:0,0:3:0:0:
294,277,167523,6,2,B|244:363|244:363|133:343,1,209.999993591309,2|4,1:0|3:0,0:3:0:0:
398,184,167839,5,0,1:0:0:0:
449,133,167918,1,0,1:0:0:0:
438,63,167997,1,2,1:0:0:0:
320,203,168155,5,2,0:0:0:0:
370,353,168313,1,4,3:0:0:0:
473,226,168471,1,8,0:3:0:0:
327,83,168642,6,2,P|383:165|389:264,1,200,6|8,1:0|0:0,0:3:0:0:
389,263,169115,1,2,0:3:0:0:
228,244,169273,5,2,0:0:0:0:
245,338,169431,1,8,0:3:0:0:
9,321,169589,2,0,P|82:343|156:305,1,150,8|0,0:0|0:0,0:0:0:0:
157,304,169905,5,4,0:0:0:0:
151,199,170063,1,2,0:0:0:0:
52,166,170220,1,8,0:0:0:0:
299,25,170391,2,2,P|253:76|113:100,1,200,8|8,0:3|0:3,0:3:0:0:
277,115,170832,6,0,P|324:114|348:102,1,50,8|0,0:0|0:0,0:0:0:0:
387,45,170989,2,0,P|420:77|446:86,1,50,8|0,0:0|0:0,0:0:0:0:
508,31,171147,6,2,P|472:94|446:248,1,200,6|8,1:0|0:0,0:3:0:0:
427,384,171620,2,2,P|391:321|365:167,1,200,8|8,0:3|0:3,0:3:0:0:
215,368,172094,5,8,0:0:0:0:
356,327,172252,1,8,0:3:0:0:
180,167,172410,6,2,P|230:207|271:306,1,150,4|0,0:0|0:0,0:3:0:0:
271,303,172725,1,8,0:0:0:0:
47,384,172883,2,2,P|85:327|85:193,1,200,8|0,0:0|0:0,0:0:0:0:
214,16,173358,1,8,0:0:0:0:
214,16,173437,1,0,0:0:0:0:
214,16,173516,1,2,0:0:0:0:
214,16,173594,1,0,0:0:0:0:
214,16,173682,6,2,P|168:59|28:72,1,200,6|8,1:0|0:0,0:3:0:0:
183,100,174155,2,2,P|220:114|270:185,1,100,8|0,0:3|0:0,0:3:0:0:
297,246,174471,1,8,0:3:0:0:
425,35,174629,2,0,P|388:44|369:62,3,50,8|0|0|0,0:0|0:0|0:0|0:0,0:0:0:0:
447,33,174945,5,4,0:0:0:0:
392,157,175103,1,8,0:3:0:0:
477,262,175260,1,8,0:0:0:0:
269,375,175418,2,2,P|297:309|414:237,1,200,4|8,0:0|0:3,0:3:0:0:
164,161,175892,1,8,0:0:0:0:
247,225,176050,1,0,1:0:0:0:
247,225,176129,1,0,1:0:0:0:
247,225,176208,6,2,L|261:120,1,100,6|0,1:0|0:0,0:3:0:0:
393,353,176524,1,8,0:0:0:0:
179,280,176682,2,0,P|130:227|-4:199,1,200,8|8,0:3|0:3,0:0:0:0:
115,370,177155,2,2,P|101:321|61:282,1,100,8|0,0:0|0:0,0:3:0:0:
170,26,177471,5,4,0:0:0:0:
116,194,177629,1,2,0:0:0:0:
357,151,177803,5,8,0:0:0:0:
343,160,177881,1,0,3:0:0:0:
330,165,177960,1,0,3:0:0:0:
315,167,178039,1,0,3:0:0:0:
300,167,178118,1,4,3:0:0:0:
194,124,178276,1,8,0:3:0:0:
435,227,178434,5,8,0:0:0:0:
402,255,178513,1,0,1:0:0:0:
369,273,178592,1,0,1:0:0:0:
331,284,178671,1,0,1:0:0:0:
289,288,178750,6,2,P|335:311|403:309,1,100,6|0,1:0|0:0,0:3:0:0:
470,308,179065,1,8,0:0:0:0:
253,364,179223,2,2,P|301:314|328:168,1,200,4|8,0:0|0:3,0:3:0:0:
453,24,179697,5,8,0:0:0:0:
475,126,179855,1,2,0:0:0:0:
272,79,180013,6,0,P|318:98|392:78,2,100,4|0|8,0:0|0:0|0:0,0:0:0:0:
205,272,180486,2,2,P|212:195|147:76,1,200,8|0,0:3|0:0,0:3:0:0:
135,311,180960,1,8,0:0:0:0:
233,190,181118,1,8,0:0:0:0:
13,95,181276,6,2,P|60:109|134:244,1,200,6|8,1:0|0:0,0:3:0:0:
36,376,181750,2,2,P|18:322|36:261,2,100,8|0|8,0:3|0:0|0:3,0:3:0:0:
208,288,182223,2,0,P|224:241|217:193,1,100,8|0,0:0|0:0,0:0:0:0:
401,26,182562,5,4,0:0:0:0:
294,50,182719,1,2,0:0:0:0:
386,16,182877,5,8,0:0:0:0:
330,210,183035,2,0,P|380:158|508:139,1,200,2|8,0:0|0:3,0:0:0:0:
428,365,183510,1,8,0:0:0:0:
428,365,183589,1,0,1:0:0:0:
428,365,183668,1,0,1:0:0:0:
428,365,183746,1,0,1:0:0:0:
428,365,183815,6,2,P|448:310|445:252,2,100,6|0|8,1:0|0:0|0:0,0:3:0:0:
494,141,184288,2,2,P|463:204|327:244,1,200,4|8,0:0|0:3,0:3:0:0:
409,17,184762,2,0,P|410:82|355:158,1,150,8|0,0:0|0:0,0:0:0:0:
349,155,185078,5,4,0:0:0:0:
253,39,185236,1,2,0:0:0:0:
232,245,185393,2,0,P|235:186|250:130,1,100,8|0,0:0|0:0,0:0:0:0:
136,362,185709,2,0,P|133:303|118:247,1,100,8|0,0:3|0:0,0:0:0:0:
11,66,186005,5,8,0:0:0:0:
34,153,186162,1,2,0:0:0:0:
280,15,186320,5,6,1:0:0:0:
214,60,186478,1,0,0:0:0:0:
184,134,186636,1,8,0:0:0:0:
194,212,186794,1,8,0:3:0:0:
320,91,186952,5,2,0:0:0:0:
302,190,187136,1,8,0:3:0:0:
343,283,187293,1,8,0:0:0:0:
423,342,187450,1,2,0:0:0:0:
487,94,187608,5,4,1:2:0:0:
408,222,187766,1,0,1:0:0:0:
254,276,187897,1,8,1:2:0:0:
28,46,188168,5,2,0:0:0:0:
28,46,188246,2,0,P|71:80|127:82,1,100,8|0,0:3|0:0,0:0:0:0:
137,343,188544,2,0,P|165:296|267:280,1,150.000005722046,8|0,0:0|0:0,0:0:0:0:
351,134,188851,5,8,0:0:0:0:
161,250,189008,1,8,0:0:0:0:
386,165,190114,5,8,0:0:0:0:
125,218,190272,1,8,0:0:0:0:
414,215,191377,5,8,0:0:0:0:
97,168,191535,1,8,0:0:0:0:
424,284,192640,5,8,0:0:0:0:
87,99,192798,1,8,0:0:0:0:
256,192,193272,5,0,0:0:0:0:
256,192,193429,5,0,1:0:0:0:
267,169,193508,1,0,1:0:0:0:
278,146,193587,5,0,1:0:0:0:
254,113,193666,1,0,1:0:0:0:
231,80,193745,5,0,1:0:0:0:
265,43,193824,1,0,1:0:0:0:
299,6,193885,5,4,1:0:0:0:
380,22,194049,1,0,0:0:0:0:
358,121,194213,6,0,L|463:107,1,85.0000016212464,8|0,0:3|0:0,0:0:0:0:
327,213,194528,2,0,L|432:199,2,85.0000016212464,8|0|8,0:3|0:0|0:3,0:0:0:0:
290,291,195002,1,0,0:0:0:0:
451,355,195160,6,0,L|282:377,1,170.000003242493,4|8,0:0|0:3,0:0:0:0:
189,344,195633,1,2,0:0:0:0:
189,344,195953,1,2,0:0:0:0:
39,30,196411,5,4,0:0:0:0:
114,56,196568,1,0,0:0:0:0:
79,151,196726,6,0,L|184:137,1,85.0000016212464,8|0,0:3|0:0,0:0:0:0:
113,229,197042,2,4,L|8:243,2,85.0000016212464,12|2|12,0:3|0:0|0:3,0:0:0:0:
213,243,197516,1,0,0:0:0:0:
88,331,197690,6,2,B|137:335|137:335|204:353|204:353|256:360,1,170.000003242493,6|8,1:0|0:3,0:3:0:0:
222,262,198163,2,2,B|271:258|271:258|338:240|338:240|390:233,2,170.000003242493,6|2|2,3:0|0:0|0:0,0:3:0:0:
69,197,198953,6,0,B|51:168|51:168|50:138|50:138|66:106|66:106|93:86|93:86|135:81,1,170.000003242493,4|8,1:0|0:3,0:0:0:0:
211,18,199426,2,0,B|204:51|204:51|213:79|213:79|239:103|239:103|271:113|271:113|312:103,1,170.000003242493,2|0,0:0|0:0,0:0:0:0:
386,38,199900,1,8,0:3:0:0:
482,283,200216,6,0,L|498:191,2,85.0000016212464,4|2|8,0:0|0:0|0:3,0:0:0:0:
463,367,200690,1,8,0:3:0:0:
256,192,201163,6,4,B|248:168|264:40|256:8,2,170.000003242493
256,368,202268,1,4,0:0:0:0:
256,368,202742,1,4,0:0:0:0:
256,192,202821,12,2,203689,1:0:0:0:
84,336,204005,6,0,P|42:284|40:208,1,134.999995880127,4|0,1:0|0:0,0:0:0:0:
44,196,204321,1,8,0:3:0:0:
212,105,204479,2,0,P|160:145|122:271,1,179.999994506836,2|0,0:0|0:0,0:0:0:0:
251,379,204953,1,8,0:3:0:0:
230,280,205111,1,2,0:0:0:0:
419,338,205269,6,0,P|402:325|319:312,1,89.9999972534181,4|0,0:0|0:0,0:0:0:0:
240,364,205584,1,8,0:3:0:0:
409,244,205742,2,0,P|438:160|441:70,1,179.999994506836,2|2,0:0|0:0,0:0:0:0:
249,143,206216,2,0,L|258:193,3,44.999998626709,8|0|0|0,0:3|0:0|0:0|0:0,0:0:0:0:
244,126,206532,6,0,P|199:117|143:139,1,89.9999972534181,6|0,0:0|0:0,0:0:0:0:
98,198,206848,1,4,0:3:0:0:
45,8,207005,2,0,P|15:54|8:196,1,179.999994506836,2|0,0:0|0:0,0:0:0:0:
37,267,207468,1,8,0:3:0:0:
219,372,207625,1,2,0:0:0:0:
219,372,207704,1,0,0:0:0:0:
219,372,207783,6,0,P|194:326|185:231,1,134.999995880127,4|0,0:0|0:0,0:0:0:0:
186,224,208098,1,8,0:3:0:0:
296,72,208256,2,0,P|272:111|264:156,1,89.9999972534181,2|8,0:0|0:3,0:0:0:0:
287,245,208584,1,0,0:0:0:0:
479,60,208742,6,0,P|437:69|361:159,1,150,4|0,0:0|0:0,0:0:0:0:
366,144,209058,6,0,P|406:102|437:112,2,75.0000028610231,2|0|0,1:0|0:0|0:0,0:0:0:0:
493,157,209373,1,8,3:0:0:0:
244,130,209531,6,0,P|242:72|271:57,2,75.0000028610231,2|0|4,1:0|0:0|3:0,0:0:0:0:
327,26,209847,1,2,0:0:0:0:
153,197,210005,6,0,P|111:157|120:126,2,75.0000028610231,2|0|0,1:0|0:0|0:0,0:0:0:0:
139,65,210321,1,6,0:0:0:0:
143,315,210479,6,0,P|85:316|70:287,2,75.0000028610231,2|0|8,1:0|0:0|3:0,0:0:0:0:
39,231,210794,1,2,0:0:0:0:
373,185,210952,6,0,P|305:205|212:279,1,150.000005722046,6|0,1:0|0:0,0:0:0:0:
224,269,211268,1,4,3:0:0:0:
422,362,211426,6,0,L|496:356,1,75.0000028610231,6|0,1:0|0:0,0:0:0:0:
452,274,211584,5,8,1:3:0:0:
454,259,211663,1,0,1:0:0:0:
456,244,211742,1,0,1:0:0:0:
458,229,211821,1,0,1:0:0:0:
479,223,211900,5,8,1:3:0:0:
472,201,211979,1,0,1:0:0:0:
464,179,212058,1,0,1:0:0:0:
457,157,212137,1,0,1:0:0:0:
436,140,212216,5,8,1:3:0:0:
445,115,212295,1,0,1:0:0:0:
456,91,212374,1,0,1:0:0:0:
468,68,212453,1,0,1:0:0:0:
480,44,212532,5,8,1:3:0:0:
451,54,212611,1,0,1:0:0:0:
423,66,212690,1,0,1:0:0:0:
395,78,212769,1,0,1:0:0:0:
371,59,212848,5,8,1:3:0:0:
336,73,212926,1,0,1:0:0:0:
309,99,213005,1,0,1:0:0:0:
296,134,213084,1,0,1:0:0:0:
299,171,213163,5,8,1:3:0:0:
311,206,213242,1,0,1:0:0:0:
323,241,213321,1,0,1:0:0:0:
321,278,213400,1,0,1:0:0:0:
309,313,213479,5,0,1:0:0:0:
261,290,213558,1,0,1:0:0:0:
208,291,213637,1,0,1:0:0:0:
162,316,213715,1,0,1:0:0:0:
135,361,213819,5,0,1:0:0:0:
154,304,213897,1,0,1:0:0:0:
139,238,213976,1,0,1:0:0:0:
91,180,214055,1,0,1:0:0:0:
83,174,214134,5,0,2:0:0:0:
