osu file format v14

[General]
AudioFilename: audio.mp3
AudioLeadIn: 0
PreviewTime: 143941
Countdown: 0
SampleSet: Soft
StackLeniency: 0.4
Mode: 0
LetterboxInBreaks: 0
EpilepsyWarning: 1
WidescreenStoryboard: 1

[Editor]
Bookmarks: 510,3753,17537,24023,36996,43482,48347,53212,59699,66185,72672,79158,85645,98618,111591,118077,131050,144023,156996,169969,176455,182942,195915,208888,215374,221861,228347,241320,244564
DistanceSpacing: 1.1
BeatDivisor: 4
GridSize: 32
TimelineZoom: 1.499999

[Metadata]
Title:Fantastic Magic
TitleUnicode:Fantastic Magic
Artist:TK from Ling tosite sigure
ArtistUnicode:TK from 凛として時雨
Creator:Ametrin
Version:Slow Motion
Source:ニンジャスレイヤー
Tags:Ninja Slayer Ending Full ver. sahuang My Angel Azusa
BeatmapID:1474641
BeatmapSetID:696085

[Difficulty]
HPDrainRate:5.5
CircleSize:4
OverallDifficulty:7.5
ApproachRate:9
SliderMultiplier:3
SliderTickRate:1

[Events]
//Background and Video events
0,0,"BG.jpg",0,0
//Break Periods
2,3964,6212
2,10461,12685
2,17735,19968
2,59903,65379
//Storyboard Layer 0 (Background)
//Storyboard Layer 1 (Fail)
//Storyboard Layer 2 (Pass)
//Storyboard Layer 3 (Foreground)
Sprite,Foreground,Centre,"sb\highlight.png",320,240 M,0,85664,85714,309,60,349,104 F,0,85664,97827,0.6 R,0,85664,98637,1.5708 C,0,85664,98637,255,153,204 V,0,85664,98637,1.5,0.8 P,0,85664,98637,A M,0,85714,85765,349,104,402,130 M,0,85765,85816,402,130,461,135 M,0,85816,85866,461,135,519,119 M,0,85866,86070,519,119,575,63 M,0,86070,86103,575,63,549,94 M,0,86103,86137,549,94,529,128 M,0,86137,86171,529,128,513,165 M,0,86171,86205,513,165,502,203 M,0,86205,86238,502,203,496,243 M,0,86238,86272,496,243,496,282 M,0,86272,86374,496,282,566,413 M,0,86374,86475,566,413,580,397 M,0,86475,86508,580,397,546,374 M,0,86508,86542,546,374,508,377 M,0,86542,86576,508,377,468,384 M,0,86576,86678,468,384,284,404 M,0,86678,86779,284,404,273,424 M,0,86779,86812,273,424,309,438 M,0,86812,86846,309,438,348,430 M,0,86846,86880,348,430,374,401 M,0,86880,86914,374,401,380,362 M,0,86914,86947,380,362,363,327 M,0,86947,86981,363,327,329,307 M,0,86981,87083,329,307,141,201 M,0,87083,87185,141,201,159,188 M,0,87185,87286,159,188,69,197 M,0,87286,87319,69,197,108,195 M,0,87319,87353,108,195,148,193 M,0,87353,87387,148,193,188,189 M,0,87387,87421,188,189,228,183 M,0,87421,87454,228,183,267,176 M,0,87454,87488,267,176,306,168 M,0,87488,87692,306,168,477,308 M,0,87692,87725,477,308,438,297 M,0,87725,87759,438,297,399,289 M,0,87759,87793,399,289,359,284 M,0,87793,87827,359,284,319,281 M,0,87827,87860,319,281,279,282 M,0,87860,87894,279,282,239,284 M,0,87894,87996,239,284,418,114 M,0,87996,88097,418,114,428,135 M,0,88097,88130,428,135,433,174 M,0,88130,88164,433,174,426,213 M,0,88164,88198,426,213,408,249 M,0,88198,88300,408,249,187,371 M,0,88300,88401,187,371,200,351 M,0,88401,88434,200,351,220,316 M,0,88434,88468,220,316,241,284 M,0,88468,88502,241,284,279,297 M,0,88502,88536,279,297,317,309 M,0,88536,88569,317,309,316,322 M,0,88569,88603,316,322,278,335 M,0,88603,88705,278,335,541,372 M,0,88705,88806,541,372,533,352 M,0,88806,88908,533,352,540,444 M,0,88908,88941,540,444,537,404 M,0,88941,88975,537,404,535,364 M,0,88975,89009,535,364,533,324 M,0,89009,89043,533,324,531,284 M,0,89043,89076,531,284,529,244 M,0,89076,89110,529,244,527,204 M,0,89110,89313,527,204,351,343 M,0,89313,89516,351,343,368,104 M,0,89516,89617,368,104,566,98 M,0,89617,89719,566,98,580,80 M,0,89719,89752,580,80,544,62 M,0,89752,89786,544,62,504,61 M,0,89786,89820,504,61,468,76 M,0,89820,89921,468,76,322,268 M,0,89921,90023,322,268,313,290 M,0,90023,90056,313,290,336,322 M,0,90056,90090,336,322,357,329 M,0,90090,90124,357,329,376,294 M,0,90124,90158,376,294,390,259 M,0,90158,90191,390,259,370,224 M,0,90191,90225,370,224,350,189 M,0,90225,90327,350,189,203,122 M,0,90327,90428,203,122,220,136 M,0,90428,90529,220,136,131,121 M,0,90529,90562,131,121,170,126 M,0,90562,90596,170,126,210,129 M,0,90596,90630,210,129,250,128 M,0,90630,90664,250,128,290,123 M,0,90664,90697,290,123,329,115 M,0,90697,90731,329,115,367,103 M,0,90731,90833,367,103,513,96 M,0,90833,90935,513,96,500,79 M,0,90935,90968,500,79,483,115 M,0,90968,91002,483,115,485,151 M,0,91002,91036,485,151,503,187 M,0,91036,91137,503,187,503,376 M,0,91137,91170,503,376,540,379 M,0,91170,91204,540,379,520,344 M,0,91204,91238,520,344,500,310 M,0,91238,91340,500,310,351,218 M,0,91340,91373,351,218,311,216 M,0,91373,91407,311,216,271,221 M,0,91407,91441,271,221,233,233 M,0,91441,91475,233,233,198,252 M,0,91475,91508,198,252,222,228 M,0,91508,91542,222,228,237,191 M,0,91542,91644,237,191,104,66 M,0,91644,91746,104,66,96,89 M,0,91746,91779,96,89,107,127 M,0,91779,91813,107,127,124,158 M,0,91813,91847,124,158,88,142 M,0,91847,91948,88,142,206,306 M,0,91948,91981,206,306,211,266 M,0,91981,92015,211,266,221,227 M,0,92015,92049,221,227,237,190 M,0,92049,92151,237,190,365,117 M,0,92151,92184,365,117,368,156 M,0,92184,92218,368,156,373,196 M,0,92218,92252,373,196,380,235 M,0,92252,92286,380,235,387,275 M,0,92286,92319,387,275,396,314 M,0,92319,92353,396,314,407,352 M,0,92353,92556,407,352,526,437 M,0,92556,92589,526,437,541,400 M,0,92589,92623,541,400,536,361 M,0,92623,92657,536,361,511,330 M,0,92657,92691,511,330,474,317 M,0,92691,92724,474,317,435,325 M,0,92724,92758,435,325,407,352 M,0,92758,92860,407,352,530,224 M,0,92860,92962,530,224,555,215 M,0,92962,92995,555,215,568,177 M,0,92995,93029,568,177,574,137 M,0,93029,93063,574,137,572,97 M,0,93063,93164,572,97,311,60 M,0,93164,93266,311,60,296,78 M,0,93266,93299,296,78,267,106 M,0,93299,93333,267,106,269,126 M,0,93333,93367,269,126,307,136 M,0,93367,93401,307,136,337,162 M,0,93401,93434,337,162,356,156 M,0,93434,93468,356,156,365,117 M,0,93468,93570,365,117,188,201 M,0,93570,93671,188,201,202,217 M,0,93671,93773,202,217,118,193 M,0,93773,93806,118,193,157,201 M,0,93806,93840,157,201,196,210 M,0,93840,93874,196,210,235,219 M,0,93874,93908,235,219,271,233 M,0,93908,93941,271,233,301,259 M,0,93941,93975,301,259,332,285 M,0,93975,94178,332,285,68,421 M,0,94178,94211,68,421,69,381 M,0,94211,94245,69,381,70,341 M,0,94245,94279,70,341,72,301 M,0,94279,94313,72,301,78,262 M,0,94313,94346,78,262,98,228 M,0,94346,94380,98,228,118,193 M,0,94380,94482,118,193,184,68 M,0,94482,94583,184,68,202,84 M,0,94583,94616,202,84,163,92 M,0,94616,94650,163,92,124,84 M,0,94650,94684,124,84,92,61 M,0,94684,94786,92,61,73,281 M,0,94786,94887,73,281,90,268 M,0,94887,94920,90,268,125,248 M,0,94920,94954,125,248,163,238 M,0,94954,94988,163,238,203,237 M,0,94988,95022,203,237,242,244 M,0,95022,95055,242,244,214,230 M,0,95055,95089,214,230,188,201 M,0,95089,95191,188,201,347,188 M,0,95191,95293,347,188,344,211 M,0,95293,95394,344,211,291,143 M,0,95394,95427,291,143,321,168 M,0,95427,95461,321,168,343,201 M,0,95461,95495,343,201,352,240 M,0,95495,95529,352,240,348,280 M,0,95529,95562,348,280,331,316 M,0,95562,95596,331,316,303,345 M,0,95596,95800,303,345,555,443 M,0,95800,95833,555,443,524,417 M,0,95833,95867,524,417,502,384 M,0,95867,95901,502,384,493,345 M,0,95901,95935,493,345,497,305 M,0,95935,95968,497,305,514,269 M,0,95968,96002,514,269,542,241 M,0,96002,96104,542,241,567,131 M,0,96104,96205,567,131,580,149 M,0,96205,96238,580,149,541,158 M,0,96238,96272,541,158,501,159 M,0,96272,96306,501,159,462,151 M,0,96306,96408,462,151,280,96 M,0,96408,96509,280,96,264,81 M,0,96509,96542,264,81,300,65 M,0,96542,96576,300,65,338,72 M,0,96576,96610,338,72,365,101 M,0,96610,96644,365,101,372,139 M,0,96644,96677,372,139,354,175 M,0,96677,96711,354,175,320,194 M,0,96711,96813,320,194,170,313 M,0,96813,96914,170,313,179,293 M,0,96914,97016,179,293,170,385 M,0,97016,97049,170,385,172,345 M,0,97049,97083,172,345,175,305 M,0,97083,97117,175,305,178,265 M,0,97117,97151,178,265,181,225 M,0,97151,97184,181,225,183,185 M,0,97184,97218,183,185,186,145 M,0,97218,97320,186,145,91,77 M,0,97320,97421,91,77,74,62 M,0,97421,97446,74,62,75,91 M,0,97446,97471,75,91,75,121 M,0,97471,97497,75,121,84,149 M,0,97497,97522,84,149,87,179 M,0,97522,97624,87,179,299,320 M,0,97624,97649,299,320,298,290 M,0,97649,97674,298,290,298,260 M,0,97674,97700,298,260,289,232 M,0,97700,97725,289,232,285,202 M,0,97725,97827,285,202,72,283 M,0,97827,97860,72,283,111,275 F,0,97827,98232,0.6,0 M,0,97860,97894,111,275,151,272 M,0,97894,97928,151,272,190,274 M,0,97928,98029,190,274,300,93 M,0,98029,98062,300,93,260,100 M,0,98062,98096,260,100,220,103 M,0,98096,98130,220,103,181,101 M,0,98130,98232,181,101,432,222 M,0,98232,98333,432,222,481,234 M,0,98333,98435,481,234,488,185 M,0,98435,98536,488,185,438,178 M,0,98536,98637,438,178,460,205
Sprite,Foreground,Centre,"sb\highlight.png",320,240 M,0,85664,85714,309,60,349,104 F,0,85664,97827,0.6 C,0,85664,98637,255,153,204 V,0,85664,98637,1.8,0.8 P,0,85664,98637,A M,0,85714,85765,349,104,402,130 M,0,85765,85816,402,130,461,135 M,0,85816,85866,461,135,519,119 M,0,85866,86070,519,119,575,63 M,0,86070,86103,575,63,549,94 M,0,86103,86137,549,94,529,128 M,0,86137,86171,529,128,513,165 M,0,86171,86205,513,165,502,203 M,0,86205,86238,502,203,496,243 M,0,86238,86272,496,243,496,282 M,0,86272,86374,496,282,566,413 M,0,86374,86475,566,413,580,397 M,0,86475,86508,580,397,546,374 M,0,86508,86542,546,374,508,377 M,0,86542,86576,508,377,468,384 M,0,86576,86678,468,384,284,404 M,0,86678,86779,284,404,273,424 M,0,86779,86812,273,424,309,438 M,0,86812,86846,309,438,348,430 M,0,86846,86880,348,430,374,401 M,0,86880,86914,374,401,380,362 M,0,86914,86947,380,362,363,327 M,0,86947,86981,363,327,329,307 M,0,86981,87083,329,307,141,201 M,0,87083,87185,141,201,159,188 M,0,87185,87286,159,188,69,197 M,0,87286,87319,69,197,108,195 M,0,87319,87353,108,195,148,193 M,0,87353,87387,148,193,188,189 M,0,87387,87421,188,189,228,183 M,0,87421,87454,228,183,267,176 M,0,87454,87488,267,176,306,168 M,0,87488,87692,306,168,477,308 M,0,87692,87725,477,308,438,297 M,0,87725,87759,438,297,399,289 M,0,87759,87793,399,289,359,284 M,0,87793,87827,359,284,319,281 M,0,87827,87860,319,281,279,282 M,0,87860,87894,279,282,239,284 M,0,87894,87996,239,284,418,114 M,0,87996,88097,418,114,428,135 M,0,88097,88130,428,135,433,174 M,0,88130,88164,433,174,426,213 M,0,88164,88198,426,213,408,249 M,0,88198,88300,408,249,187,371 M,0,88300,88401,187,371,200,351 M,0,88401,88434,200,351,220,316 M,0,88434,88468,220,316,241,284 M,0,88468,88502,241,284,279,297 M,0,88502,88536,279,297,317,309 M,0,88536,88569,317,309,316,322 M,0,88569,88603,316,322,278,335 M,0,88603,88705,278,335,541,372 M,0,88705,88806,541,372,533,352 M,0,88806,88908,533,352,540,444 M,0,88908,88941,540,444,537,404 M,0,88941,88975,537,404,535,364 M,0,88975,89009,535,364,533,324 M,0,89009,89043,533,324,531,284 M,0,89043,89076,531,284,529,244 M,0,89076,89110,529,244,527,204 M,0,89110,89313,527,204,351,343 M,0,89313,89516,351,343,368,104 M,0,89516,89617,368,104,566,98 M,0,89617,89719,566,98,580,80 M,0,89719,89752,580,80,544,62 M,0,89752,89786,544,62,504,61 M,0,89786,89820,504,61,468,76 M,0,89820,89921,468,76,322,268 M,0,89921,90023,322,268,313,290 M,0,90023,90056,313,290,336,322 M,0,90056,90090,336,322,357,329 M,0,90090,90124,357,329,376,294 M,0,90124,90158,376,294,390,259 M,0,90158,90191,390,259,370,224 M,0,90191,90225,370,224,350,189 M,0,90225,90327,350,189,203,122 M,0,90327,90428,203,122,220,136 M,0,90428,90529,220,136,131,121 M,0,90529,90562,131,121,170,126 M,0,90562,90596,170,126,210,129 M,0,90596,90630,210,129,250,128 M,0,90630,90664,250,128,290,123 M,0,90664,90697,290,123,329,115 M,0,90697,90731,329,115,367,103 M,0,90731,90833,367,103,513,96 M,0,90833,90935,513,96,500,79 M,0,90935,90968,500,79,483,115 M,0,90968,91002,483,115,485,151 M,0,91002,91036,485,151,503,187 M,0,91036,91137,503,187,503,376 M,0,91137,91170,503,376,540,379 M,0,91170,91204,540,379,520,344 M,0,91204,91238,520,344,500,310 M,0,91238,91340,500,310,351,218 M,0,91340,91373,351,218,311,216 M,0,91373,91407,311,216,271,221 M,0,91407,91441,271,221,233,233 M,0,91441,91475,233,233,198,252 M,0,91475,91508,198,252,222,228 M,0,91508,91542,222,228,237,191 M,0,91542,91644,237,191,104,66 M,0,91644,91746,104,66,96,89 M,0,91746,91779,96,89,107,127 M,0,91779,91813,107,127,124,158 M,0,91813,91847,124,158,88,142 M,0,91847,91948,88,142,206,306 M,0,91948,91981,206,306,211,266 M,0,91981,92015,211,266,221,227 M,0,92015,92049,221,227,237,190 M,0,92049,92151,237,190,365,117 M,0,92151,92184,365,117,368,156 M,0,92184,92218,368,156,373,196 M,0,92218,92252,373,196,380,235 M,0,92252,92286,380,235,387,275 M,0,92286,92319,387,275,396,314 M,0,92319,92353,396,314,407,352 M,0,92353,92556,407,352,526,437 M,0,92556,92589,526,437,541,400 M,0,92589,92623,541,400,536,361 M,0,92623,92657,536,361,511,330 M,0,92657,92691,511,330,474,317 M,0,92691,92724,474,317,435,325 M,0,92724,92758,435,325,407,352 M,0,92758,92860,407,352,530,224 M,0,92860,92962,530,224,555,215 M,0,92962,92995,555,215,568,177 M,0,92995,93029,568,177,574,137 M,0,93029,93063,574,137,572,97 M,0,93063,93164,572,97,311,60 M,0,93164,93266,311,60,296,78 M,0,93266,93299,296,78,267,106 M,0,93299,93333,267,106,269,126 M,0,93333,93367,269,126,307,136 M,0,93367,93401,307,136,337,162 M,0,93401,93434,337,162,356,156 M,0,93434,93468,356,156,365,117 M,0,93468,93570,365,117,188,201 M,0,93570,93671,188,201,202,217 M,0,93671,93773,202,217,118,193 M,0,93773,93806,118,193,157,201 M,0,93806,93840,157,201,196,210 M,0,93840,93874,196,210,235,219 M,0,93874,93908,235,219,271,233 M,0,93908,93941,271,233,301,259 M,0,93941,93975,301,259,332,285 M,0,93975,94178,332,285,68,421 M,0,94178,94211,68,421,69,381 M,0,94211,94245,69,381,70,341 M,0,94245,94279,70,341,72,301 M,0,94279,94313,72,301,78,262 M,0,94313,94346,78,262,98,228 M,0,94346,94380,98,228,118,193 M,0,94380,94482,118,193,184,68 M,0,94482,94583,184,68,202,84 M,0,94583,94616,202,84,163,92 M,0,94616,94650,163,92,124,84 M,0,94650,94684,124,84,92,61 M,0,94684,94786,92,61,73,281 M,0,94786,94887,73,281,90,268 M,0,94887,94920,90,268,125,248 M,0,94920,94954,125,248,163,238 M,0,94954,94988,163,238,203,237 M,0,94988,95022,203,237,242,244 M,0,95022,95055,242,244,214,230 M,0,95055,95089,214,230,188,201 M,0,95089,95191,188,201,347,188 M,0,95191,95293,347,188,344,211 M,0,95293,95394,344,211,291,143 M,0,95394,95427,291,143,321,168 M,0,95427,95461,321,168,343,201 M,0,95461,95495,343,201,352,240 M,0,95495,95529,352,240,348,280 M,0,95529,95562,348,280,331,316 M,0,95562,95596,331,316,303,345 M,0,95596,95800,303,345,555,443 M,0,95800,95833,555,443,524,417 M,0,95833,95867,524,417,502,384 M,0,95867,95901,502,384,493,345 M,0,95901,95935,493,345,497,305 M,0,95935,95968,497,305,514,269 M,0,95968,96002,514,269,542,241 M,0,96002,96104,542,241,567,131 M,0,96104,96205,567,131,580,149 M,0,96205,96238,580,149,541,158 M,0,96238,96272,541,158,501,159 M,0,96272,96306,501,159,462,151 M,0,96306,96408,462,151,280,96 M,0,96408,96509,280,96,264,81 M,0,96509,96542,264,81,300,65 M,0,96542,96576,300,65,338,72 M,0,96576,96610,338,72,365,101 M,0,96610,96644,365,101,372,139 M,0,96644,96677,372,139,354,175 M,0,96677,96711,354,175,320,194 M,0,96711,96813,320,194,170,313 M,0,96813,96914,170,313,179,293 M,0,96914,97016,179,293,170,385 M,0,97016,97049,170,385,172,345 M,0,97049,97083,172,345,175,305 M,0,97083,97117,175,305,178,265 M,0,97117,97151,178,265,181,225 M,0,97151,97184,181,225,183,185 M,0,97184,97218,183,185,186,145 M,0,97218,97320,186,145,91,77 M,0,97320,97421,91,77,74,62 M,0,97421,97446,74,62,75,91 M,0,97446,97471,75,91,75,121 M,0,97471,97497,75,121,84,149 M,0,97497,97522,84,149,87,179 M,0,97522,97624,87,179,299,320 M,0,97624,97649,299,320,298,290 M,0,97649,97674,298,290,298,260 M,0,97674,97700,298,260,289,232 M,0,97700,97725,289,232,285,202 M,0,97725,97827,285,202,72,283 M,0,97827,97860,72,283,111,275 F,0,97827,98232,0.8,0 M,0,97860,97894,111,275,151,272 M,0,97894,97928,151,272,190,274 M,0,97928,98029,190,274,300,93 M,0,98029,98062,300,93,260,100 M,0,98062,98096,260,100,220,103 M,0,98096,98130,220,103,181,101 M,0,98130,98232,181,101,432,222 M,0,98232,98333,432,222,481,234 M,0,98333,98435,481,234,488,185 M,0,98435,98536,488,185,438,178 M,0,98536,98637,438,178,460,205
Sprite,Foreground,Centre,"sb\highlight2.png",320,240 M,0,98637,98687,460,205,462,249 C,0,98637,99448,255,153,204 F,0,98637,111633,0.8 S,0,98637,111633,0.8 P,0,98637,111633,A M,0,98687,98738,462,249,469,294 M,0,98738,98789,469,294,479,338 M,0,98789,98839,479,338,492,381 M,0,98839,98941,492,381,580,444 M,0,98941,99043,580,444,569,430 M,0,99043,99093,569,430,525,418 M,0,99093,99144,525,418,480,419 M,0,99144,99246,480,419,396,343 M,0,99246,99448,396,343,237,414 M,0,99448,99498,237,414,253,372 C,0,99448,100259,255,168,125 M,0,99498,99549,253,372,262,328 M,0,99549,99600,262,328,263,283 M,0,99600,99650,263,283,256,238 M,0,99650,99752,256,238,322,140 M,0,99752,99854,322,140,306,149 M,0,99854,99904,306,149,261,155 M,0,99904,99955,261,155,216,155 M,0,99955,100006,216,155,172,146 M,0,100006,100056,172,146,130,130 M,0,100056,100158,130,130,68,280 M,0,100158,100259,68,280,80,267 M,0,100259,100309,80,267,120,247 C,0,100259,101070,255,77,166 M,0,100309,100360,120,247,164,241 M,0,100360,100462,164,241,255,274 M,0,100462,100512,255,274,274,314 M,0,100512,100563,274,314,280,358 M,0,100563,100664,280,358,361,444 M,0,100664,100714,361,444,365,399 M,0,100714,100765,365,399,369,354 M,0,100765,100816,369,354,373,309 M,0,100816,100866,373,309,377,264 M,0,100866,100969,377,264,357,182 M,0,100969,101070,357,182,346,168 M,0,101070,101120,346,168,389,178 C,0,101070,101881,255,104,104 M,0,101120,101171,389,178,434,182 M,0,101171,101273,434,182,560,252 M,0,101273,101323,560,252,515,256 M,0,101323,101374,515,256,471,267 M,0,101374,101475,471,267,281,328 M,0,101475,101525,281,328,324,338 M,0,101525,101576,324,338,369,342 M,0,101576,101678,369,342,495,412 M,0,101678,101728,495,412,450,416 M,0,101728,101779,450,416,406,427 M,0,101779,101881,406,427,580,333 M,0,101881,101931,580,333,559,292 C,0,101881,102692,255,153,204 M,0,101931,101982,559,292,545,250 M,0,101982,102033,545,250,536,206 M,0,102033,102083,536,206,533,161 M,0,102083,102185,533,161,558,75 M,0,102185,102286,558,75,568,61 M,0,102286,102336,568,61,556,103 M,0,102336,102387,556,103,521,130 M,0,102387,102438,521,130,477,129 M,0,102438,102488,477,129,443,101 M,0,102488,102590,443,101,318,172 M,0,102590,102691,318,172,301,166 M,0,102691,102741,301,166,256,159 C,0,102692,103503,255,168,125 M,0,102741,102792,256,159,211,157 M,0,102792,102894,211,157,133,83 M,0,102894,102944,133,83,117,125 M,0,102944,102995,117,125,96,165 M,0,102995,103097,96,165,68,323 M,0,103097,103147,68,323,109,336 M,0,103147,103198,109,336,150,319 M,0,103198,103249,150,319,171,281 M,0,103249,103299,171,281,162,237 M,0,103299,103401,162,237,117,90 M,0,103401,103502,117,90,133,83 M,0,103502,103552,133,83,176,92 C,0,103503,104314,255,77,166 M,0,103552,103603,176,92,221,89 M,0,103603,103654,221,89,265,82 M,0,103654,103704,265,82,310,88 M,0,103704,103806,310,88,389,165 M,0,103806,103908,389,165,397,182 M,0,103908,103958,397,182,407,138 M,0,103958,104009,407,138,424,96 M,0,104009,104110,424,96,512,86 M,0,104110,104160,512,86,543,118 M,0,104160,104211,543,118,571,153 M,0,104211,104313,571,153,533,228 M,0,104313,104516,533,228 C,0,104314,105125,255,104,104 M,0,104516,104566,533,228,489,240 M,0,104566,104617,489,240,445,246 M,0,104617,104719,445,246,316,241 M,0,104719,104769,316,241,347,273 M,0,104769,104820,347,273,375,308 M,0,104820,104921,375,308,435,417 M,0,104921,104971,435,417,445,373 M,0,104971,105022,445,373,462,331 M,0,105022,105124,462,331,533,228 M,0,105124,105174,533,228,490,240 C,0,105125,105936,255,153,204 M,0,105174,105225,490,240,448,226 M,0,105225,105276,448,226,422,190 M,0,105276,105326,422,190,421,146 M,0,105326,105428,421,146,546,70 M,0,105428,105529,546,70,560,60 M,0,105529,105579,560,60,554,104 M,0,105579,105630,554,104,539,146 M,0,105630,105732,539,146,316,241 M,0,105732,105782,316,241,300,198 M,0,105782,105833,300,198,294,154 M,0,105833,105935,294,154,186,332 M,0,105935,105985,186,332,230,330 C,0,105936,106747,255,168,125 M,0,105985,106036,230,330,273,343 M,0,106036,106087,273,343,315,357 M,0,106087,106137,315,357,360,355 M,0,106137,106239,360,355,463,444 M,0,106239,106340,463,444,478,434 M,0,106340,106390,478,434,520,421 M,0,106390,106441,520,421,565,418 M,0,106441,106543,565,418,501,253 M,0,106543,106593,501,253,456,249 M,0,106593,106644,456,249,413,237 M,0,106644,106746,413,237,580,345 M,0,106746,106796,580,345,561,303 C,0,106747,107558,255,77,166 M,0,106796,106847,561,303,550,260 M,0,106847,106898,550,260,545,215 M,0,106898,106948,545,215,547,170 M,0,106948,107050,547,170,356,92 M,0,107050,107151,356,92,382,99 M,0,107151,107201,382,99,426,90 M,0,107201,107252,426,90,467,72 M,0,107252,107354,467,72,335,289 M,0,107354,107556,335,289,157,64 M,0,107556,107606,157,64,200,76 C,0,107558,108369,255,104,104 M,0,107606,107658,200,76,205,80 M,0,107658,107708,205,80,205,124 M,0,107708,107759,205,124,202,169 M,0,107759,107810,202,169,194,214 M,0,107810,107860,194,214,182,257 M,0,107860,107962,182,257,129,349 M,0,107962,108012,129,349,85,361 M,0,108012,108063,85,361,90,365 M,0,108063,108113,90,365,77,321 M,0,108113,108164,77,321,70,277 M,0,108164,108215,70,277,67,232 M,0,108215,108265,67,232,68,187 M,0,108265,108367,68,187,335,289 M,0,108367,108417,335,289,330,332 C,0,108369,109180,255,153,204 M,0,108417,108468,330,332,298,362 M,0,108468,108519,298,362,254,363 M,0,108519,108569,254,363,220,335 M,0,108569,108671,220,335,281,184 M,0,108671,108773,281,184,298,189 M,0,108773,108823,298,189,342,198 M,0,108823,108874,342,198,386,205 M,0,108874,108975,386,205,430,291 M,0,108975,109025,430,291,474,283 M,0,109025,109076,474,283,518,275 M,0,109076,109178,518,275,323,405 M,0,109178,109228,323,405,280,391 C,0,109180,109991,255,168,125 M,0,109228,109279,280,391,239,372 M,0,109279,109381,239,372,171,251 M,0,109381,109431,171,251,184,208 M,0,109431,109482,184,208,203,167 M,0,109482,109583,203,167,325,99 M,0,109583,109633,325,99,367,112 M,0,109633,109684,367,112,408,131 M,0,109684,109786,408,131,477,253 M,0,109786,109836,477,253,463,295 M,0,109836,109887,463,295,444,336 M,0,109887,109989,444,336,238,371 M,0,109989,110039,238,371,221,329 C,0,109991,110802,255,77,166 M,0,110039,110090,221,329,212,285 M,0,110090,110141,212,285,221,329 M,0,110141,110191,221,329,238,371 M,0,110191,110242,238,371,221,329 M,0,110242,110293,221,329,212,285 M,0,110293,110394,212,285,347,353 M,0,110394,110444,347,353,337,396 M,0,110444,110495,337,396,321,438 M,0,110495,110546,321,438,337,396 M,0,110546,110596,337,396,347,353 M,0,110596,110648,347,353,337,396 M,0,110648,110699,337,396,321,438 M,0,110699,110800,321,438,444,336 M,0,110800,110852,444,336,487,325 C,0,110802,111613,255,104,104 M,0,110852,110904,487,325,444,336 M,0,110904,110956,444,336,487,325 M,0,110956,111008,487,325,444,336 M,0,111008,111060,444,336,487,325 M,0,111060,111112,487,325,444,336 M,0,111112,111216,444,336,382,248 M,0,111216,111268,382,248,337,241 M,0,111268,111320,337,241,382,248 M,0,111320,111372,382,248,337,241 M,0,111372,111425,337,241,382,248 M,0,111425,111477,382,248,337,241 M,0,111477,111529,337,241,382,248 M,0,111529,111633,382,248,479,201 C,0,111613,111633,255,153,204
Sprite,Foreground,Centre,"sb\highlight3.png",320,240 S,0,114853,117270,1.5 C,0,114853,117270,0,0,0 M,0,114854,114904,89,366,113,357 M,0,114904,114954,113,357,139,351 M,0,114954,115005,139,351,165,347 M,0,115005,115055,165,347,191,346 M,0,115256,115306,282,392,278,418 M,0,115306,115356,278,418,275,444 M,0,115458,115508,191,346,187,319 M,0,115508,115558,187,319,184,293 M,0,115659,115709,384,372,359,380 M,0,115709,115759,359,380,333,386 M,0,115759,115810,333,386,307,390 M,0,115810,115860,307,390,281,391 M,0,115961,115971,191,346 M,0,116464,116514,420,86,417,112 M,0,116514,116564,417,112,414,138 M,0,116564,116615,414,138,411,164 M,0,116615,116665,411,164,408,190 M,0,116867,116917,505,281,479,273 M,0,116917,116967,479,273,453,269 M,0,117068,117118,357,179,382,186 M,0,117118,117168,382,186,408,190
Sprite,Foreground,Centre,"sb\highlight.png",320,240 M,0,157005,157038,284,374,301,338 F,0,157005,169977,0.6 R,0,157005,169977,1.5708 C,0,157005,169977,255,153,204 V,0,157005,169977,1.5,0.8 P,0,157005,169977,A M,0,157038,157072,301,338,299,299 M,0,157072,157106,299,299,277,266 M,0,157106,157140,277,266,241,249 M,0,157140,157173,241,249,202,252 M,0,157173,157207,202,252,170,275 M,0,157207,157410,170,275,68,124 M,0,157410,157443,68,124,106,135 M,0,157443,157477,106,135,145,144 M,0,157477,157511,145,144,184,149 M,0,157511,157545,184,149,224,151 M,0,157545,157578,224,151,264,150 M,0,157578,157612,264,150,304,146 M,0,157612,157714,304,146,368,70 M,0,157714,157815,368,70,384,85 M,0,157815,157848,384,85,400,121 M,0,157848,157882,400,121,403,160 M,0,157882,157916,403,160,390,198 M,0,157916,158018,390,198,246,384 M,0,158018,158119,246,384,224,395 M,0,158119,158152,224,395,246,362 M,0,158152,158186,246,362,263,325 M,0,158186,158220,263,325,273,287 M,0,158220,158254,273,287,282,269 M,0,158254,158287,282,269,307,299 M,0,158287,158321,307,299,342,319 M,0,158321,158423,342,319,491,414 M,0,158423,158525,491,414,470,405 M,0,158525,158626,470,405,563,403 M,0,158626,158659,563,403,523,404 M,0,158659,158693,523,404,483,406 M,0,158693,158727,483,406,446,422 M,0,158727,158761,446,422,408,410 M,0,158761,158794,408,410,369,409 M,0,158794,158828,369,409,329,410 M,0,158828,159032,329,410,154,183 M,0,159032,159065,154,183,193,184 M,0,159065,159099,193,184,233,186 M,0,159099,159133,233,186,270,202 M,0,159133,159167,270,202,308,190 M,0,159167,159200,308,190,347,189 M,0,159200,159234,347,189,387,190 M,0,159234,159336,387,190,247,316 M,0,159336,159437,247,316,228,330 M,0,159437,159470,228,330,211,293 M,0,159470,159504,211,293,210,254 M,0,159504,159538,210,254,226,217 M,0,159538,159640,226,217,397,94 M,0,159640,159741,397,94,415,108 M,0,159741,159774,415,108,454,114 M,0,159774,159808,454,114,492,114 M,0,159808,159842,492,114,527,94 M,0,159842,159876,527,94,561,73 M,0,159876,159909,561,73,563,93 M,0,159909,159943,563,93,550,131 M,0,159943,160045,550,131,479,279 M,0,160045,160146,479,279,491,298 M,0,160146,160248,491,298,477,206 M,0,160248,160281,477,206,480,245 M,0,160281,160315,480,245,484,285 M,0,160315,160349,484,285,488,325 M,0,160349,160383,488,325,491,365 M,0,160383,160416,491,365,495,405 M,0,160416,160450,495,405,499,444 M,0,160450,160653,499,444,381,79 M,0,160653,160686,381,79,376,118 M,0,160686,160720,376,118,372,158 M,0,160720,160754,372,158,368,198 M,0,160754,160788,368,198,363,238 M,0,160788,160821,363,238,359,277 M,0,160821,160855,359,277,355,317 M,0,160855,160957,355,317,392,414 M,0,160957,161059,392,414,406,430 M,0,161059,161092,406,430,368,417 M,0,161092,161126,368,417,329,414 M,0,161126,161160,329,414,289,417 M,0,161160,161261,289,417,163,424 M,0,161261,161363,163,424,174,444 M,0,161363,161396,174,444,195,410 M,0,161396,161430,195,410,195,371 M,0,161430,161464,195,371,174,337 M,0,161464,161498,174,337,138,320 M,0,161498,161531,138,320,99,324 M,0,161531,161565,99,324,68,348 M,0,161565,161667,68,348,334,312 M,0,161667,161768,334,312,354,301 M,0,161768,161869,354,301,272,277 M,0,161869,161902,272,277,307,294 M,0,161902,161936,307,294,345,308 M,0,161936,161970,345,308,384,317 M,0,161970,162004,384,317,424,321 M,0,162004,162037,424,321,464,321 M,0,162037,162071,464,321,503,316 M,0,162071,162173,503,316,560,413 M,0,162173,162275,560,413,575,428 M,0,162275,162308,575,428,535,425 M,0,162308,162342,535,425,495,431 M,0,162342,162376,495,431,458,444 M,0,162376,162477,458,444,523,199 M,0,162477,162510,523,199,523,238 M,0,162510,162544,523,238,516,278 M,0,162544,162578,516,278,502,315 M,0,162578,162680,502,315,334,312 M,0,162680,162713,334,312,304,285 M,0,162713,162747,304,285,287,249 M,0,162747,162781,287,249,286,209 M,0,162781,162815,286,209,301,172 M,0,162815,162848,301,172,329,144 M,0,162848,162882,329,144,366,130 M,0,162882,162984,366,130,202,262 M,0,162984,163086,202,262,180,273 M,0,163086,163288,180,273,166,111 M,0,163288,163321,166,111,203,98 M,0,163321,163355,203,98,241,86 M,0,163355,163389,241,86,228,123 M,0,163389,163491,228,123,392,207 M,0,163491,163524,392,207,382,245 M,0,163524,163558,382,245,374,285 M,0,163558,163592,374,285,369,324 M,0,163592,163626,369,324,367,364 M,0,163626,163659,367,364,367,404 M,0,163659,163693,367,404,369,444 M,0,163693,163896,369,444,311,181 M,0,163896,163929,311,181,308,220 M,0,163929,163963,308,220,323,257 M,0,163963,163997,323,257,353,282 M,0,163997,164031,353,282,392,291 M,0,164031,164064,392,291,430,282 M,0,164064,164098,430,282,461,257 M,0,164098,164200,461,257,545,160 M,0,164200,164302,545,160,555,140 M,0,164302,164335,555,140,556,120 M,0,164335,164369,556,120,518,135 M,0,164369,164403,518,135,481,149 M,0,164403,164505,481,149,327,87 M,0,164505,164606,327,87,306,97 M,0,164606,164639,306,97,269,112 M,0,164639,164673,269,112,232,125 M,0,164673,164707,232,125,199,103 M,0,164707,164741,199,103,166,80 M,0,164741,164774,166,80,187,75 M,0,164774,164808,187,75,227,76 M,0,164808,164910,227,76,136,213 M,0,164910,165011,136,213,144,234 M,0,165011,165113,144,234,68,188 M,0,165113,165146,68,188,105,201 M,0,165146,165180,105,201,137,225 M,0,165180,165214,137,225,162,256 M,0,165214,165248,162,256,177,293 M,0,165248,165281,177,293,181,333 M,0,165281,165315,181,333,175,372 M,0,165315,165518,175,372,324,336 M,0,165518,165551,324,336,284,329 M,0,165551,165585,284,329,245,333 M,0,165585,165619,245,333,207,347 M,0,165619,165653,207,347,175,371 M,0,165653,165686,175,371,151,402 M,0,165686,165720,151,402,136,439 M,0,165720,165822,136,439,68,188 M,0,165822,165923,68,188,81,208 M,0,165923,166126,81,208,405,161 M,0,166126,166227,405,161,420,142 M,0,166227,166260,420,142,380,142 M,0,166260,166294,380,142,340,138 M,0,166294,166328,340,138,301,130 M,0,166328,166362,301,130,263,117 M,0,166362,166395,263,117,290,144 M,0,166395,166429,290,144,304,182 M,0,166429,166532,304,182,428,312 M,0,166532,166633,428,312,440,291 M,0,166633,166734,440,291,421,385 M,0,166734,166767,421,385,427,345 M,0,166767,166801,427,345,433,305 M,0,166801,166835,433,305,439,266 M,0,166835,166869,439,266,446,226 M,0,166869,166902,446,226,427,193 M,0,166902,166936,427,193,404,160 M,0,166936,167140,404,160,566,60 M,0,167140,167173,566,60,542,92 M,0,167173,167207,542,92,523,126 M,0,167207,167241,523,126,530,165 M,0,167241,167275,530,165,536,205 M,0,167275,167308,536,205,542,244 M,0,167308,167342,542,244,549,284 M,0,167342,167444,549,284,565,384 M,0,167444,167545,565,384,580,402 M,0,167545,167578,580,402,540,396 M,0,167578,167612,540,396,502,385 M,0,167612,167646,502,385,466,367 M,0,167646,167748,466,367,313,204 M,0,167748,167849,313,204,299,184 M,0,167849,167882,299,184,334,166 M,0,167882,167916,334,166,373,169 M,0,167916,167950,373,169,405,191 M,0,167950,167984,405,191,421,228 M,0,167984,168017,421,228,416,267 M,0,168017,168051,416,267,392,298 M,0,168051,168153,392,298,205,381 M,0,168153,168255,205,381,225,392 M,0,168255,168356,225,392,137,405 M,0,168356,168389,137,405,175,395 M,0,168389,168423,175,395,215,389 M,0,168423,168457,215,389,255,384 M,0,168457,168491,255,384,295,383 M,0,168491,168524,295,383,335,383 M,0,168524,168558,335,383,374,387 M,0,168558,168761,374,387,528,120 M,0,168761,168794,528,120,488,123 M,0,168794,168828,488,123,448,123 M,0,168828,168862,448,123,408,122 M,0,168862,168896,408,122,368,117 M,0,168896,168929,368,117,328,111 M,0,168929,168963,328,111,290,102 M,0,168963,169065,290,102,269,89 M,0,169065,169167,269,89,252,72 M,0,169167,169200,252,72,263,110 M,0,169200,169234,263,110,263,148 M,0,169234,169268,263,148,253,187 M,0,169268,169369,253,187,392,294 M,0,169369,169394,392,294,383,265 M,0,169394,169419,383,265,375,236 M,0,169419,169445,375,236,382,207 M,0,169445,169470,382,207,390,178 M,0,169470,169572,390,178,194,341 M,0,169572,169673,194,341,169,299 M,0,169673,169775,169,299,210,275 M,0,169775,169876,210,275,235,316 M,0,169876,169977,235,316,200,307
Sprite,Foreground,Centre,"sb\highlight.png",320,240 M,0,157005,157038,284,374,301,338 F,0,157005,169977,0.6 C,0,157005,169977,255,153,204 V,0,157005,169977,1.8,0.8 P,0,157005,169977,A M,0,157038,157072,301,338,299,299 M,0,157072,157106,299,299,277,266 M,0,157106,157140,277,266,241,249 M,0,157140,157173,241,249,202,252 M,0,157173,157207,202,252,170,275 M,0,157207,157410,170,275,68,124 M,0,157410,157443,68,124,106,135 M,0,157443,157477,106,135,145,144 M,0,157477,157511,145,144,184,149 M,0,157511,157545,184,149,224,151 M,0,157545,157578,224,151,264,150 M,0,157578,157612,264,150,304,146 M,0,157612,157714,304,146,368,70 M,0,157714,157815,368,70,384,85 M,0,157815,157848,384,85,400,121 M,0,157848,157882,400,121,403,160 M,0,157882,157916,403,160,390,198 M,0,157916,158018,390,198,246,384 M,0,158018,158119,246,384,224,395 M,0,158119,158152,224,395,246,362 M,0,158152,158186,246,362,263,325 M,0,158186,158220,263,325,273,287 M,0,158220,158254,273,287,282,269 M,0,158254,158287,282,269,307,299 M,0,158287,158321,307,299,342,319 M,0,158321,158423,342,319,491,414 M,0,158423,158525,491,414,470,405 M,0,158525,158626,470,405,563,403 M,0,158626,158659,563,403,523,404 M,0,158659,158693,523,404,483,406 M,0,158693,158727,483,406,446,422 M,0,158727,158761,446,422,408,410 M,0,158761,158794,408,410,369,409 M,0,158794,158828,369,409,329,410 M,0,158828,159032,329,410,154,183 M,0,159032,159065,154,183,193,184 M,0,159065,159099,193,184,233,186 M,0,159099,159133,233,186,270,202 M,0,159133,159167,270,202,308,190 M,0,159167,159200,308,190,347,189 M,0,159200,159234,347,189,387,190 M,0,159234,159336,387,190,247,316 M,0,159336,159437,247,316,228,330 M,0,159437,159470,228,330,211,293 M,0,159470,159504,211,293,210,254 M,0,159504,159538,210,254,226,217 M,0,159538,159640,226,217,397,94 M,0,159640,159741,397,94,415,108 M,0,159741,159774,415,108,454,114 M,0,159774,159808,454,114,492,114 M,0,159808,159842,492,114,527,94 M,0,159842,159876,527,94,561,73 M,0,159876,159909,561,73,563,93 M,0,159909,159943,563,93,550,131 M,0,159943,160045,550,131,479,279 M,0,160045,160146,479,279,491,298 M,0,160146,160248,491,298,477,206 M,0,160248,160281,477,206,480,245 M,0,160281,160315,480,245,484,285 M,0,160315,160349,484,285,488,325 M,0,160349,160383,488,325,491,365 M,0,160383,160416,491,365,495,405 M,0,160416,160450,495,405,499,444 M,0,160450,160653,499,444,381,79 M,0,160653,160686,381,79,376,118 M,0,160686,160720,376,118,372,158 M,0,160720,160754,372,158,368,198 M,0,160754,160788,368,198,363,238 M,0,160788,160821,363,238,359,277 M,0,160821,160855,359,277,355,317 M,0,160855,160957,355,317,392,414 M,0,160957,161059,392,414,406,430 M,0,161059,161092,406,430,368,417 M,0,161092,161126,368,417,329,414 M,0,161126,161160,329,414,289,417 M,0,161160,161261,289,417,163,424 M,0,161261,161363,163,424,174,444 M,0,161363,161396,174,444,195,410 M,0,161396,161430,195,410,195,371 M,0,161430,161464,195,371,174,337 M,0,161464,161498,174,337,138,320 M,0,161498,161531,138,320,99,324 M,0,161531,161565,99,324,68,348 M,0,161565,161667,68,348,334,312 M,0,161667,161768,334,312,354,301 M,0,161768,161869,354,301,272,277 M,0,161869,161902,272,277,307,294 M,0,161902,161936,307,294,345,308 M,0,161936,161970,345,308,384,317 M,0,161970,162004,384,317,424,321 M,0,162004,162037,424,321,464,321 M,0,162037,162071,464,321,503,316 M,0,162071,162173,503,316,560,413 M,0,162173,162275,560,413,575,428 M,0,162275,162308,575,428,535,425 M,0,162308,162342,535,425,495,431 M,0,162342,162376,495,431,458,444 M,0,162376,162477,458,444,523,199 M,0,162477,162510,523,199,523,238 M,0,162510,162544,523,238,516,278 M,0,162544,162578,516,278,502,315 M,0,162578,162680,502,315,334,312 M,0,162680,162713,334,312,304,285 M,0,162713,162747,304,285,287,249 M,0,162747,162781,287,249,286,209 M,0,162781,162815,286,209,301,172 M,0,162815,162848,301,172,329,144 M,0,162848,162882,329,144,366,130 M,0,162882,162984,366,130,202,262 M,0,162984,163086,202,262,180,273 M,0,163086,163288,180,273,166,111 M,0,163288,163321,166,111,203,98 M,0,163321,163355,203,98,241,86 M,0,163355,163389,241,86,228,123 M,0,163389,163491,228,123,392,207 M,0,163491,163524,392,207,382,245 M,0,163524,163558,382,245,374,285 M,0,163558,163592,374,285,369,324 M,0,163592,163626,369,324,367,364 M,0,163626,163659,367,364,367,404 M,0,163659,163693,367,404,369,444 M,0,163693,163896,369,444,311,181 M,0,163896,163929,311,181,308,220 M,0,163929,163963,308,220,323,257 M,0,163963,163997,323,257,353,282 M,0,163997,164031,353,282,392,291 M,0,164031,164064,392,291,430,282 M,0,164064,164098,430,282,461,257 M,0,164098,164200,461,257,545,160 M,0,164200,164302,545,160,555,140 M,0,164302,164335,555,140,556,120 M,0,164335,164369,556,120,518,135 M,0,164369,164403,518,135,481,149 M,0,164403,164505,481,149,327,87 M,0,164505,164606,327,87,306,97 M,0,164606,164639,306,97,269,112 M,0,164639,164673,269,112,232,125 M,0,164673,164707,232,125,199,103 M,0,164707,164741,199,103,166,80 M,0,164741,164774,166,80,187,75 M,0,164774,164808,187,75,227,76 M,0,164808,164910,227,76,136,213 M,0,164910,165011,136,213,144,234 M,0,165011,165113,144,234,68,188 M,0,165113,165146,68,188,105,201 M,0,165146,165180,105,201,137,225 M,0,165180,165214,137,225,162,256 M,0,165214,165248,162,256,177,293 M,0,165248,165281,177,293,181,333 M,0,165281,165315,181,333,175,372 M,0,165315,165518,175,372,324,336 M,0,165518,165551,324,336,284,329 M,0,165551,165585,284,329,245,333 M,0,165585,165619,245,333,207,347 M,0,165619,165653,207,347,175,371 M,0,165653,165686,175,371,151,402 M,0,165686,165720,151,402,136,439 M,0,165720,165822,136,439,68,188 M,0,165822,165923,68,188,81,208 M,0,165923,166126,81,208,405,161 M,0,166126,166227,405,161,420,142 M,0,166227,166260,420,142,380,142 M,0,166260,166294,380,142,340,138 M,0,166294,166328,340,138,301,130 M,0,166328,166362,301,130,263,117 M,0,166362,166395,263,117,290,144 M,0,166395,166429,290,144,304,182 M,0,166429,166532,304,182,428,312 M,0,166532,166633,428,312,440,291 M,0,166633,166734,440,291,421,385 M,0,166734,166767,421,385,427,345 M,0,166767,166801,427,345,433,305 M,0,166801,166835,433,305,439,266 M,0,166835,166869,439,266,446,226 M,0,166869,166902,446,226,427,193 M,0,166902,166936,427,193,404,160 M,0,166936,167140,404,160,566,60 M,0,167140,167173,566,60,542,92 M,0,167173,167207,542,92,523,126 M,0,167207,167241,523,126,530,165 M,0,167241,167275,530,165,536,205 M,0,167275,167308,536,205,542,244 M,0,167308,167342,542,244,549,284 M,0,167342,167444,549,284,565,384 M,0,167444,167545,565,384,580,402 M,0,167545,167578,580,402,540,396 M,0,167578,167612,540,396,502,385 M,0,167612,167646,502,385,466,367 M,0,167646,167748,466,367,313,204 M,0,167748,167849,313,204,299,184 M,0,167849,167882,299,184,334,166 M,0,167882,167916,334,166,373,169 M,0,167916,167950,373,169,405,191 M,0,167950,167984,405,191,421,228 M,0,167984,168017,421,228,416,267 M,0,168017,168051,416,267,392,298 M,0,168051,168153,392,298,205,381 M,0,168153,168255,205,381,225,392 M,0,168255,168356,225,392,137,405 M,0,168356,168389,137,405,175,395 M,0,168389,168423,175,395,215,389 M,0,168423,168457,215,389,255,384 M,0,168457,168491,255,384,295,383 M,0,168491,168524,295,383,335,383 M,0,168524,168558,335,383,374,387 M,0,168558,168761,374,387,528,120 M,0,168761,168794,528,120,488,123 M,0,168794,168828,488,123,448,123 M,0,168828,168862,448,123,408,122 M,0,168862,168896,408,122,368,117 M,0,168896,168929,368,117,328,111 M,0,168929,168963,328,111,290,102 M,0,168963,169065,290,102,269,89 M,0,169065,169167,269,89,252,72 M,0,169167,169200,252,72,263,110 M,0,169200,169234,263,110,263,148 M,0,169234,169268,263,148,253,187 M,0,169268,169369,253,187,392,294 M,0,169369,169394,392,294,383,265 M,0,169394,169419,383,265,375,236 M,0,169419,169445,375,236,382,207 M,0,169445,169470,382,207,390,178 M,0,169470,169572,390,178,194,341 M,0,169572,169673,194,341,169,299 M,0,169673,169775,169,299,210,275 M,0,169775,169876,210,275,235,316 M,0,169876,169977,235,316,200,307
Sprite,Foreground,Centre,"sb\highlight3.png",255,164 S,0,176464,176869,2 C,0,176464,176869,0,0,0
Sprite,Foreground,Centre,"sb\highlight3.png",330,215 S,0,177275,177680,2 C,0,177275,177680,0,0,0
Sprite,Foreground,Centre,"sb\highlight3.png",389,284 S,0,178086,178491,2 C,0,178086,178491,0,0,0
Sprite,Foreground,Centre,"sb\highlight3.png",423,373 S,0,178896,179302,2 C,0,178896,179302,0,0,0
Sprite,Foreground,Centre,"sb\highlight2.png",320,240 M,0,189842,189875,208,139,252,145 F,0,189842,195113,1 S,0,189842,195113,0.8 C,0,189842,195113,0,0,0 M,0,189875,189909,252,145,297,146 M,0,189909,189943,297,146,342,142 M,0,189943,189977,342,142,385,131 M,0,189977,190010,385,131,427,115 M,0,190010,190044,427,115,467,94 M,0,190044,190248,467,94,356,432 M,0,190248,190281,356,432,316,410 M,0,190281,190315,316,410,274,394 M,0,190315,190349,274,394,230,384 M,0,190349,190383,230,384,185,379 M,0,190383,190416,185,379,141,380 M,0,190416,190450,141,380,96,386 M,0,190450,190653,96,386,366,106 M,0,190653,190686,366,106,398,136 M,0,190686,190720,398,136,409,179 M,0,190720,190754,409,179,395,221 M,0,190754,190788,395,221,361,250 M,0,190788,190821,361,250,317,255 M,0,190821,190855,317,255,277,236 M,0,190855,191059,277,236,560,60 M,0,191059,191092,560,60,566,104 M,0,191092,191126,566,104,567,148 M,0,191126,191160,567,148,550,189 M,0,191160,191194,550,189,534,231 M,0,191194,191227,534,231,542,275 M,0,191227,191261,542,275,551,319 M,0,191261,191464,551,319,235,444 M,0,191464,191497,235,444,272,418 M,0,191497,191531,272,418,313,400 M,0,191531,191565,313,400,356,390 M,0,191565,191599,356,390,401,388 M,0,191599,191632,401,388,446,394 M,0,191632,191666,446,394,488,408 M,0,191666,191869,488,408,451,146 M,0,191869,192072,451,146,287,278 M,0,192072,192173,287,278 M,0,192173,192275,287,278 M,0,192275,192477,287,278,572,404 M,0,192477,192680,572,404,451,146 M,0,192680,192713,451,146,446,190 M,0,192713,192747,446,190,442,235 M,0,192747,192781,442,235,438,280 M,0,192781,192815,438,280,434,325 M,0,192815,192848,434,325,430,370 M,0,192848,192882,430,370,426,414 M,0,192882,193086,426,414,111,162 M,0,193086,193119,111,162,155,159 M,0,193119,193153,155,159,198,145 M,0,193153,193187,198,145,235,119 M,0,193187,193221,235,119,271,93 M,0,193221,193254,271,93,313,77 M,0,193254,193288,313,77,358,72 M,0,193288,193491,358,72,487,371 M,0,193491,193524,487,371,450,396 M,0,193524,193558,450,396,406,397 M,0,193558,193592,406,397,369,373 M,0,193592,193626,369,373,352,332 M,0,193626,193659,352,332,361,289 M,0,193659,193693,361,289,392,258 M,0,193693,193896,392,258,167,107 M,0,193896,193929,167,107,161,151 M,0,193929,193963,161,151,158,196 M,0,193963,193997,158,196,156,241 M,0,193997,194031,156,241,155,286 M,0,194031,194064,155,286,155,331 M,0,194064,194098,155,331,157,376 M,0,194098,194302,157,376,458,285 M,0,194302,194352,458,285,486,237 M,0,194352,194403,486,237,480,182 M,0,194403,194454,480,182,486,237 M,0,194454,194504,486,237,458,285 M,0,194504,194555,458,285,486,237 M,0,194555,194606,486,237,480,182 M,0,194606,194707,480,182,347,156 M,0,194707,194757,347,156,318,203 M,0,194757,194808,318,203,324,258 M,0,194808,194859,324,258,318,203 M,0,194859,194909,318,203,347,156 M,0,194909,194961,347,156,318,203 M,0,194961,195012,318,203,324,258 M,0,195012,195113,324,258,402,222 M,0,195113,195923,402,222
Sprite,Foreground,Centre,"sb\highlight4.png",320,240 F,0,208896,209396,1,0 MY,0,208896,209396,98
Sprite,Foreground,Centre,"sb\highlight4.png",320,240 F,0,209200,209700,1,0 MY,0,209200,209700,392
Sprite,Foreground,Centre,"sb\highlight4.png",320,240 F,0,209302,209802,1,0 MY,0,209302,209802,406
Sprite,Foreground,Centre,"sb\highlight4.png",320,240 F,0,209504,210004,1,0 MY,0,209504,210004,247
Sprite,Foreground,Centre,"sb\highlight4.png",320,240 F,0,209707,210207,1,0 MY,0,209707,210207,440
Sprite,Foreground,Centre,"sb\highlight4.png",320,240 F,0,210011,210511,1,0 MY,0,210011,210511,165
Sprite,Foreground,Centre,"sb\highlight4.png",320,240 F,0,210315,210815,1,0 MY,0,210315,210815,416
Sprite,Foreground,Centre,"sb\highlight4.png",320,240 F,0,210518,211018,1,0 MY,0,210518,211018,180
Sprite,Foreground,Centre,"sb\highlight4.png",320,240 F,0,210619,211119,1,0 MY,0,210619,211119,180
Sprite,Foreground,Centre,"sb\highlight4.png",320,240 F,0,210721,211221,1,0 MY,0,210721,211221,180
Sprite,Foreground,Centre,"sb\highlight4.png",320,240 F,0,210923,211423,1,0 MY,0,210923,211423,65
Sprite,Foreground,Centre,"sb\highlight4.png",320,240 F,0,211126,211626,1,0 MY,0,211126,211626,223
Sprite,Foreground,Centre,"sb\highlight4.png",320,240 F,0,211329,211829,1,0 MY,0,211329,211829,323
Sprite,Foreground,Centre,"sb\highlight4.png",320,240 F,0,211633,212133,1,0 MY,0,211633,212133,155
Sprite,Foreground,Centre,"sb\highlight4.png",320,240 F,0,211734,212234,1,0 MY,0,211734,212234,168
Sprite,Foreground,Centre,"sb\highlight4.png",320,240 F,0,211937,212437,1,0 MY,0,211937,212437,352
Sprite,Foreground,Centre,"sb\highlight4.png",320,240 F,0,212140,212640,1,0 MY,0,212140,212640,83
Sprite,Foreground,Centre,"sb\highlight4.png",320,240 F,0,212444,212944,1,0 MY,0,212444,212944,346
Sprite,Foreground,Centre,"sb\highlight4.png",320,240 F,0,212748,213248,1,0 MY,0,212748,213248,384
Sprite,Foreground,Centre,"sb\highlight4.png",320,240 F,0,212950,213450,1,0 MY,0,212950,213450,87
Sprite,Foreground,Centre,"sb\highlight4.png",320,240 F,0,213153,213653,1,0 MY,0,213153,213653,241
Sprite,Foreground,Centre,"sb\highlight4.png",320,240 F,0,213254,213754,1,0 MY,0,213254,213754,261
Sprite,Foreground,Centre,"sb\highlight4.png",320,240 F,0,213356,213856,1,0 MY,0,213356,213856,282
Sprite,Foreground,Centre,"sb\highlight4.png",320,240 F,0,213761,214261,1,0 MY,0,213761,214261,321
Sprite,Foreground,Centre,"sb\highlight4.png",320,240 F,0,213964,214464,1,0 MY,0,213964,214464,102
Sprite,Foreground,Centre,"sb\highlight4.png",320,240 F,0,214167,214667,1,0 MY,0,214167,214667,205
Sprite,Foreground,Centre,"sb\highlight4.png",320,240 F,0,214369,214869,1,0 MY,0,214369,214869,218
Sprite,Foreground,Centre,"sb\highlight4.png",320,240 F,0,214471,214971,1,0 MY,0,214471,214971,218
Sprite,Foreground,Centre,"sb\highlight4.png",320,240 F,0,214572,215072,1,0 MY,0,214572,215072,218
Sprite,Foreground,Centre,"sb\highlight4.png",320,240 F,0,214775,215275,1,0 MY,0,214775,215275,283
Sprite,Foreground,Centre,"sb\highlight4.png",320,240 F,0,214977,215477,1,0 MY,0,214977,215477,407
Sprite,Foreground,Centre,"sb\highlight4.png",320,240 F,0,215383,215883,1,0 MY,0,215383,215883,407
Sprite,Foreground,Centre,"sb\highlight4.png",320,240 F,0,215586,216086,1,0 MY,0,215586,216086,162
Sprite,Foreground,Centre,"sb\highlight4.png",320,240 F,0,215687,216187,1,0 MY,0,215687,216187,176
Sprite,Foreground,Centre,"sb\highlight4.png",320,240 F,0,215788,216288,1,0 MY,0,215788,216288,190
Sprite,Foreground,Centre,"sb\highlight4.png",320,240 F,0,215991,216491,1,0 MY,0,215991,216491,201
Sprite,Foreground,Centre,"sb\highlight4.png",320,240 F,0,216194,216694,1,0 MY,0,216194,216694,60
Sprite,Foreground,Centre,"sb\highlight4.png",320,240 F,0,216498,216998,1,0 MY,0,216498,216998,204
Sprite,Foreground,Centre,"sb\highlight4.png",320,240 F,0,216700,217200,1,0 MY,0,216700,217200,312
Sprite,Foreground,Centre,"sb\highlight4.png",320,240 F,0,216802,217302,1,0 MY,0,216802,217302,312
Sprite,Foreground,Centre,"sb\highlight4.png",320,240 F,0,217004,217504,1,0 MY,0,217004,217504,429
Sprite,Foreground,Centre,"sb\highlight4.png",320,240 F,0,217207,217707,1,0 MY,0,217207,217707,310
Sprite,Foreground,Centre,"sb\highlight4.png",320,240 F,0,217309,217809,1,0 MY,0,217309,217809,294
Sprite,Foreground,Centre,"sb\highlight4.png",320,240 F,0,217410,217910,1,0 MY,0,217410,217910,279
Sprite,Foreground,Centre,"sb\highlight4.png",320,240 F,0,217613,218113,1,0 MY,0,217613,218113,436
Sprite,Foreground,Centre,"sb\highlight4.png",320,240 F,0,217815,218315,1,0 MY,0,217815,218315,227
Sprite,Foreground,Centre,"sb\highlight4.png",320,240 F,0,217917,218417,1,0 MY,0,217917,218417,175
Sprite,Foreground,Centre,"sb\highlight4.png",320,240 F,0,218221,218721,1,0 MY,0,218221,218721,124
Sprite,Foreground,Centre,"sb\highlight4.png",320,240 F,0,218322,218822,1,0 MY,0,218322,218822,72
Sprite,Foreground,Centre,"sb\highlight4.png",320,240 F,0,218626,219126,1,0 MY,0,218626,219126,344
Sprite,Foreground,Centre,"sb\highlight4.png",320,240 F,0,218829,219329,1,0 MY,0,218829,219329,165
Sprite,Foreground,Centre,"sb\highlight4.png",320,240 F,0,218930,219430,1,0 MY,0,218930,219430,180
Sprite,Foreground,Centre,"sb\highlight4.png",320,240 F,0,219032,219532,1,0 MY,0,219032,219532,195
Sprite,Foreground,Centre,"sb\highlight4.png",320,240 F,0,219234,219734,1,0 MY,0,219234,219734,444
Sprite,Foreground,Centre,"sb\highlight4.png",320,240 F,0,219437,219937,1,0 MY,0,219437,219937,411
Sprite,Foreground,Centre,"sb\highlight4.png",320,240 F,0,219741,220241,1,0 MY,0,219741,220241,208
Sprite,Foreground,Centre,"sb\highlight4.png",320,240 F,0,219944,220444,1,0 MY,0,219944,220444,99
Sprite,Foreground,Centre,"sb\highlight4.png",320,240 F,0,220045,220545,1,0 MY,0,220045,220545,99
Sprite,Foreground,Centre,"sb\highlight4.png",320,240 F,0,220248,220748,1,0 MY,0,220248,220748,344
Sprite,Foreground,Centre,"sb\highlight4.png",320,240 F,0,220450,220950,1,0 MY,0,220450,220950,60
Sprite,Foreground,Centre,"sb\highlight4.png",320,240 F,0,220653,221153,1,0 MY,0,220653,221153,279
Sprite,Foreground,Centre,"sb\highlight4.png",320,240 F,0,221059,221559,1,0 MY,0,221059,221559,254
Sprite,Foreground,Centre,"sb\highlight4.png",320,240 F,0,221160,221660,1,0 MY,0,221160,221660,257
Sprite,Foreground,Centre,"sb\highlight4.png",320,240 F,0,221261,221761,1,0 MY,0,221261,221761,260
Sprite,Foreground,Centre,"sb\highlight4.png",320,240 F,0,221363,221863,1,0 MY,0,221363,221863,263
Sprite,Foreground,Centre,"sb\highlight4.png",320,240 F,0,221464,221964,1,0 MY,0,221464,221964,266
Sprite,Foreground,Centre,"sb\highlight4.png",320,240 F,0,221565,222065,1,0 MY,0,221565,222065,269
Sprite,Foreground,Centre,"sb\highlight4.png",320,240 F,0,221667,222167,1,0 MY,0,221667,222167,272
Sprite,Foreground,Centre,"sb\highlight4.png",320,240 F,0,221768,222268,1,0 MY,0,221768,222268,275
Sprite,Foreground,Centre,"sb\highlight4.png",320,240 F,0,221869,222369,1,0 MY,0,221869,222369,278
Sprite,Foreground,Centre,"sb\highlight2.png",320,240 M,0,208896,209396,564,98 F,0,208896,209396,1,0
Sprite,Foreground,Centre,"sb\highlight2.png",320,240 M,0,209200,209700,562,392 F,0,209200,209700,1,0
Sprite,Foreground,Centre,"sb\highlight2.png",320,240 M,0,209302,209802,577,406 F,0,209302,209802,1,0
Sprite,Foreground,Centre,"sb\highlight2.png",320,240 M,0,209504,210004,409,247 F,0,209504,210004,1,0
Sprite,Foreground,Centre,"sb\highlight2.png",320,240 M,0,209707,210207,268,440 F,0,209707,210207,1,0
Sprite,Foreground,Centre,"sb\highlight2.png",320,240 M,0,210011,210511,179,165 F,0,210011,210511,1,0
Sprite,Foreground,Centre,"sb\highlight2.png",320,240 M,0,210315,210815,78,416 F,0,210315,210815,1,0
Sprite,Foreground,Centre,"sb\highlight2.png",320,240 M,0,210518,211018,77,180 F,0,210518,211018,1,0
Sprite,Foreground,Centre,"sb\highlight2.png",320,240 M,0,210619,211119,77,180 F,0,210619,211119,1,0
Sprite,Foreground,Centre,"sb\highlight2.png",320,240 M,0,210721,211221,77,180 F,0,210721,211221,1,0
Sprite,Foreground,Centre,"sb\highlight2.png",320,240 M,0,210923,211423,348,65 F,0,210923,211423,1,0
Sprite,Foreground,Centre,"sb\highlight2.png",320,240 M,0,211126,211626,538,223 F,0,211126,211626,1,0
Sprite,Foreground,Centre,"sb\highlight2.png",320,240 M,0,211329,211829,350,323 F,0,211329,211829,1,0
Sprite,Foreground,Centre,"sb\highlight2.png",320,240 M,0,211633,212133,352,155 F,0,211633,212133,1,0
Sprite,Foreground,Centre,"sb\highlight2.png",320,240 M,0,211734,212234,335,168 F,0,211734,212234,1,0
Sprite,Foreground,Centre,"sb\highlight2.png",320,240 M,0,211937,212437,138,352 F,0,211937,212437,1,0
Sprite,Foreground,Centre,"sb\highlight2.png",320,240 M,0,212140,212640,201,83 F,0,212140,212640,1,0
Sprite,Foreground,Centre,"sb\highlight2.png",320,240 M,0,212444,212944,68,346 F,0,212444,212944,1,0
Sprite,Foreground,Centre,"sb\highlight2.png",320,240 M,0,212748,213248,414,384 F,0,212748,213248,1,0
Sprite,Foreground,Centre,"sb\highlight2.png",320,240 M,0,212950,213450,428,87 F,0,212950,213450,1,0
Sprite,Foreground,Centre,"sb\highlight2.png",320,240 M,0,213153,213653,580,241 F,0,213153,213653,1,0
Sprite,Foreground,Centre,"sb\highlight2.png",320,240 M,0,213254,213754,575,261 F,0,213254,213754,1,0
Sprite,Foreground,Centre,"sb\highlight2.png",320,240 M,0,213356,213856,571,282 F,0,213356,213856,1,0
Sprite,Foreground,Centre,"sb\highlight2.png",320,240 M,0,213761,214261,372,321 F,0,213761,214261,1,0
Sprite,Foreground,Centre,"sb\highlight2.png",320,240 M,0,213964,214464,125,102 F,0,213964,214464,1,0
Sprite,Foreground,Centre,"sb\highlight2.png",320,240 M,0,214167,214667,310,205 F,0,214167,214667,1,0
Sprite,Foreground,Centre,"sb\highlight2.png",320,240 M,0,214369,214869,188,218 F,0,214369,214869,1,0
Sprite,Foreground,Centre,"sb\highlight2.png",320,240 M,0,214471,214971,188,218 F,0,214471,214971,1,0
Sprite,Foreground,Centre,"sb\highlight2.png",320,240 M,0,214572,215072,188,218 F,0,214572,215072,1,0
Sprite,Foreground,Centre,"sb\highlight2.png",320,240 M,0,214775,215275,344,283 F,0,214775,215275,1,0
Sprite,Foreground,Centre,"sb\highlight2.png",320,240 M,0,214977,215477,140,407 F,0,214977,215477,1,0
Sprite,Foreground,Centre,"sb\highlight2.png",320,240 M,0,215383,215883,140,407 F,0,215383,215883,1,0
Sprite,Foreground,Centre,"sb\highlight2.png",320,240 M,0,215586,216086,248,162 F,0,215586,216086,1,0
Sprite,Foreground,Centre,"sb\highlight2.png",320,240 M,0,215687,216187,262,176 F,0,215687,216187,1,0
Sprite,Foreground,Centre,"sb\highlight2.png",320,240 M,0,215788,216288,276,190 F,0,215788,216288,1,0
Sprite,Foreground,Centre,"sb\highlight2.png",320,240 M,0,215991,216491,134,201 F,0,215991,216491,1,0
Sprite,Foreground,Centre,"sb\highlight2.png",320,240 M,0,216194,216694,316,60 F,0,216194,216694,1,0
Sprite,Foreground,Centre,"sb\highlight2.png",320,240 M,0,216498,216998,580,204 F,0,216498,216998,1,0
Sprite,Foreground,Centre,"sb\highlight2.png",320,240 M,0,216700,217200,408,312 F,0,216700,217200,1,0
Sprite,Foreground,Centre,"sb\highlight2.png",320,240 M,0,216802,217302,408,312 F,0,216802,217302,1,0
Sprite,Foreground,Centre,"sb\highlight2.png",320,240 M,0,217004,217504,577,429 F,0,217004,217504,1,0
Sprite,Foreground,Centre,"sb\highlight2.png",320,240 M,0,217207,217707,281,310 F,0,217207,217707,1,0
Sprite,Foreground,Centre,"sb\highlight2.png",320,240 M,0,217309,217809,295,294 F,0,217309,217809,1,0
Sprite,Foreground,Centre,"sb\highlight2.png",320,240 M,0,217410,217910,310,279 F,0,217410,217910,1,0
Sprite,Foreground,Centre,"sb\highlight2.png",320,240 M,0,217613,218113,307,436 F,0,217613,218113,1,0
Sprite,Foreground,Centre,"sb\highlight2.png",320,240 M,0,217815,218315,192,227 F,0,217815,218315,1,0
Sprite,Foreground,Centre,"sb\highlight2.png",320,240 M,0,217917,218417,192,175 F,0,217917,218417,1,0
Sprite,Foreground,Centre,"sb\highlight2.png",320,240 M,0,218221,218721,530,124 F,0,218221,218721,1,0
Sprite,Foreground,Centre,"sb\highlight2.png",320,240 M,0,218322,218822,531,72 F,0,218322,218822,1,0
Sprite,Foreground,Centre,"sb\highlight2.png",320,240 M,0,218626,219126,532,344 F,0,218626,219126,1,0
Sprite,Foreground,Centre,"sb\highlight2.png",320,240 M,0,218829,219329,325,165 F,0,218829,219329,1,0
Sprite,Foreground,Centre,"sb\highlight2.png",320,240 M,0,218930,219430,310,180 F,0,218930,219430,1,0
Sprite,Foreground,Centre,"sb\highlight2.png",320,240 M,0,219032,219532,296,195 F,0,219032,219532,1,0
Sprite,Foreground,Centre,"sb\highlight2.png",320,240 M,0,219234,219734,419,444 F,0,219234,219734,1,0
Sprite,Foreground,Centre,"sb\highlight2.png",320,240 M,0,219437,219937,248,411 F,0,219437,219937,1,0
Sprite,Foreground,Centre,"sb\highlight2.png",320,240 M,0,219741,220241,192,208 F,0,219741,220241,1,0
Sprite,Foreground,Centre,"sb\highlight2.png",320,240 M,0,219944,220444,68,99 F,0,219944,220444,1,0
Sprite,Foreground,Centre,"sb\highlight2.png",320,240 M,0,220045,220545,68,99 F,0,220045,220545,1,0
Sprite,Foreground,Centre,"sb\highlight2.png",320,240 M,0,220248,220748,192,344 F,0,220248,220748,1,0
Sprite,Foreground,Centre,"sb\highlight2.png",320,240 M,0,220450,220950,301,60 F,0,220450,220950,1,0
Sprite,Foreground,Centre,"sb\highlight2.png",320,240 M,0,220653,221153,356,279 F,0,220653,221153,1,0
Sprite,Foreground,Centre,"sb\highlight2.png",320,240 M,0,221059,221559,571,254 F,0,221059,221559,1,0
Sprite,Foreground,Centre,"sb\highlight2.png",320,240 M,0,221160,221660,545,257 F,0,221160,221660,1,0
Sprite,Foreground,Centre,"sb\highlight2.png",320,240 M,0,221261,221761,519,260 F,0,221261,221761,1,0
Sprite,Foreground,Centre,"sb\highlight2.png",320,240 M,0,221363,221863,493,263 F,0,221363,221863,1,0
Sprite,Foreground,Centre,"sb\highlight2.png",320,240 M,0,221464,221964,467,266 F,0,221464,221964,1,0
Sprite,Foreground,Centre,"sb\highlight2.png",320,240 M,0,221565,222065,441,269 F,0,221565,222065,1,0
Sprite,Foreground,Centre,"sb\highlight2.png",320,240 M,0,221667,222167,415,272 F,0,221667,222167,1,0
Sprite,Foreground,Centre,"sb\highlight2.png",320,240 M,0,221768,222268,389,275 F,0,221768,222268,1,0
Sprite,Foreground,Centre,"sb\highlight2.png",320,240 M,0,221869,222369,362,278 F,0,221869,222369,1,0
Sprite,Foreground,Centre,"sb\highlight2.png",320,240 M,0,228356,228856,68,159 F,0,228356,228856,1,0
Sprite,Foreground,Centre,"sb\highlight2.png",320,240 M,0,228660,229160,443,105 F,0,228660,229160,1,0
Sprite,Foreground,Centre,"sb\highlight2.png",320,240 M,0,228761,229261,459,91 F,0,228761,229261,1,0
Sprite,Foreground,Centre,"sb\highlight2.png",320,240 M,0,228964,229464,391,256 F,0,228964,229464,1,0
Sprite,Foreground,Centre,"sb\highlight2.png",320,240 M,0,229167,229667,580,115 F,0,229167,229667,1,0
Sprite,Foreground,Centre,"sb\highlight2.png",320,240 M,0,229471,229971,438,444 F,0,229471,229971,1,0
Sprite,Foreground,Centre,"sb\highlight2.png",320,240 M,0,229673,230173,350,150 F,0,229673,230173,1,0
Sprite,Foreground,Centre,"sb\highlight2.png",320,240 M,0,229775,230275,337,167 F,0,229775,230275,1,0
Sprite,Foreground,Centre,"sb\highlight2.png",320,240 M,0,229977,230477,150,327 F,0,229977,230477,1,0
Sprite,Foreground,Centre,"sb\highlight2.png",320,240 M,0,230282,230782,189,412 F,0,230282,230782,1,0
Sprite,Foreground,Centre,"sb\highlight2.png",320,240 M,0,230383,230883,169,418 F,0,230383,230883,1,0
Sprite,Foreground,Centre,"sb\highlight2.png",320,240 M,0,230586,231086,164,208 F,0,230586,231086,1,0
Sprite,Foreground,Centre,"sb\highlight2.png",320,240 M,0,230788,231288,336,410 F,0,230788,231288,1,0
Sprite,Foreground,Centre,"sb\highlight2.png",320,240 M,0,230991,231491,566,302 F,0,230991,231491,1,0
Sprite,Foreground,Centre,"sb\highlight2.png",320,240 M,0,231194,231694,387,157 F,0,231194,231694,1,0
Sprite,Foreground,Centre,"sb\highlight2.png",320,240 M,0,231295,231795,387,157 F,0,231295,231795,1,0
Sprite,Foreground,Centre,"sb\highlight2.png",320,240 M,0,231396,231896,387,157 F,0,231396,231896,1,0
Sprite,Foreground,Centre,"sb\highlight2.png",320,240 M,0,231599,232099,463,321 F,0,231599,232099,1,0
Sprite,Foreground,Centre,"sb\highlight2.png",320,240 M,0,231903,232403,122,348 F,0,231903,232403,1,0
Sprite,Foreground,Centre,"sb\highlight2.png",320,240 M,0,232004,232504,114,329 F,0,232004,232504,1,0
Sprite,Foreground,Centre,"sb\highlight2.png",320,240 M,0,232207,232707,280,75 F,0,232207,232707,1,0
Sprite,Foreground,Centre,"sb\highlight2.png",320,240 M,0,232410,232910,80,107 F,0,232410,232910,1,0
Sprite,Foreground,Centre,"sb\highlight2.png",320,240 M,0,232714,233214,441,203 F,0,232714,233214,1,0
Sprite,Foreground,Centre,"sb\highlight2.png",320,240 M,0,232917,233417,238,293 F,0,232917,233417,1,0
Sprite,Foreground,Centre,"sb\highlight2.png",320,240 M,0,233018,233518,252,307 F,0,233018,233518,1,0
Sprite,Foreground,Centre,"sb\highlight2.png",320,240 M,0,233221,233721,418,444 F,0,233221,233721,1,0
Sprite,Foreground,Centre,"sb\highlight2.png",320,240 M,0,233525,234025,538,152 F,0,233525,234025,1,0
Sprite,Foreground,Centre,"sb\highlight2.png",320,240 M,0,233626,234126,555,139 F,0,233626,234126,1,0
Sprite,Foreground,Centre,"sb\highlight2.png",320,240 M,0,233829,234329,317,140 F,0,233829,234329,1,0
Sprite,Foreground,Centre,"sb\highlight2.png",320,240 M,0,234032,234532,425,373 F,0,234032,234532,1,0
Sprite,Foreground,Centre,"sb\highlight2.png",320,240 M,0,234133,234633,417,365 F,0,234133,234633,1,0
Sprite,Foreground,Centre,"sb\highlight2.png",320,240 M,0,234234,234734,398,354 F,0,234234,234734,1,0
Sprite,Foreground,Centre,"sb\highlight2.png",320,240 M,0,234336,234836,368,343 F,0,234336,234836,1,0
Sprite,Foreground,Centre,"sb\highlight2.png",320,240 M,0,234437,234937,326,343 F,0,234437,234937,1,0
Sprite,Foreground,Centre,"sb\highlight2.png",320,240 M,0,234538,235038,280,370 F,0,234538,235038,1,0
Sprite,Foreground,Centre,"sb\highlight2.png",320,240 M,0,234640,235140,236,415 F,0,234640,235140,1,0
Sprite,Foreground,Centre,"sb\highlight2.png",320,240 M,0,234741,235241,163,423 F,0,234741,235241,1,0
Sprite,Foreground,Centre,"sb\highlight2.png",320,240 M,0,234842,235342,92,375 F,0,234842,235342,1,0
Sprite,Foreground,Centre,"sb\highlight2.png",320,240 M,0,235045,235545,198,272 F,0,235045,235545,1,0
Sprite,Foreground,Centre,"sb\highlight2.png",320,240 M,0,235248,235748,83,66 F,0,235248,235748,1,0
Sprite,Foreground,Centre,"sb\highlight2.png",320,240 M,0,235349,235849,68,81 F,0,235349,235849,1,0
Sprite,Foreground,Centre,"sb\highlight2.png",320,240 M,0,235552,236052,360,60 F,0,235552,236052,1,0
Sprite,Foreground,Centre,"sb\highlight2.png",320,240 M,0,235653,236153,356,80 F,0,235653,236153,1,0
Sprite,Foreground,Centre,"sb\highlight2.png",320,240 M,0,235957,236457,562,312 F,0,235957,236457,1,0
Sprite,Foreground,Centre,"sb\highlight2.png",320,240 M,0,236261,236761,347,286 F,0,236261,236761,1,0
Sprite,Foreground,Centre,"sb\highlight2.png",320,240 M,0,236464,236964,548,425 F,0,236464,236964,1,0
Sprite,Foreground,Centre,"sb\highlight2.png",320,240 M,0,236667,237167,324,388 F,0,236667,237167,1,0
Sprite,Foreground,Centre,"sb\highlight2.png",320,240 M,0,236869,237369,190,198 F,0,236869,237369,1,0
Sprite,Foreground,Centre,"sb\highlight2.png",320,240 M,0,236971,237471,196,217 F,0,236971,237471,1,0
Sprite,Foreground,Centre,"sb\highlight2.png",320,240 M,0,237173,237673,311,80 F,0,237173,237673,1,0
Sprite,Foreground,Centre,"sb\highlight2.png",320,240 M,0,237275,237775,316,100 F,0,237275,237775,1,0
Sprite,Foreground,Centre,"sb\highlight2.png",320,240 M,0,237579,238079,68,97 F,0,237579,238079,1,0
Sprite,Foreground,Centre,"sb\highlight2.png",320,240 M,0,237883,238383,207,423 F,0,237883,238383,1,0
Sprite,Foreground,Centre,"sb\highlight2.png",320,240 M,0,238086,238586,347,287 F,0,238086,238586,1,0
Sprite,Foreground,Centre,"sb\highlight2.png",320,240 M,0,238288,238788,400,92 F,0,238288,238788,1,0
Sprite,Foreground,Centre,"sb\highlight2.png",320,240 M,0,238491,238991,558,338 F,0,238491,238991,1,0
Sprite,Foreground,Centre,"sb\highlight2.png",320,240 M,0,238592,239092,554,317 F,0,238592,239092,1,0
Sprite,Foreground,Centre,"sb\highlight2.png",320,240 M,0,238795,239295,430,421 F,0,238795,239295,1,0
Sprite,Foreground,Centre,"sb\highlight2.png",320,240 M,0,238896,239396,411,412 F,0,238896,239396,1,0
Sprite,Foreground,Centre,"sb\highlight2.png",320,240 M,0,239200,239700,76,251 F,0,239200,239700,1,0
Sprite,Foreground,Centre,"sb\highlight2.png",320,240 M,0,239504,240004,315,409 F,0,239504,240004,1,0
Sprite,Foreground,Centre,"sb\highlight2.png",320,240 M,0,239707,240207,360,186 F,0,239707,240207,1,0
Sprite,Foreground,Centre,"sb\highlight2.png",320,240 M,0,239910,240410,452,60 F,0,239910,240410,1,0
Sprite,Foreground,Centre,"sb\highlight2.png",320,240 M,0,240113,240613,576,131 F,0,240113,240613,1,0
Sprite,Foreground,Centre,"sb\highlight2.png",320,240 M,0,240214,240714,577,152 F,0,240214,240714,1,0
Sprite,Foreground,Centre,"sb\highlight2.png",320,240 M,0,240417,240917,437,298 F,0,240417,240917,1,0
Sprite,Foreground,Centre,"sb\highlight2.png",320,240 M,0,240518,241018,431,318 F,0,240518,241018,1,0
Sprite,Foreground,Centre,"sb\highlight2.png",320,240 M,0,240822,241322,462,164 F,0,240822,241322,1,0
Sprite,Foreground,Centre,"sb\highlight2.png",320,240 M,0,241126,241626,68,122 F,0,241126,241626,1,0
Sprite,Foreground,Centre,"sb\highlight4.png",320,240 F,0,228356,228856,1,0 MY,0,228356,228856,159
Sprite,Foreground,Centre,"sb\highlight4.png",320,240 F,0,228660,229160,1,0 MY,0,228660,229160,105
Sprite,Foreground,Centre,"sb\highlight4.png",320,240 F,0,228761,229261,1,0 MY,0,228761,229261,91
Sprite,Foreground,Centre,"sb\highlight4.png",320,240 F,0,228964,229464,1,0 MY,0,228964,229464,256
Sprite,Foreground,Centre,"sb\highlight4.png",320,240 F,0,229167,229667,1,0 MY,0,229167,229667,115
Sprite,Foreground,Centre,"sb\highlight4.png",320,240 F,0,229471,229971,1,0 MY,0,229471,229971,444
Sprite,Foreground,Centre,"sb\highlight4.png",320,240 F,0,229673,230173,1,0 MY,0,229673,230173,150
Sprite,Foreground,Centre,"sb\highlight4.png",320,240 F,0,229775,230275,1,0 MY,0,229775,230275,167
Sprite,Foreground,Centre,"sb\highlight4.png",320,240 F,0,229977,230477,1,0 MY,0,229977,230477,327
Sprite,Foreground,Centre,"sb\highlight4.png",320,240 F,0,230282,230782,1,0 MY,0,230282,230782,412
Sprite,Foreground,Centre,"sb\highlight4.png",320,240 F,0,230383,230883,1,0 MY,0,230383,230883,418
Sprite,Foreground,Centre,"sb\highlight4.png",320,240 F,0,230586,231086,1,0 MY,0,230586,231086,208
Sprite,Foreground,Centre,"sb\highlight4.png",320,240 F,0,230788,231288,1,0 MY,0,230788,231288,410
Sprite,Foreground,Centre,"sb\highlight4.png",320,240 F,0,230991,231491,1,0 MY,0,230991,231491,302
Sprite,Foreground,Centre,"sb\highlight4.png",320,240 F,0,231194,231694,1,0 MY,0,231194,231694,157
Sprite,Foreground,Centre,"sb\highlight4.png",320,240 F,0,231295,231795,1,0 MY,0,231295,231795,157
Sprite,Foreground,Centre,"sb\highlight4.png",320,240 F,0,231396,231896,1,0 MY,0,231396,231896,157
Sprite,Foreground,Centre,"sb\highlight4.png",320,240 F,0,231599,232099,1,0 MY,0,231599,232099,321
Sprite,Foreground,Centre,"sb\highlight4.png",320,240 F,0,231903,232403,1,0 MY,0,231903,232403,348
Sprite,Foreground,Centre,"sb\highlight4.png",320,240 F,0,232004,232504,1,0 MY,0,232004,232504,329
Sprite,Foreground,Centre,"sb\highlight4.png",320,240 F,0,232207,232707,1,0 MY,0,232207,232707,75
Sprite,Foreground,Centre,"sb\highlight4.png",320,240 F,0,232410,232910,1,0 MY,0,232410,232910,107
Sprite,Foreground,Centre,"sb\highlight4.png",320,240 F,0,232714,233214,1,0 MY,0,232714,233214,203
Sprite,Foreground,Centre,"sb\highlight4.png",320,240 F,0,232917,233417,1,0 MY,0,232917,233417,293
Sprite,Foreground,Centre,"sb\highlight4.png",320,240 F,0,233018,233518,1,0 MY,0,233018,233518,307
Sprite,Foreground,Centre,"sb\highlight4.png",320,240 F,0,233221,233721,1,0 MY,0,233221,233721,444
Sprite,Foreground,Centre,"sb\highlight4.png",320,240 F,0,233525,234025,1,0 MY,0,233525,234025,152
Sprite,Foreground,Centre,"sb\highlight4.png",320,240 F,0,233626,234126,1,0 MY,0,233626,234126,139
Sprite,Foreground,Centre,"sb\highlight4.png",320,240 F,0,233829,234329,1,0 MY,0,233829,234329,140
Sprite,Foreground,Centre,"sb\highlight4.png",320,240 F,0,234032,234532,1,0 MY,0,234032,234532,373
Sprite,Foreground,Centre,"sb\highlight4.png",320,240 F,0,234133,234633,1,0 MY,0,234133,234633,365
Sprite,Foreground,Centre,"sb\highlight4.png",320,240 F,0,234234,234734,1,0 MY,0,234234,234734,354
Sprite,Foreground,Centre,"sb\highlight4.png",320,240 F,0,234336,234836,1,0 MY,0,234336,234836,343
Sprite,Foreground,Centre,"sb\highlight4.png",320,240 F,0,234437,234937,1,0 MY,0,234437,234937,343
Sprite,Foreground,Centre,"sb\highlight4.png",320,240 F,0,234538,235038,1,0 MY,0,234538,235038,370
Sprite,Foreground,Centre,"sb\highlight4.png",320,240 F,0,234640,235140,1,0 MY,0,234640,235140,415
Sprite,Foreground,Centre,"sb\highlight4.png",320,240 F,0,234741,235241,1,0 MY,0,234741,235241,423
Sprite,Foreground,Centre,"sb\highlight4.png",320,240 F,0,234842,235342,1,0 MY,0,234842,235342,375
Sprite,Foreground,Centre,"sb\highlight4.png",320,240 F,0,235045,235545,1,0 MY,0,235045,235545,272
Sprite,Foreground,Centre,"sb\highlight4.png",320,240 F,0,235248,235748,1,0 MY,0,235248,235748,66
Sprite,Foreground,Centre,"sb\highlight4.png",320,240 F,0,235349,235849,1,0 MY,0,235349,235849,81
Sprite,Foreground,Centre,"sb\highlight4.png",320,240 F,0,235552,236052,1,0 MY,0,235552,236052,60
Sprite,Foreground,Centre,"sb\highlight4.png",320,240 F,0,235653,236153,1,0 MY,0,235653,236153,80
Sprite,Foreground,Centre,"sb\highlight4.png",320,240 F,0,235957,236457,1,0 MY,0,235957,236457,312
Sprite,Foreground,Centre,"sb\highlight4.png",320,240 F,0,236261,236761,1,0 MY,0,236261,236761,286
Sprite,Foreground,Centre,"sb\highlight4.png",320,240 F,0,236464,236964,1,0 MY,0,236464,236964,425
Sprite,Foreground,Centre,"sb\highlight4.png",320,240 F,0,236667,237167,1,0 MY,0,236667,237167,388
Sprite,Foreground,Centre,"sb\highlight4.png",320,240 F,0,236869,237369,1,0 MY,0,236869,237369,198
Sprite,Foreground,Centre,"sb\highlight4.png",320,240 F,0,236971,237471,1,0 MY,0,236971,237471,217
Sprite,Foreground,Centre,"sb\highlight4.png",320,240 F,0,237173,237673,1,0 MY,0,237173,237673,80
Sprite,Foreground,Centre,"sb\highlight4.png",320,240 F,0,237275,237775,1,0 MY,0,237275,237775,100
Sprite,Foreground,Centre,"sb\highlight4.png",320,240 F,0,237579,238079,1,0 MY,0,237579,238079,97
Sprite,Foreground,Centre,"sb\highlight4.png",320,240 F,0,237883,238383,1,0 MY,0,237883,238383,423
Sprite,Foreground,Centre,"sb\highlight4.png",320,240 F,0,238086,238586,1,0 MY,0,238086,238586,287
Sprite,Foreground,Centre,"sb\highlight4.png",320,240 F,0,238288,238788,1,0 MY,0,238288,238788,92
Sprite,Foreground,Centre,"sb\highlight4.png",320,240 F,0,238491,238991,1,0 MY,0,238491,238991,338
Sprite,Foreground,Centre,"sb\highlight4.png",320,240 F,0,238592,239092,1,0 MY,0,238592,239092,317
Sprite,Foreground,Centre,"sb\highlight4.png",320,240 F,0,238795,239295,1,0 MY,0,238795,239295,421
Sprite,Foreground,Centre,"sb\highlight4.png",320,240 F,0,238896,239396,1,0 MY,0,238896,239396,412
Sprite,Foreground,Centre,"sb\highlight4.png",320,240 F,0,239200,239700,1,0 MY,0,239200,239700,251
Sprite,Foreground,Centre,"sb\highlight4.png",320,240 F,0,239504,240004,1,0 MY,0,239504,240004,409
Sprite,Foreground,Centre,"sb\highlight4.png",320,240 F,0,239707,240207,1,0 MY,0,239707,240207,186
Sprite,Foreground,Centre,"sb\highlight4.png",320,240 F,0,239910,240410,1,0 MY,0,239910,240410,60
Sprite,Foreground,Centre,"sb\highlight4.png",320,240 F,0,240113,240613,1,0 MY,0,240113,240613,131
Sprite,Foreground,Centre,"sb\highlight4.png",320,240 F,0,240214,240714,1,0 MY,0,240214,240714,152
Sprite,Foreground,Centre,"sb\highlight4.png",320,240 F,0,240417,240917,1,0 MY,0,240417,240917,298
Sprite,Foreground,Centre,"sb\highlight4.png",320,240 F,0,240518,241018,1,0 MY,0,240518,241018,318
Sprite,Foreground,Centre,"sb\highlight4.png",320,240 F,0,240822,241322,1,0 MY,0,240822,241322,164
Sprite,Foreground,Centre,"sb\highlight4.png",320,240 F,0,241126,241626,1,0 MY,0,241126,241626,122
Sprite,Foreground,Centre,"sb\highlight4.png",320,240 M,0,241331,241831,320,84 F,0,241331,241831,1,0
Sprite,Foreground,Centre,"sb\highlight4.png",320,240 M,0,242142,242642,320,227 F,0,242142,242642,1,0
Sprite,Foreground,Centre,"sb\highlight4.png",320,240 M,0,242952,243452,320,373 F,0,242952,243452,1,0
Sprite,Foreground,Centre,"sb\highlight4.png",320,240 M,0,243763,244263,320,401 F,0,243763,244263,1,0
Sprite,Foreground,Centre,"sb\highlight4.png",320,240 M,0,244574,245074,320,217 F,0,244574,245074,1,0
Sprite,Foreground,Centre,"sb\highlight2.png",320,240 M,0,241331,241831,324,84 F,0,241331,241831,1,0
Sprite,Foreground,Centre,"sb\highlight2.png",320,240 M,0,242142,242642,406,227 F,0,242142,242642,1,0
Sprite,Foreground,Centre,"sb\highlight2.png",320,240 M,0,242952,243452,335,373 F,0,242952,243452,1,0
Sprite,Foreground,Centre,"sb\highlight2.png",320,240 M,0,243763,244263,173,401 F,0,243763,244263,1,0
Sprite,Foreground,Centre,"sb\highlight2.png",320,240 M,0,244574,245074,214,217 F,0,244574,245074,1,0
//Storyboard Sound Samples

[TimingPoints]
543,402.684563758389,4,2,0,55,1,0
543,-200,4,2,0,55,0,0
3764,408.163265306122,4,2,0,55,1,0
7029,404.040404040404,4,2,0,55,1,0
7029,-200,4,2,0,55,0,0
10261,404.040404040404,4,2,0,55,1,0
16725,405.405405405405,4,2,0,45,1,0
16725,-142.857142857143,4,2,0,45,0,0
17535,-142.857142857143,4,2,0,65,0,0
20373,454.545454545455,4,2,0,55,1,0
20827,397.350993377483,4,2,0,55,1,0
20827,-142.857142857143,4,2,0,55,0,0
22416,410.958904109589,4,2,0,55,1,0
22416,-142.857142857143,4,2,0,55,0,0
23648,-142.857142857143,4,2,0,65,0,0
24059,402.684563758389,4,2,0,55,1,0
25669,400,4,2,0,55,1,0
27269,408.163265306122,4,2,0,55,1,0
30534,402.684563758389,4,2,0,55,1,0
33755,418.118466898955,4,2,0,55,1,0
34591,400,4,2,0,55,1,0
34991,428.571428571429,4,2,0,55,1,0
35419,397.350993377483,4,2,0,55,1,0
37008,410.958904109589,4,2,0,55,1,0
38651,402.684563758389,4,2,0,55,1,0
43483,406.779661016949,4,2,0,55,1,0
43483,-142.857142857143,4,2,0,55,0,0
45110,405.405405405405,4,2,0,55,1,0
45920,-142.857142857143,4,2,0,55,0,0
47947,444.444444444444,4,2,0,65,1,0
47947,-142.857142857143,4,2,0,65,0,0
48391,397.350993377483,4,2,0,55,1,0
48391,-100,4,2,0,55,0,0
49583,384.615384615385,4,2,0,55,1,0
49967,444.444444444444,4,2,0,55,1,0
50411,397.350993377483,4,2,0,55,1,0
51603,397.350993377483,4,2,0,55,1,0
53006,422.535211267606,4,2,0,55,1,0
53217,405.405405405405,4,2,0,55,1,0
56460,-200,4,2,0,65,0,0
66189,408.163265306122,4,2,0,55,1,0
66189,-142.857142857143,4,2,0,55,0,0
67821,406.779661016949,4,2,0,55,1,0
67821,-142.857142857143,4,2,0,55,0,0
69448,404.040404040404,4,2,0,55,1,0
69448,-133.333333333333,4,2,0,55,0,0
71064,404.040404040404,4,2,0,55,1,0
71064,-133.333333333333,4,2,0,55,0,0
72276,406.779661016949,4,2,0,55,1,0
72276,-133.333333333333,4,2,0,55,0,0
72682,405.405405405405,4,2,0,65,1,0
72682,-100,4,2,0,65,0,0
79168,-125,4,2,0,55,0,0
84844,-125,4,2,0,70,0,0
85654,-62.5,4,2,0,85,0,1
98627,-83.3333333333333,4,2,0,85,0,0
107547,-83.3333333333333,4,2,0,80,0,0
108358,-83.3333333333333,4,2,0,85,0,0
110790,-83.3333333333333,4,2,0,85,0,0
112412,-83.3333333333333,4,2,0,75,0,0
113223,-83.3333333333333,4,2,0,65,0,0
114034,-83.3333333333333,4,2,0,55,0,0
114439,-83.3333333333333,4,2,0,45,0,0
114844,406.779661016949,4,2,0,45,1,0
114844,-142.857142857143,4,2,0,45,0,0
116471,406.779661016949,4,2,0,45,1,0
116471,-142.857142857143,4,2,0,45,0,0
117691,405.405405405405,4,2,0,45,1,0
118075,-133.333333333333,4,2,0,45,0,0
118096,405.405405405405,4,2,0,55,1,0
120528,-133.333333333333,4,2,0,55,0,0
121318,405.405405405405,4,2,0,65,1,0
121318,-111.111111111111,4,2,0,65,0,0
122954,408.163265306122,4,2,0,55,1,0
122954,-111.111111111111,4,2,0,55,0,0
123770,397.350993377483,4,2,0,55,1,0
124366,480,4,2,0,55,1,0
124606,397.350993377483,4,2,0,55,1,0
124606,-111.111111111111,4,2,0,55,0,0
126195,404.040404040404,4,2,0,55,1,0
126195,-111.111111111111,4,2,0,55,0,0
127811,409.556313993174,4,2,0,55,1,0
127811,-111.111111111111,4,2,0,55,0,0
129449,410.958904109589,4,2,0,55,1,0
129449,-111.111111111111,4,2,0,55,0,0
130681,-100,4,2,0,65,0,0
131047,-100,4,2,0,65,0,0
131092,393.44262295082,4,2,0,65,1,0
132665,405.405405405405,4,2,0,65,1,0
134286,418.118466898955,4,2,0,65,1,0
135958,379.746835443038,4,2,0,65,1,0
136337,412.371134020619,4,2,0,65,1,0
136749,402.684563758389,4,2,0,65,1,0
137151,402.684563758389,4,2,0,65,1,0
137553,402.684563758389,4,2,0,65,1,0
139163,408.163265306122,4,2,0,65,1,0
140795,405.405405405405,4,2,0,65,1,0
142416,397.350993377483,4,2,0,70,1,0
144005,412.371134020619,4,2,0,70,1,0
144211,-200,4,2,0,55,0,0
145653,412.371134020619,4,2,0,55,1,0
146477,399.371134020619,4,2,0,55,1,0
146477,-200,4,2,0,55,0,0
147275,408.163265306122,4,2,0,70,1,0
147275,-100,4,2,0,70,0,0
148907,402.684563758389,4,2,0,70,1,0
150517,401.606425702811,4,2,0,70,1,0
150517,-200,4,2,0,55,0,0
152123,418.702023726448,4,2,0,55,1,0
152541,435.729847494553,4,2,0,55,1,0
152976,397.350993377483,4,2,0,55,1,0
153770,406.779661016949,4,2,0,70,1,0
153770,-100,4,2,0,70,0,0
155397,402.684563758389,4,2,0,70,1,0
157007,405.405405405405,4,2,0,85,1,1
157007,-62.5,4,2,0,85,0,1
169979,-83.3333333333333,4,2,0,85,0,0
176466,-83.3333333333333,4,2,0,85,0,0
179710,-83.3333333333333,4,2,0,85,0,0
183156,-83.3333333333333,4,2,0,75,0,0
189844,-55.5555555555556,4,2,0,85,0,1
194304,-66.6666666666667,4,2,0,85,0,1
195925,-83.3333333333333,4,2,0,75,0,0
208898,-71.4285714285714,4,2,0,95,0,1
221263,-71.4285714285714,4,2,0,97,0,1
221466,-71.4285714285714,4,2,0,99,0,1
221669,-71.4285714285714,4,2,0,100,0,1
221871,-142.857142857143,4,2,0,85,0,0
228358,-71.4285714285714,4,2,0,95,0,1
241331,-83.3333333333333,4,2,0,85,0,1
244574,-71.4285714285714,4,2,0,85,0,0

[Colours]
Combo1 : 255,168,125
Combo2 : 114,0,38
Combo3 : 102,51,102
Combo4 : 198,130,130
Combo5 : 204,153,204
Combo6 : 255,77,166
Combo7 : 255,104,104
Combo8 : 255,153,204

[HitObjects]
409,146,543,6,0,L|465:130,7,37.5,4|0|0|0|0|0|0|0,0:0|0:0|0:0|0:0|0:0|0:0|0:0|0:0,0:0:0:0:
452,229,1348,2,0,L|497:265,7,37.5,4|0|0|0|0|0|0|0,0:0|0:0|0:0|0:0|0:0|0:0|0:0|0:0,0:0:0:0:
404,319,2153,2,0,L|399:377,7,37.5,4|0|0|0|0|0|0|0,0:0|0:0|0:0|0:0|0:0|0:0|0:0|0:0,0:0:0:0:
304,327,2959,2,0,L|254:356,7,37.5,4|0|0|0|0|0|0|0,0:0|0:0|0:0|0:0|0:0|0:0|0:0|0:0,0:0:0:0:
243,249,3764,5,4,0:0:0:0:
52,197,7029,5,4,0:0:0:0:
481,52,7837,1,4,0:0:0:0:
356,362,8645,1,4,0:0:0:0:
121,21,9453,2,0,L|114:78,7,37.5,4|0|0|0|0|0|0|0,0:0|0:0|0:0|0:0|0:0|0:0|0:0|0:0,0:0:0:0:
237,66,10261,5,4,0:0:0:0:
471,181,13493,69,4,0:0:0:0:
92,100,14301,1,4,0:0:0:0:
312,16,15109,1,4,0:0:0:0:
129,310,15917,1,4,0:0:0:0:
308,89,16725,6,0,L|303:150,3,52.4999983978272,2|0|0|0,0:0|0:0|0:0|0:0,0:0:0:0:
398,132,17130,2,0,L|402:184,3,52.4999983978272,2|0|0|0,0:0|0:0|0:0|0:0,0:0:0:0:
466,70,17535,5,4,0:0:0:0:
167,367,20827,5,8,0:3:0:0:
175,362,20926,1,0,0:0:0:0:
181,354,21025,2,0,P|193:321|195:300,2,52.4999983978272
343,329,21323,1,8,0:3:0:0:
329,316,21423,2,0,P|317:283|315:262,1,52.4999983978272,8|0,3:0|0:0,0:0:0:0:
221,266,21621,70,0,P|225:232|224:195,1,52.4999983978272,8|0,0:3|0:0,0:0:0:0:
282,228,21820,2,0,P|278:194|279:157,1,52.4999983978272
239,153,22019,2,0,P|228:121|207:93,1,52.4999983978272,8|0,0:3|0:0,0:0:0:0:
276,111,22217,2,0,P|283:79|303:50,1,52.4999983978272
185,65,22416,5,8,0:3:0:0:
174,61,22518,1,0,0:0:0:0:
164,59,22621,2,0,P|133:53|91:60,2,52.4999983978272
330,32,22929,1,0,0:0:0:0:
340,30,23032,2,0,P|370:24|412:31,1,52.4999983978272,8|0,3:0|0:0,0:0:0:0:
120,139,23237,6,0,P|110:170|104:213,1,52.4999983978272,8|0,0:3|0:0,0:0:0:0:
397,192,23443,2,0,P|407:223|413:266,1,52.4999983978272
244,360,23648,86,0,B|226:276|271:291|247:205,1,157.499995193482,0|0,1:0|0:0,0:0:0:0:
247,205,24059,6,0,P|178:176|90:198,1,150,4|0,2:2|0:0,0:0:0:0:
13,237,24361,1,0,0:0:0:0:
21,250,24461,2,0,P|70:198|56:116,1,150,0|0,1:0|0:0,0:0:0:0:
21,22,24763,1,0,3:0:0:0:
34,29,24864,2,0,P|78:40|124:40,1,75,0|0,3:0|0:0,0:0:0:0:
172,111,25065,2,0,P|208:101|246:99,1,75
367,36,25267,2,0,L|358:110,1,75,0|0,1:0|0:0,0:0:0:0:
298,201,25468,1,0,0:0:0:0:
298,201,25569,1,0,0:0:0:0:
298,201,25669,6,0,L|308:291,1,75,0|0,3:0|0:0,0:0:0:0:
355,356,25869,2,0,P|401:366|445:360,1,75
512,231,26069,2,0,P|426:228|399:301,1,150,0|0,1:0|0:0,0:0:0:0:
355,356,26369,1,0,0:0:0:0:
342,363,26469,2,0,B|268:380|287:331|195:345,1,150,0|0,3:0|0:0,0:0:0:0:
106,357,26769,1,0,0:0:0:0:
93,364,26869,2,0,P|101:302|100:269,1,75,0|0,1:0|3:0,0:0:0:0:
26,178,27069,2,0,P|18:240|19:273,1,75,0|0,1:0|3:0,0:0:0:0:
144,103,27269,6,0,B|212:141|296:134,1,150,2|0,3:0|0:0,0:0:0:0:
385,172,27575,1,0,0:0:0:0:
373,181,27677,2,0,B|341:201|324:236,1,75,0|0,1:0|0:0,0:0:0:0:
235,278,27881,1,0,0:0:0:0:
235,278,27983,1,0,3:0:0:0:
235,278,28085,2,0,L|214:111,1,150,0|0,3:0|0:0,0:0:0:0:
309,109,28391,1,0,0:0:0:0:
312,94,28493,2,0,L|327:7,1,75,0|0,1:0|0:0,0:0:0:0:
234,0,28697,2,0,P|194:5|142:24,1,75,0|0,3:0|0:0,0:0:0:0:
54,88,28901,69,0,3:0:0:0:
54,88,29003,1,0,0:0:0:0:
54,88,29105,2,0,P|94:93|146:112,1,75
216,129,29309,2,0,P|205:181|201:223,1,75,0|0,1:0|0:0,0:0:0:0:
113,194,29513,2,0,P|124:246|128:288,1,75
0,303,29717,2,0,P|28:269|157:304,1,150,0|0,3:0|0:0,0:0:0:0:
186,352,30024,1,0,0:0:0:0:
175,361,30126,2,0,P|139:366|101:367,1,75,0|0,1:0|0:0,0:0:0:0:
265,306,30330,2,0,P|302:312|340:313,1,75,0|0,1:0|0:0,0:0:0:0:
468,289,30534,6,0,P|481:215|481:140,1,150,2|0,3:2|0:0,0:0:0:0:
374,48,30836,1,0,0:0:0:0:
366,60,30936,2,0,P|320:81|276:82,1,75
296,173,31138,1,0,3:0:0:0:
296,173,31238,1,0,0:0:0:0:
296,173,31339,2,0,P|207:143|128:141,1,150,0|0,3:0|0:0,0:0:0:0:
74,186,31641,1,0,0:0:0:0:
67,199,31742,2,0,P|56:231|54:290,1,75,0|0,1:0|0:0,0:0:0:0:
151,139,31943,2,0,P|147:101|136:66,1,75,0|0,3:0|0:0,0:0:0:0:
0,23,32144,5,0,3:0:0:0:
0,23,32245,1,0,0:0:0:0:
0,23,32346,2,0,P|35:21|68:1,1,75
233,55,32547,2,0,P|310:57|382:82,1,150,0|0,1:0|0:0,0:0:0:0:
501,27,32849,1,0,0:0:0:0:
493,39,32950,2,0,P|467:100|466:193,1,150,0|0,3:0|0:0,0:0:0:0:
382,277,33252,1,0,0:0:0:0:
385,262,33352,2,0,P|378:207|361:172,1,75,0|0,0:1|0:0,0:0:0:0:
493,270,33554,2,0,P|481:305|480:343,1,75,0|0,0:1|0:0,0:0:0:0:
337,380,33755,6,0,P|280:350|174:334,1,150,2|0,3:2|0:0,0:0:0:0:
107,380,34068,1,0,0:0:0:0:
103,366,34173,2,0,L|78:288,1,75,2|0,1:2|0:0,0:0:0:0:
190,175,34382,1,0,0:0:0:0:
190,175,34486,1,0,0:0:0:0:
190,175,34591,2,0,P|176:209|168:246,1,75,2|0,3:2|0:0,0:0:0:0:
79,190,34791,2,0,P|43:209|-14:213,1,75
3,42,34991,2,0,P|66:41|123:106,1,150,2|0,1:2|0:0,0:0:0:0:
211,57,35312,1,0,0:0:0:0:
222,66,35419,70,0,P|278:69|313:66,1,75,2|0,3:2|0:0,0:0:0:0:
372,0,35617,2,0,P|395:39|390:103,1,75
495,99,35816,2,0,P|473:194|473:273,1,150,2|0,1:2|0:0,0:0:0:0:
453,348,36114,1,0,0:0:0:0:
438,344,36213,2,0,P|391:311|375:273,1,75,2|0,1:2|0:0,0:0:0:0:
285,294,36412,2,0,L|294:219,1,75
391,170,36611,2,0,L|382:96,1,75,2|0,1:2|0:0,0:0:0:0:
293,48,36809,2,0,L|297:-2,3,37.5
270,79,37008,6,0,P|238:62|189:60,1,75,4|0,0:0|0:0,0:0:0:0:
86,22,37213,2,0,L|103:121,1,75
174,206,37418,1,0,1:0:0:0:
151,226,37521,1,0,0:0:0:0:
124,212,37624,2,0,P|84:202|22:201,1,75
73,315,37829,5,0,0:0:0:0:
73,315,37932,2,0,P|32:324|-14:325,2,75
187,324,38240,2,0,P|212:354|239:403,1,75,0|0,1:0|0:0,0:0:0:0:
275,262,38446,2,0,P|311:270|351:269,1,75,0|0,1:0|0:0,0:0:0:0:
448,187,38651,5,0,0:0:0:0:
465,211,38751,1,0,0:0:0:0:
460,240,38852,2,0,P|451:276|446:313,1,75
342,186,39053,2,0,P|336:148|328:112,1,75,0|0,1:0|0:0,0:0:0:0:
389,29,39255,2,0,P|425:35|479:65,1,75
332,118,39456,69,0,0:0:0:0:
332,118,39557,2,0,P|298:124|233:128,2,75
180,7,39859,2,0,P|174:41|170:106,1,75,0|0,1:0|0:0,0:0:0:0:
141,208,40060,1,2,0:0:0:0:
141,208,40161,1,2,0:0:0:0:
141,208,40261,6,0,P|111:224|43:218,1,75,2|0,0:0|0:0,0:0:0:0:
0,152,40463,2,0,L|11:71,1,75
123,0,40664,1,0,1:0:0:0:
150,13,40765,1,0,0:0:0:0:
180,7,40865,2,0,L|196:91,1,75
279,181,41067,5,0,0:0:0:0:
279,181,41167,2,0,P|327:184|369:168,2,75
207,252,41469,2,0,P|189:287|180:330,1,75,0|0,1:0|0:0,0:0:0:0:
293,310,41671,2,0,P|288:349|294:392,1,75
394,328,41872,5,0,1:0:0:0:
502,205,42073,1,0,1:0:0:0:
502,205,42174,2,0,P|511:249|512:293,1,75,0|0,1:0|0:0,0:0:0:0:
362,102,42375,1,0,1:0:0:0:
362,102,42476,2,0,P|353:146|352:190,1,75,0|0,1:0|0:0,0:0:0:0:
394,328,42677,69,0,1:0:0:0:
370,309,42778,1,0,1:0:0:0:
341,300,42879,1,0,1:0:0:0:
311,306,42979,1,0,1:0:0:0:
253,364,43080,5,0,1:0:0:0:
209,373,43181,1,0,1:0:0:0:
164,362,43281,1,0,1:0:0:0:
131,331,43382,1,0,1:0:0:0:
94,261,43483,5,4,0:1:0:0:
94,261,44093,5,0,0:0:0:0:
94,261,44296,1,0,0:0:0:0:
94,261,44906,69,0,0:0:0:0:
94,261,45110,1,0,0:0:0:0:
94,261,45718,5,0,0:0:0:0:
94,261,45920,2,0,B|191:286|156:236|249:261,2,157.499995193482,2|2|2,0:0|0:0|0:0,0:0:0:0:
357,340,46731,2,0,P|386:264|388:219,1,104.999996795654,8|0,3:0|0:0,0:0:0:0:
356,173,47035,2,0,P|432:202|477:204,1,104.999996795654,8|0,1:3|0:0,0:0:0:0:
512,257,47339,2,0,L|487:42,1,209.999993591309,2|0,0:1|0:0,0:0:0:0:
485,34,47846,1,0,0:0:0:0:
483,20,47947,2,0,P|407:49|362:51,1,104.999996795654
298,54,48280,1,0,0:0:0:0:
284,47,48391,6,0,L|292:141,1,75,0|0,3:0|0:0,0:0:0:0:
203,0,48589,2,0,L|195:94,1,75
121,185,48788,1,0,1:0:0:0:
121,185,48887,1,0,0:0:0:0:
121,185,48987,2,0,P|107:145|109:89,1,75
171,271,49185,2,0,B|125:272|125:272|70:294|70:294|25:293,1,150,0|0,3:0|0:0,0:0:0:0:
256,204,49583,2,0,P|275:263|272:298,1,75,0|0,1:0|0:0,0:0:0:0:
117,384,49775,2,0,P|98:325|101:290,1,75,0|0,1:0|0:0,0:0:0:0:
237,377,49967,6,0,L|330:357,1,75,2|0,3:2|0:0,0:0:0:0:
441,242,50189,2,0,L|348:226,1,75
353,81,50411,1,0,1:0:0:0:
353,81,50510,1,0,0:0:0:0:
353,81,50609,2,0,L|368:232,1,150,0|0,0:0|3:0,0:0:0:0:
369,245,50907,1,0,0:0:0:0:
369,259,51007,2,0,P|325:286|277:281,1,75
183,226,51205,1,0,1:0:0:0:
197,223,51305,2,0,P|254:258|237:335,1,150,0|0,1:0|0:0,0:0:0:0:
167,384,51603,70,0,P|133:372|73:365,1,75,0|0,3:0|0:0,0:0:0:0:
0,271,51801,2,0,P|36:264|72:252,1,75
145,138,52000,1,0,1:0:0:0:
145,138,52099,1,0,0:0:0:0:
145,138,52199,2,0,P|108:131|72:119,1,75
11,28,52397,2,0,L|29:206,1,150,8|0,3:3|0:0,0:0:0:0:
126,286,52695,2,0,L|145:131,1,150,8|0,3:0|0:0,0:0:0:0:
262,97,53006,2,0,L|270:197,1,75,8|0,3:0|0:0,0:0:0:0:
391,129,53217,5,4,1:0:0:0:
26,177,54027,5,8,0:3:0:0:
26,177,54129,1,8,0:3:0:0:
145,137,54331,1,8,0:3:0:0:
145,137,54433,1,8,0:3:0:0:
267,171,54635,1,8,0:3:0:0:
391,129,54838,5,4,1:0:0:0:
494,296,55649,69,8,0:3:0:0:
494,296,55750,1,8,0:3:0:0:
375,256,55953,1,8,0:3:0:0:
375,256,56054,1,8,0:3:0:0:
253,290,56257,1,8,0:3:0:0:
129,248,56460,6,0,P|145:298|149:382,2,112.5,4|0|0,1:0|0:0|0:0,0:0:0:0:
36,163,57271,1,8,0:3:0:0:
21,165,57372,1,8,0:3:0:0:
113,67,57575,1,8,0:3:0:0:
111,51,57676,1,8,0:3:0:0:
209,147,57879,1,8,0:3:0:0:
383,136,58081,6,0,P|367:86|363:2,2,112.5,4|0|0,1:0|0:0|0:0,0:0:0:0:
480,229,58892,1,8,0:3:0:0:
495,227,58994,1,8,0:3:0:0:
403,325,59196,1,8,0:3:0:0:
405,339,59298,1,8,0:3:0:0:
303,243,59500,1,8,0:3:0:0:
383,136,59703,5,4,0:0:0:0:
241,327,66189,70,0,L|235:394,1,52.4999983978272,0|0,1:0|0:0,0:0:0:0:
151,274,66495,2,0,L|146:221,1,52.4999983978272,0|0,0:0|1:0,0:0:0:0:
259,168,66801,1,0,0:0:0:0:
274,180,67005,6,0,L|280:247,1,52.4999983978272,0|0,1:0|0:0,0:0:0:0:
364,127,67311,2,0,L|368:74,1,52.4999983978272,0|0,0:0|1:0,0:0:0:0:
256,21,67617,1,0,0:0:0:0:
268,39,67821,6,0,B|280:39|215:34,1,52.4999983978272,0|0,1:0|0:0,0:0:0:0:
153,106,68126,2,0,B|165:105|100:110,1,52.4999983978272,0|0,0:0|1:0,0:0:0:0:
22,171,68431,1,0,0:0:0:0:
36,186,68634,6,0,B|23:186|88:181,1,52.4999983978272,0|0,1:0|0:0,0:0:0:0:
151,253,68939,2,0,B|138:252|203:257,1,52.4999983978272,0|0,0:0|1:0,0:0:0:0:
282,318,69244,1,0,1:0:0:0:
282,318,69346,1,0,1:0:0:0:
282,318,69448,70,0,P|297:274|302:235,2,56.2500021457673,4|0|0,1:2|0:0|0:0,0:0:0:0:
205,152,69751,1,0,0:0:0:0:
205,152,69852,2,0,B|181:196|181:196|203:272,1,112.500004291535,0|0,1:0|0:0,1:0:0:0:
184,361,70155,1,0,0:0:0:0:
184,361,70256,6,0,L|116:350,1,56.2500021457673,0|0,1:0|0:0,0:0:0:0:
10,259,70458,1,0,0:0:0:0:
111,270,70660,2,0,L|-1:283,1,112.500004291535,0|0,1:0|0:0,0:0:0:0:
208,174,71064,6,0,P|220:116|243:44,1,112.500004291535,0|0,1:0|0:0,1:0:0:0:
122,0,71367,1,0,0:0:0:0:
122,0,71468,2,0,P|136:50|143:72,1,56.2500021457673,0|0,1:0|0:0,1:0:0:0:
57,165,71670,2,0,L|120:148,1,56.2500021457673
230,120,71872,6,2,P|234:86|235:58,3,56.2500021457673,2|2|2|2,1:0|1:0|1:0|1:0,1:0:0:0:
259,27,72276,2,2,P|293:31|321:32,3,56.2500021457673,2|2|2|2,1:0|1:0|1:0|1:0,1:0:0:0:
349,11,72682,69,4,1:2:0:0:
349,11,72783,2,0,P|349:92|345:185,1,150
346,160,73087,2,0,P|378:180|429:186,1,75,0|0,1:0|0:0,0:0:0:0:
508,224,73290,1,8,0:3:0:0:
390,347,73492,5,0,1:0:0:0:
389,346,73594,2,0,P|388:308|397:262,1,75
346,160,73796,2,0,B|301:188|301:188|190:173,1,150
204,175,74100,2,0,P|190:140|187:98,1,75,8|0,3:0|0:0,0:0:0:0:
124,8,74303,5,0,1:0:0:0:
124,8,74404,2,0,P|49:27|48:105,1,150
39,90,74709,2,0,P|53:125|56:167,1,75,0|0,1:0|0:0,0:0:0:0:
0,239,74911,1,8,0:3:0:0:
144,196,75114,6,0,P|139:251|139:291,1,75,0|0,1:0|0:0,0:0:0:0:
229,384,75317,1,0,0:0:0:0:
229,384,75418,1,0,0:0:0:0:
229,384,75519,2,0,P|234:329|234:289,1,75,0|0,1:0|0:0,0:0:0:0:
379,184,75722,2,0,P|374:239|374:279,1,75,8|0,0:3|0:0,0:0:0:0:
237,149,75925,69,0,1:0:0:0:
237,149,76026,2,0,P|305:180|401:180,1,150
379,184,76330,2,0,P|390:148|416:89,1,75,0|0,1:0|0:0,0:0:0:0:
481,40,76533,2,0,P|495:74|505:110,1,75,8|0,0:3|0:0,0:0:0:0:
512,280,76736,6,0,P|468:275|423:268,1,75,0|0,1:0|0:0,0:0:0:0:
297,247,76938,1,0,0:0:0:0:
297,247,77040,1,0,0:0:0:0:
297,247,77141,2,0,P|307:294|311:338,1,75,0|0,1:0|0:0,0:0:0:0:
219,172,77344,2,0,P|154:164|114:163,1,75,8|0,0:3|0:0,0:0:0:0:
47,294,77546,5,0,1:0:0:0:
47,294,77648,2,0,P|123:285|203:270,1,150
195,271,77952,2,0,P|186:332|184:372,1,75,0|0,1:0|0:0,0:0:0:0:
47,294,78154,1,8,0:3:0:0:
0,99,78357,6,0,L|81:113,3,75,0|0|0|0,1:0|1:0|1:0|1:0,1:0:0:0:
145,184,78763,2,0,L|226:170,3,75,0|0|0|0,1:0|1:0|1:0|1:0,1:0:0:0:
318,82,79168,70,0,P|316:187|323:233,1,120,2|0,1:2|0:0,0:0:0:0:
408,248,79472,2,0,P|382:275|355:318,1,60,0|2,0:0|1:2,0:0:0:0:
270,331,79675,1,0,0:0:0:0:
273,336,79776,2,0,P|299:363|326:406,1,60
210,253,79979,6,0,P|155:274|64:278,1,120,2|0,1:2|0:0,0:0:0:0:
0,352,80283,2,0,P|56:374|72:384,1,60,0|2,0:0|1:2,0:0:0:0:
78,222,80486,1,0,0:0:0:0:
78,222,80587,2,0,P|92:270|96:308,1,60
187,370,80790,6,0,B|191:306|209:252,1,120,2|0,1:2|0:0,0:0:0:0:
287,191,81094,2,0,P|325:203|360:204,1,60,0|2,0:0|1:2,0:0:0:0:
415,295,81296,1,0,0:0:0:0:
415,295,81398,2,0,P|385:298|357:308,1,60
465,181,81600,6,0,P|455:146|455:105,1,60,2|0,1:2|0:0,0:0:0:0:
374,0,81803,1,0,0:0:0:0:
374,0,81904,2,0,L|361:123,1,120,2|0,0:0|0:0,0:0:0:0:
283,211,82209,1,2,1:2:0:0:
302,225,82310,1,2,1:2:0:0:
325,234,82411,70,0,P|252:236|204:254,1,120,2|0,1:3|0:0,0:0:0:0:
116,191,82715,2,0,P|115:225|117:258,1,60,2|0,0:3|1:2,0:0:0:0:
39,309,82918,1,0,0:0:0:0:
39,309,83019,2,0,P|79:332|110:345,1,60,2|0,0:3|0:0,0:0:0:0:
214,371,83222,6,0,B|256:336|256:336|328:332,1,120,2|0,1:3|0:0,0:0:0:0:
434,384,83526,2,0,P|414:324|400:240,1,120,2|0,0:3|0:0,0:0:0:0:
355,179,83830,2,0,L|284:195,1,60,2|0,0:3|0:0,0:0:0:0:
195,205,84033,5,0,1:0:0:0:
179,199,84134,1,0,1:0:0:0:
163,195,84236,1,0,1:0:0:0:
146,191,84337,1,0,1:0:0:0:
129,187,84438,1,0,1:0:0:0:
112,185,84540,1,0,1:0:0:0:
95,184,84641,1,0,1:0:0:0:
78,183,84742,1,0,1:0:0:0:
2,246,84844,5,0,1:0:0:0:
53,231,84945,1,0,1:0:0:0:
78,183,85046,1,0,1:0:0:0:
71,129,85148,1,0,1:0:0:0:
40,84,85249,1,0,1:0:0:0:
42,29,85350,1,0,1:0:0:0:
89,3,85452,1,0,1:0:0:0:
142,10,85553,1,0,1:0:0:0:
242,2,85654,6,0,P|327:70|462:56,1,240,6|0,1:0|0:0,0:0:0:0:
507,3,86060,2,0,P|452:88|431:250,1,240,2|0,1:0|0:0,0:0:0:0:
498,353,86364,1,0,0:0:0:0:
512,337,86465,6,0,B|475:312|475:312|397:325,1,120,2|0,1:0|0:0,0:0:0:0:
216,344,86668,1,0,0:0:0:0:
205,364,86769,2,0,P|288:365|252:246,1,240,2|0,1:0|0:0,0:0:0:0:
73,141,87073,1,2,1:0:0:0:
91,128,87175,1,0,0:0:0:0:
1,137,87276,6,0,P|123:129|247:106,1,240,2|0,1:0|0:0,0:0:0:0:
409,248,87681,2,0,P|286:224|161:226,1,240,2|0,1:0|0:0,0:0:0:0:
350,54,87986,1,0,0:0:0:0:
360,75,88087,6,0,P|362:142|327:205,1,120,2|0,1:0|0:0,0:0:0:0:
119,311,88290,1,0,0:0:0:0:
132,291,88391,2,0,B|171:224|171:224|268:256|268:256|208:276,1,240,2|0,1:0|0:0,0:0:0:0:
473,312,88695,1,2,1:0:0:0:
465,292,88796,1,0,0:0:0:0:
472,384,88898,70,0,L|459:136,1,240,2|0,1:0|0:0,0:0:0:0:
283,283,89303,2,0,L|300:37,1,240,2|0,1:0|0:0,0:0:0:0:
498,38,89607,1,0,0:0:0:0:
512,20,89709,6,0,P|459:0|390:25,1,120,2|0,1:0|0:0,0:0:0:0:
254,208,89911,1,0,0:0:0:0:
245,230,90013,2,0,B|283:283|283:283|325:204|325:204|276:118,1,240,2|0,1:0|0:0,0:0:0:0:
135,62,90317,1,2,1:0:0:0:
152,76,90418,1,0,0:0:0:0:
63,61,90519,6,0,P|213:65|305:42,1,240,2|0,1:0|1:0,0:0:0:0:
445,36,90823,1,0,0:0:0:0:
432,19,90925,2,0,B|408:72|408:72|439:134,1,120,0|0,1:0|0:0,0:0:0:0:
435,316,91127,2,0,B|473:321|473:321|426:239,1,120,0|0,1:0|0:0,0:0:0:0:
283,158,91330,6,0,B|200:147|128:194|128:194|169:167|171:117,1,240,0|0,1:0|0:0,0:0:0:0:
36,6,91634,1,0,1:0:0:0:
28,29,91736,2,0,B|34:67|59:99|59:99|31:97|-9:57,1,120,0|0,1:0|0:0,0:0:0:0:
138,246,91938,2,0,P|147:191|170:129,1,120,0|0,1:0|0:0,0:0:0:0:
297,57,92141,70,0,P|310:163|341:299,1,240,6|0,1:0|0:0,0:0:0:0:
458,377,92546,2,0,P|441:269|330:316,1,240,2|0,1:0|0:0,0:0:0:0:
462,164,92850,1,0,0:0:0:0:
487,155,92952,6,0,P|503:105|503:31,1,120,2|0,1:0|0:0,0:0:0:0:
243,0,93154,1,0,0:0:0:0:
228,18,93256,2,0,B|184:62|184:62|243:77|243:77|284:116|284:116|300:45,1,240,2|0,1:0|0:0,0:0:0:0:
120,141,93560,1,2,1:0:0:0:
134,157,93661,1,0,0:0:0:0:
50,133,93763,6,0,B|195:166|195:166|266:227,1,240,2|0,1:0|0:0,0:0:0:0:
0,361,94168,2,0,B|5:212|5:212|54:128,1,240,2|0,1:0|0:0,0:0:0:0:
116,8,94472,1,0,0:0:0:0:
134,24,94573,6,0,P|77:31|22:-1,1,120,2|0,1:0|0:0,0:0:0:0:
5,221,94776,1,0,0:0:0:0:
22,208,94877,2,0,B|91:160|179:186|179:186|132:171|119:137,1,240,2|0,1:0|0:0,0:0:0:0:
279,128,95181,1,2,1:0:0:0:
276,151,95283,1,0,0:0:0:0:
223,83,95384,70,0,P|283:207|232:288,1,240,2|0,1:0|0:0,0:0:0:0:
487,383,95790,2,0,P|427:259|477:179,1,240,2|0,1:0|0:0,0:0:0:0:
499,71,96094,1,0,0:0:0:0:
512,89,96195,6,0,P|422:98|381:86,1,120,2|0,1:0|0:0,0:0:0:0:
212,36,96398,1,0,0:0:0:0:
196,21,96499,2,0,P|301:48|202:124,1,240,2|0,1:0|0:0,0:0:0:0:
102,253,96803,1,2,1:0:0:0:
111,233,96904,1,0,0:0:0:0:
102,325,97006,6,0,L|119:80,1,240,2|0,1:0|1:0,0:0:0:0:
23,17,97310,1,0,0:0:0:0:
6,2,97411,6,0,B|10:30|5:56|5:56|18:77|20:125,1,120,2|0,1:0|0:0,0:0:0:0:
231,260,97614,2,0,B|228:231|233:205|233:205|220:184|217:139,1,120,0|0,1:0|0:0,0:0:0:0:
4,223,97817,70,0,P|66:213|123:215,1,120,2|0,1:0|0:0,0:0:0:0:
232,33,98019,2,0,P|170:43|113:41,1,120,2|0,1:0|0:0,0:0:0:0:
364,162,98222,5,0,1:2:0:0:
413,174,98323,1,2,1:2:0:0:
420,125,98425,1,0,1:2:0:0:
370,118,98526,1,0,1:2:0:0:
392,145,98627,6,0,P|403:244|427:327,1,179.999994506836,4|0,1:2|0:0,0:0:0:0:
512,384,98931,1,0,0:0:0:0:
501,370,99033,2,0,P|451:358|395:363,1,89.9999972534181,0|0,1:0|0:0,0:0:0:0:
328,283,99236,2,0,P|278:295|222:290,1,89.9999972534181,2|0,0:2|0:0,0:0:0:0:
169,354,99438,6,0,P|193:279|187:173,1,179.999994506836,2|2,1:2|0:2,0:0:0:0:
254,80,99742,1,2,0:0:0:0:
238,89,99844,2,0,P|148:95|62:70,1,179.999994506836,0|2,1:0|0:0,0:0:0:0:
0,220,100148,1,2,0:0:0:0:
12,207,100249,70,0,P|51:188|97:182,1,89.9999972534181,2|0,1:2|0:0,0:0:0:0:
187,214,100452,2,0,P|206:253|212:299,1,89.9999972534181,2|2,0:0|0:0,0:0:0:0:
293,384,100654,2,0,L|310:200,1,179.999994506836,0|2,1:0|0:0,0:0:0:0:
289,122,100959,1,2,0:0:0:0:
278,108,101060,6,0,P|329:120|378:123,1,89.9999972534181,2|0,1:2|0:0,0:0:0:0:
492,192,101263,2,0,P|447:197|403:208,1,89.9999972534181,2|2,0:0|0:0,0:0:0:0:
213,268,101465,2,0,P|264:280|313:283,1,89.9999972534181,0|0,1:2|0:0,0:0:0:0:
427,352,101668,2,0,P|382:357|338:368,1,89.9999972534181,2|2,0:0|0:0,0:0:0:0:
512,273,101871,6,0,P|475:182|466:87,1,179.999994506836,6|2,1:2|0:0,0:0:0:0:
490,15,102175,1,2,0:0:0:0:
500,1,102276,2,0,P|413:71|370:32,1,179.999994506836,0|2,1:0|0:0,0:0:0:0:
250,112,102580,1,2,0:0:0:0:
233,106,102681,6,0,P|188:99|119:98,1,89.9999972534181,2|0,1:2|0:0,0:0:0:0:
65,23,102884,2,0,P|49:66|28:106,1,89.9999972534181,2|2,0:0|0:0,0:0:0:0:
0,263,103087,2,0,P|78:264|82:163,1,179.999994506836,0|2,1:0|0:0,0:0:0:0:
49,30,103391,1,2,0:0:0:0:
65,23,103492,70,0,B|172:55|140:3|255:32,1,179.999994506836,2|2,1:2|0:0,0:0:0:0:
321,105,103796,1,2,0:0:0:0:
329,122,103898,2,0,P|341:75|368:16,1,89.9999972534181,0|0,1:2|0:0,0:0:0:0:
444,26,104100,2,0,P|478:61|516:114,1,89.9999972534181,2|2,1:2|0:0,0:0:0:0:
465,168,104303,1,2,1:2:0:0:
465,168,104506,6,0,P|418:181|353:187,1,89.9999972534181,2|2,1:2|0:0,0:0:0:0:
248,181,104709,2,0,P|282:216|320:269,1,89.9999972534181,0|0,1:2|0:0,0:0:0:0:
367,357,104911,2,0,P|379:310|406:251,1,89.9999972534181,2|2,1:2|0:0,0:0:0:0:
465,168,105114,6,0,P|376:163|358:75,1,179.999994506836,6|2,1:2|0:0,0:0:0:0:
478,10,105418,1,2,0:0:0:0:
492,0,105519,2,0,P|483:57|464:101,1,89.9999972534181,0|0,1:0|0:0,0:0:0:0:
248,181,105722,2,0,P|233:139|227:95,1,89.9999972534181,2|2,0:0|0:0,0:0:0:0:
118,272,105925,6,0,B|226:259|188:312|299:295,1,179.999994506836,2|2,1:2|0:0,0:0:0:0:
395,384,106229,1,2,0:0:0:0:
410,374,106330,2,0,P|453:361|498:359,1,89.9999972534181,0|0,1:0|0:0,0:0:0:0:
433,193,106533,2,0,P|388:190|345:177,1,89.9999972534181,2|2,0:0|0:0,0:0:0:0:
512,285,106736,70,0,P|482:198|480:110,1,179.999994506836,2|2,1:2|0:0,0:0:0:0:
295,36,107040,1,2,0:0:0:0:
314,39,107141,2,0,P|358:31|399:13,1,89.9999972534181,0|0,1:0|0:0,0:0:0:0:
267,229,107344,2,0,P|259:185|241:144,1,89.9999972534181,2|2,0:0|0:0,0:0:0:0:
93,8,107546,6,0,P|115:13|137:20,1,44.999998626709,4|0,1:2|1:0,0:0:0:0:
137,20,107648,2,0,P|134:113|109:213,1,179.999994506836,0|0,1:0|0:0,0:0:0:0:
65,293,107952,2,0,P|43:298|21:305,1,44.999998626709,4|0,1:2|1:0,0:0:0:0:
22,305,108053,2,0,P|2:217|0:127,1,179.999994506836,0|2,1:0|0:0,0:0:0:0:
267,229,108357,6,0,P|220:306|147:264,1,179.999994506836,6|2,0:0|0:0,0:0:0:0:
213,124,108661,1,2,0:0:0:0:
230,129,108763,2,0,P|272:138|322:146,1,89.9999972534181,0|0,1:2|0:0,0:0:0:0:
362,231,108965,2,0,P|406:224|451:215,1,89.9999972534181,0|2,0:2|0:0,0:0:0:0:
255,345,109168,6,0,P|208:330|155:303,1,89.9999972534181,2|0,1:2|0:0,0:0:0:0:
103,191,109371,2,0,P|118:144|145:91,1,89.9999972534181,2|0,1:2|0:0,0:0:0:0:
257,39,109573,2,0,P|304:54|357:81,1,89.9999972534181,2|0,1:2|0:0,0:0:0:0:
409,193,109776,2,0,P|394:240|367:293,1,89.9999972534181,2|0,1:2|0:0,0:0:0:0:
170,311,109979,70,0,P|154:270|145:226,3,89.9999972534181,0|0|2|2,1:0|1:0|1:2|1:2,0:0:0:0:
279,293,110384,2,0,P|269:337|253:379,3,89.9999972534181,0|0|0|0,1:0|1:0|1:0|1:0,0:0:0:0:
376,276,110790,6,0,P|397:270|423:265,6,44.999998626709,0|0|0|0|0|0|0,1:0|1:0|1:0|1:0|1:0|1:0|1:0,1:0:0:0:
314,188,111195,2,0,P|292:186|267:181,6,44.999998626709,0|0|0|0|0|0|0,3:0|3:0|3:0|3:0|3:0|3:0|3:0,3:0:0:0:
411,141,111600,5,4,0:0:0:0:
256,192,111702,12,2,114438,0:0:0:0:
21,306,114844,22,0,P|73:291|137:287,1,104.999996795654,2|0,0:0|0:0,0:0:0:0:
214,332,115250,2,0,L|206:395,1,52.4999983978272,2|0,0:0|0:0,0:0:0:0:
123,286,115454,2,0,L|116:233,1,52.4999983978272,2|0,0:0|0:0,0:0:0:0:
316,312,115657,2,0,P|264:327|200:331,1,104.999996795654,2|0,0:0|0:0,0:0:0:0:
123,286,115962,1,2,0:0:0:0:
352,26,116471,6,0,L|339:148,1,104.999996795654,2|0,0:0|0:0,0:0:0:0:
437,221,116877,2,0,P|370:209|363:209,1,52.4999983978272,2|0,0:0|0:0,0:0:0:0:
289,119,117081,2,0,P|314:126|340:130,1,52.4999983978272,2|0,0:0|0:0,0:0:0:0:
374,314,117284,1,8,0:3:0:0:
381,307,117386,1,8,0:3:0:0:
437,221,117589,1,8,0:3:0:0:
444,213,117691,1,8,0:3:0:0:
340,130,117893,1,0,0:0:0:0:
416,37,118096,5,4,0:2:0:0:
416,37,118704,5,0,0:0:0:0:
416,37,118906,1,0,0:0:0:0:
416,37,119514,69,0,0:0:0:0:
416,37,119717,1,0,0:0:0:0:
416,37,120325,5,0,0:0:0:0:
416,37,120528,2,0,B|384:117|447:115|411:203,2,168.750006437302
233,213,121318,6,0,P|311:200|313:136,1,134.999995880127,4|0,0:3|0:0,0:0:0:0:
229,112,121622,2,0,P|177:131|91:136,1,134.999995880127
24,33,121926,2,0,P|67:39|105:53,1,67.4999979400635
12,168,122128,6,0,P|21:228|23:309,1,134.999995880127,4|0,0:3|0:0,0:0:0:0:
96,384,122432,2,0,P|112:318|120:252,1,134.999995880127
215,297,122736,2,0,P|247:308|298:314,1,67.4999979400635
433,353,122954,70,0,P|402:366|374:385,2,67.4999979400635,4|0|0,0:3|0:0|0:0,0:0:0:0:
512,285,123260,2,0,P|453:234|395:231,1,134.999995880127
311,262,123566,2,0,P|302:311|299:347,1,67.4999979400635
202,160,123770,5,2,0:3:0:0:
186,138,124068,1,2,0:3:0:0:
170,116,124366,1,2,0:3:0:0:
152,95,124606,5,4,0:3:0:0:
152,95,124705,2,0,P|189:100|243:98,1,67.4999979400635
377,47,124904,2,0,B|347:35|326:3|326:3|337:84|311:72|322:158,1,202.499993820191
403,198,125301,1,0,0:0:0:0:
403,198,125400,6,0,P|438:198|486:191,1,67.4999979400635,8|0,0:3|0:0,0:0:0:0:
308,239,125599,2,0,P|322:269|328:303,1,67.4999979400635,8|0,0:3|0:0,0:0:0:0:
412,324,125798,2,0,P|365:377|272:372,1,134.999995880127,8|0,0:3|0:0,0:0:0:0:
227,310,126096,1,0,0:0:0:0:
227,310,126195,69,4,0:3:0:0:
227,310,126296,2,0,P|173:300|139:296,1,67.4999979400635
0,215,126498,2,0,B|68:166|137:200|137:200|100:208|82:237,1,202.499993820191
36,372,126902,1,0,0:0:0:0:
36,372,127003,6,0,P|26:322|26:302,1,67.4999979400635,8|0,0:3|0:0,0:0:0:0:
87,227,127205,2,0,P|96:194|97:161,1,67.4999979400635,8|0,0:3|0:0,0:0:0:0:
33,78,127407,2,0,B|21:65|4:57|4:57|59:74|116:67,1,134.999995880127,8|0,0:3|0:0,0:0:0:0:
235,113,127710,1,0,0:0:0:0:
235,113,127811,5,4,0:3:0:0:
235,113,127913,2,0,P|292:98|317:95,1,67.4999979400635
483,5,128118,1,0,0:0:0:0:
483,5,128220,2,0,B|422:7|397:49|397:49|413:98,1,134.999995880127
422,181,128527,1,0,0:0:0:0:
422,181,128630,6,0,P|377:184|339:180,1,67.4999979400635,8|0,0:3|0:0,0:0:0:0:
232,253,128834,2,0,P|244:209|261:175,1,67.4999979400635,8|0,0:3|0:0,0:0:0:0:
118,81,129039,2,0,B|103:117|108:140|108:140|137:170|142:228,1,134.999995880127,8|0,0:3|0:0,0:0:0:0:
33,308,129346,1,0,0:0:0:0:
33,308,129449,69,0,0:0:0:0:
33,308,129551,2,0,L|38:234,1,67.4999979400635
109,379,129757,1,0,0:0:0:0:
109,379,129859,2,0,B|169:351|169:351|246:351,1,134.999995880127
147,145,130168,1,0,0:0:0:0:
152,150,130270,6,0,P|138:183|137:223,1,67.4999979400635,8|0,0:3|0:0,0:0:0:0:
238,350,130476,2,0,P|252:317|253:277,1,67.4999979400635,8|0,0:3|0:0,0:0:0:0:
272,165,130681,6,0,B|319:136|374:163|374:163|374:176|374:176|423:197|479:167,1,225,4|0,1:0|0:0,0:0:0:0:
272,165,131092,6,0,P|258:125|250:72,1,75,4|0,0:0|0:0,0:0:0:0:
371,1,131288,2,0,P|363:37|350:72,1,75
475,168,131485,1,0,1:0:0:0:
475,166,131583,1,0,1:0:0:0:
475,166,131682,2,0,P|401:187|396:260,1,150,0|0,1:0|0:0,0:0:0:0:
488,364,131977,1,0,0:0:0:0:
501,358,132075,2,0,P|511:312|512:270,1,75,0|0,1:0|0:0,0:0:0:0:
403,146,132272,1,0,1:0:0:0:
403,146,132469,2,0,P|455:164|487:166,1,75
391,276,132665,70,0,P|354:281|319:295,1,75,0|0,1:0|0:0,0:0:0:0:
178,200,132867,2,0,P|214:205|249:219,1,75
75,351,133070,1,0,1:0:0:0:
75,351,133171,1,0,1:0:0:0:
75,351,133273,2,0,P|144:326|221:315,1,150,0|0,1:0|0:0,0:0:0:0:
26,198,133577,1,0,0:0:0:0:
17,210,133678,2,0,P|-2:263|1:290,1,75,0|0,1:0|0:0,0:0:0:0:
145,368,133881,1,0,1:0:0:0:
145,368,134083,2,0,P|92:349|65:352,1,75,2|2,0:0|0:0,0:0:0:0:
178,200,134286,6,0,P|169:153|169:108,1,75,0|0,1:0|0:0,0:0:0:0:
80,27,134495,2,0,P|77:64|70:101,1,75
262,17,134704,1,0,1:0:0:0:
262,17,134808,1,0,1:0:0:0:
262,17,134913,2,0,P|334:57|307:131,1,150,0|0,1:0|0:0,0:0:0:0:
419,215,135226,1,0,0:0:0:0:
419,199,135331,2,0,P|426:136|437:96,1,75,0|0,1:0|0:0,0:0:0:0:
335,29,135540,1,0,1:0:0:0:
335,29,135749,2,0,P|289:23|251:13,1,75
86,82,135958,5,0,1:0:0:0:
261,16,136147,1,0,1:0:0:0:
261,16,136242,2,0,P|271:52|275:100,1,75,0|0,1:0|0:0,0:0:0:0:
428,124,136440,1,0,1:0:0:0:
428,124,136543,2,0,P|418:160|414:208,1,75,0|0,1:0|0:0,0:0:0:0:
189,202,136749,5,0,1:0:0:0:
189,202,136849,1,0,1:0:0:0:
189,202,136950,2,0,P|227:211|270:228,1,75,0|0,1:0|0:0,0:0:0:0:
470,319,137151,1,0,1:0:0:0:
470,319,137251,1,0,1:0:0:0:
470,319,137352,2,0,P|432:328|389:345,1,75,0|0,1:0|0:0,0:0:0:0:
221,330,137553,70,0,P|199:274|273:225,1,150,4|0,1:0|0:0,0:0:0:0:
121,333,137855,1,0,0:0:0:0:
107,338,137955,2,0,P|55:333|20:320,1,75,0|0,1:0|0:0,0:0:0:0:
104,150,138157,1,0,0:0:0:0:
104,150,138358,5,0,1:0:0:0:
99,164,138459,2,0,P|89:210|83:259,1,75
170,7,138660,1,0,0:0:0:0:
175,21,138761,2,0,P|185:67|191:116,1,75,0|0,1:0|0:0,0:0:0:0:
6,74,138962,2,0,P|52:64|101:58,1,75
197,198,139163,6,0,B|253:209|253:209|290:199|290:199|355:207,1,150,0|0,1:0|0:0,0:0:0:0:
440,87,139469,1,0,0:0:0:0:
425,84,139571,2,0,P|379:88|350:117,1,75,0|0,1:0|0:0,0:0:0:0:
445,248,139775,1,0,0:0:0:0:
445,248,139979,5,0,1:0:0:0:
443,262,140081,2,0,L|434:361,1,75
298,384,140285,1,0,0:0:0:0:
297,369,140387,2,0,L|290:294,1,75,0|0,1:0|0:0,0:0:0:0:
211,169,140591,1,0,0:0:0:0:
224,163,140693,1,0,0:0:0:0:
237,155,140795,70,0,P|163:117|103:153,1,150,0|0,1:0|0:0,0:0:0:0:
49,312,141099,1,0,0:0:0:0:
51,297,141200,2,0,P|47:241|38:208,1,75,0|0,1:0|0:0,0:0:0:0:
0,119,141403,1,0,0:0:0:0:
0,119,141605,5,0,1:0:0:0:
14,121,141707,2,0,P|54:118|108:102,1,75
239,40,141909,1,0,0:0:0:0:
225,42,142011,2,0,P|185:39|131:23,1,75,0|0,1:0|0:0,0:0:0:0:
359,11,142213,2,0,P|358:48|355:97,1,75
481,178,142416,6,0,B|446:179|421:160|421:160|411:184|386:202|386:202|357:207|332:198,1,150,4|0,1:0|1:0,0:0:0:0:
213,121,142714,1,0,1:0:0:0:
204,110,142813,2,0,P|195:77|201:27,1,75,0|0,1:0|0:0,0:0:0:0:
308,274,143012,2,0,P|317:307|311:357,1,75,0|0,1:0|0:0,0:0:0:0:
313,111,143210,2,0,L|408:101,1,75,0|0,1:0|0:0,0:0:0:0:
199,273,143409,2,0,L|104:283,1,75,0|0,1:0|0:0,0:0:0:0:
367,197,143608,2,0,P|403:218|432:253,1,75,0|0,1:0|0:0,0:0:0:0:
145,187,143806,2,0,P|109:166|80:131,1,75,0|0,1:0|0:0,0:0:0:0:
256,192,144005,5,4,0:0:0:0:
381,17,144211,69,2,0:0:0:0:
381,17,144314,1,2,0:0:0:0:
381,17,144417,1,2,0:0:0:0:
381,17,144520,1,2,0:0:0:0:
346,101,144829,5,2,0:0:0:0:
279,50,145035,1,2,0:0:0:0:
279,50,145139,1,2,0:0:0:0:
246,142,145345,5,2,0:0:0:0:
246,142,145448,1,0,0:0:0:0:
180,92,145653,1,2,0:0:0:0:
180,92,145756,1,2,0:0:0:0:
145,183,145962,5,2,0:0:0:0:
145,183,146065,1,0,0:0:0:0:
78,132,146271,1,2,0:0:0:0:
40,221,146477,70,0,B|18:262|18:262|39:335,2,112.5,2|2|2,0:0|0:0|0:0,0:0:0:0:
201,347,147275,6,0,P|157:364|99:357,1,75
40,221,147479,2,0,P|84:204|142:211,1,75
335,256,147683,1,0,1:0:0:0:
342,285,147785,1,0,0:0:0:0:
333,313,147887,2,0,P|316:362|311:404,1,75
488,284,148091,5,0,0:0:0:0:
488,284,148193,2,0,P|480:247|467:212,2,75
345,143,148499,2,0,P|386:130|423:104,1,75,0|0,1:0|0:0,0:0:0:0:
494,30,148703,2,0,P|453:17|416:-9,1,75
243,42,148907,5,0,0:0:0:0:
218,59,149007,1,0,0:0:0:0:
187,61,149108,2,0,P|181:115|184:151,1,75
43,0,149309,2,0,L|51:89,1,75,0|0,1:0|0:0,0:0:0:0:
6,196,149511,2,0,P|48:185|103:179,1,75
200,315,149712,69,0,0:0:0:0:
200,315,149813,2,0,P|158:304|103:298,2,75
265,211,150115,2,0,P|291:249|301:286,1,75,0|0,1:0|0:0,0:0:0:0:
409,253,150316,2,0,P|412:299|402:335,1,75,0|0,1:0|0:0,0:0:0:0:
303,371,150517,5,0,0:0:0:0:
18,320,150717,5,2,0:0:0:0:
18,320,150818,1,2,0:0:0:0:
18,320,150918,1,2,0:0:0:0:
18,320,151019,1,2,0:0:0:0:
50,235,151320,5,2,0:0:0:0:
119,283,151521,1,2,0:0:0:0:
119,283,151621,1,2,0:0:0:0:
154,192,151822,69,2,0:0:0:0:
154,192,151922,1,2,0:0:0:0:
223,240,152123,1,2,0:0:0:0:
257,148,152332,5,2,0:0:0:0:
257,148,152437,1,2,0:0:0:0:
326,196,152649,1,2,0:0:0:0:
326,196,152758,1,2,0:0:0:0:
359,104,152976,5,2,0:0:0:0:
428,152,153174,1,2,0:0:0:0:
428,152,153274,1,2,0:0:0:0:
469,63,153572,5,2,0:0:0:0:
331,14,153770,70,0,P|269:53|281:141,1,150,4|0,0:0|0:0,0:0:0:0:
422,239,154075,1,0,0:0:0:0:
422,239,154176,2,0,B|346:248|272:256,1,150,4|0,0:0|0:0,0:0:0:0:
119,57,154583,5,4,0:0:0:0:
119,57,154685,2,0,P|175:36|211:36,2,75
37,174,154990,2,0,P|71:187|109:190,1,75,4|0,0:0|0:0,0:0:0:0:
184,289,155193,2,0,P|222:286|257:273,1,75,4|0,0:0|0:0,0:0:0:0:
421,101,155397,5,4,0:0:0:0:
421,101,155497,1,0,0:0:0:0:
421,101,155598,2,0,P|412:145|409:185,1,75
501,347,155799,1,4,0:0:0:0:
501,347,155900,1,0,0:0:0:0:
501,347,156001,2,0,P|510:303|513:263,1,75
355,236,156202,5,0,1:0:0:0:
340,233,156303,1,0,1:0:0:0:
326,231,156403,1,0,1:0:0:0:
312,231,156504,1,0,1:0:0:0:
298,231,156605,1,0,1:0:0:0:
284,233,156705,1,0,1:0:0:0:
270,236,156806,1,0,1:0:0:0:
256,240,156907,1,0,1:0:0:0:
216,314,157007,6,0,P|204:202|95:225,1,240,6|0,1:1|0:0,0:0:0:0:
0,64,157412,2,0,P|140:91|251:84,1,240,2|0,1:0|0:0,0:0:0:0:
300,10,157716,1,0,0:0:0:0:
316,25,157817,6,0,P|336:87|310:157,1,120,2|0,1:0|0:0,0:0:0:0:
178,324,158020,1,0,0:0:0:0:
156,335,158121,2,0,B|203:280|209:199|209:199|230:246|283:262,1,240,2|0,1:0|0:0,0:0:0:0:
423,354,158425,1,2,1:0:0:0:
402,345,158527,1,0,0:0:0:0:
495,343,158628,6,0,B|420:345|420:345|379:363|379:363|338:349|338:349|259:351,1,240,2|0,1:0|0:0,0:0:0:0:
86,123,159034,2,0,B|161:125|161:125|202:143|202:143|243:129|243:129|322:131,1,240,2|0,1:0|0:0,0:0:0:0:
179,256,159338,1,0,0:0:0:0:
160,270,159439,6,0,P|141:216|165:149,1,120,2|0,1:0|0:0,0:0:0:0:
329,34,159642,1,0,0:0:0:0:
347,48,159743,2,0,B|418:59|418:59|504:7|504:7|482:73,1,240,2|0,1:0|0:0,0:0:0:0:
411,219,160047,1,2,1:0:0:0:
423,238,160148,1,0,0:0:0:0:
409,146,160250,70,0,L|432:394,1,240,2|0,1:0|0:0,0:0:0:0:
313,19,160655,2,0,L|287:261,1,240,2|0,1:0|0:0,0:0:0:0:
324,354,160959,1,0,0:0:0:0:
338,370,161061,6,0,B|285:352|285:352|206:359,1,120,2|0,1:0|0:0,0:0:0:0:
95,364,161263,1,0,0:0:0:0:
106,384,161365,2,0,P|122:298|-2:292,1,240,2|0,1:0|0:0,0:0:0:0:
266,252,161669,1,2,1:0:0:0:
286,241,161770,1,0,0:0:0:0:
204,217,161871,6,0,P|320:258|439:256,1,240,2|0,1:0|1:0,0:0:0:0:
492,353,162175,1,0,0:0:0:0:
507,368,162277,2,0,P|432:370|374:393,1,120,0|0,1:0|0:0,0:0:0:0:
455,139,162479,2,0,P|450:214|425:274,1,120,0|0,1:0|0:0,0:0:0:0:
266,252,162682,6,2,P|218:155|307:69,1,240,0|0,1:0|0:0,0:0:0:0:
134,202,162986,1,0,1:0:0:0:
112,213,163088,2,0,B|63:230|63:230|-4:204,1,120,0|0,1:0|0:0,0:0:0:0:
98,51,163290,2,0,B|174:26|174:26|156:77,1,120,0|0,1:0|0:0,0:0:0:0:
324,147,163493,70,0,P|303:254|302:386,1,240,6|0,1:2|0:0,0:0:0:0:
243,121,163898,2,0,P|276:217|401:184,1,240,2|0,1:0|0:0,0:0:0:0:
477,100,164202,1,0,0:0:0:0:
487,80,164304,6,0,B|500:56|500:56|394:97,1,120,2|0,1:0|0:0,0:0:0:0:
259,27,164507,1,0,0:0:0:0:
238,37,164608,2,0,B|166:67|166:67|90:15|90:15|174:17,1,240,2|0,1:0|0:0,0:0:0:0:
68,153,164912,1,2,1:0:0:0:
76,174,165013,1,0,0:0:0:0:
0,128,165115,6,0,P|83:180|104:322,1,240,2|0,1:0|0:0,0:0:0:0:
256,276,165520,2,0,P|158:279|66:389,1,240,2|0,1:0|0:0,0:0:0:0:
0,128,165824,1,0,0:0:0:0:
13,148,165925,6,0,P|67:165|133:154,1,120,2|0,1:0|0:0,0:0:0:0:
337,101,166128,1,0,0:0:0:0:
352,82,166229,2,0,B|270:88|195:57|195:57|237:86|237:137,1,240,2|0,1:0|0:0,0:0:0:0:
360,252,166534,1,0,1:0:0:0:
372,231,166635,1,0,0:0:0:0:
353,325,166736,70,0,B|379:162|379:162|334:97,1,240,6|0,1:0|0:0,0:0:0:0:
498,0,167142,2,0,B|455:61|455:61|481:224,1,240,2|0,1:0|0:0,0:0:0:0:
497,324,167446,1,0,0:0:0:0:
512,342,167547,6,0,P|444:329|394:305,1,120,0|0,1:0|0:0,0:0:0:0:
245,144,167750,1,0,0:0:0:0:
231,124,167851,2,0,P|347:146|320:241,1,240,2|0,1:0|0:0,0:0:0:0:
137,321,168155,1,2,1:0:0:0:
157,332,168257,1,0,0:0:0:0:
69,345,168358,6,0,P|199:324|314:328,1,240,2|0,1:0|1:0,0:0:0:0:
460,60,168763,2,0,P|340:62|222:42,1,240,0|0,1:0|1:0,0:0:0:0:
201,29,169067,1,0,1:0:0:0:
184,12,169169,6,0,B|201:67|201:67|183:138,1,120,2|0,1:2|1:0,1:0:0:0:
324,234,169371,2,0,B|307:179|307:179|325:108,1,120,2|0,1:2|1:0,1:0:0:0:
126,281,169574,1,0,1:0:0:0:
101,239,169675,1,0,1:0:0:0:
142,215,169777,1,0,1:0:0:0:
167,256,169878,1,0,1:0:0:0:
132,247,169979,70,0,P|218:218|320:219,1,179.999994506836,4|2,1:0|0:0,0:0:0:0:
426,145,170284,1,0,0:0:0:0:
408,146,170385,2,0,P|362:137|307:109,1,89.9999972534181,0|0,1:0|0:0,0:0:0:0:
213,56,170588,2,0,P|259:47|309:12,1,89.9999972534181,2|0,0:0|0:0,0:0:0:0:
434,5,170790,6,0,P|508:77|496:164,1,179.999994506836,0|2,1:0|0:0,0:0:0:0:
512,247,171094,1,0,0:0:0:0:
494,244,171196,2,0,P|419:250|392:257,1,89.9999972534181,0|0,1:0|0:0,0:0:0:0:
310,212,171398,2,0,P|277:279|270:306,1,89.9999972534181,2|0,0:0|0:0,0:0:0:0:
177,383,171601,6,0,P|156:262|125:181,1,179.999994506836,0|2,1:0|0:0,0:0:0:0:
31,132,171905,1,0,0:0:0:0:
16,122,172007,2,0,B|130:142|93:90|197:110,1,179.999994506836,0|2,1:0|0:0,0:0:0:0:
244,22,172311,1,0,0:0:0:0:
258,32,172412,6,0,P|283:69|292:113,1,89.9999972534181,0|0,1:0|0:0,0:0:0:0:
124,182,172615,2,0,P|98:145|90:102,1,89.9999972534181,2|0,0:0|0:0,0:0:0:0:
278,218,172817,2,0,L|264:312,1,89.9999972534181,0|0,1:0|0:0,0:0:0:0:
450,342,173020,2,0,L|436:248,1,89.9999972534181,2|0,1:2|0:0,0:0:0:0:
379,110,173223,70,0,P|376:205|445:255,1,179.999994506836,4|2,1:2|0:0,0:0:0:0:
486,96,173527,1,0,0:0:0:0:
467,95,173628,2,0,P|426:98|364:115,1,89.9999972534181,0|0,1:0|0:0,0:0:0:0:
318,14,173831,2,0,P|277:11|215:-6,1,89.9999972534181,2|0,0:0|0:0,0:0:0:0:
138,74,174034,6,0,P|168:155|174:252,1,179.999994506836,0|2,1:0|0:0,0:0:0:0:
110,362,174338,1,0,0:0:0:0:
127,353,174439,2,0,P|208:335|319:350,1,179.999994506836,0|2,1:0|0:0,0:0:0:0:
387,277,174743,1,0,0:0:0:0:
371,267,174844,6,0,P|325:250|273:242,1,89.9999972534181,0|0,1:0|0:0,0:0:0:0:
174,247,175047,2,0,P|129:255|87:271,1,89.9999972534181,2|0,0:0|0:0,0:0:0:0:
0,384,175250,2,0,B|29:283|-22:303|13:189,1,179.999994506836,0|2,1:0|0:0,0:0:0:0:
44,98,175554,1,0,0:0:0:0:
50,114,175655,6,0,P|82:155|119:178,1,89.9999972534181,0|0,1:0|0:0,0:0:0:0:
173,252,175858,2,0,P|131:268|87:270,1,89.9999972534181,0|0,1:0|0:0,0:0:0:0:
235,329,176061,2,0,P|263:285|269:238,1,89.9999972534181,0|0,1:0|0:0,0:0:0:0:
321,163,176263,2,0,P|350:197|368:239,1,89.9999972534181,0|0,1:0|0:0,0:0:0:0:
187,104,176466,69,4,0:0:0:0:
187,104,176669,1,4,0:0:0:0:
272,55,176871,2,0,L|302:-6,4,59.9999981689454,0|0|0|0|0,3:0|3:0|3:0|3:0|3:0,3:0:0:0:
262,155,177277,5,4,0:0:0:0:
262,155,177479,1,4,0:0:0:0:
356,130,177682,2,0,L|401:78,4,59.9999981689454,0|0|0|0|0,3:0|3:0|3:0|3:0|3:0,3:0:0:0:
321,224,178088,5,4,0:0:0:0:
321,224,178290,1,4,0:0:0:0:
420,224,178493,2,0,L|477:186,4,59.9999981689454,0|0|0|0|0,3:0|3:0|3:0|3:0|3:0,3:0:0:0:
355,313,178898,5,4,0:0:0:0:
355,313,179101,1,4,0:0:0:0:
453,331,179304,2,0,L|518:309,4,59.9999981689454,0|0|0|0|0,3:0|3:0|3:0|3:0|3:0,3:0:0:0:
386,384,179709,70,0,P|413:316|399:191,1,179.999994506836,4|2,1:2|0:0,0:0:0:0:
318,92,180013,1,0,0:0:0:0:
334,98,180115,2,0,P|374:109|422:113,1,89.9999972534181,0|0,1:0|0:0,0:0:0:0:
498,168,180317,1,2,0:0:0:0:
312,243,180520,6,0,P|271:251|223:258,1,89.9999972534181,0|0,1:0|0:0,0:0:0:0:
101,349,180723,1,2,0:0:0:0:
101,349,180824,1,0,0:0:0:0:
101,349,180925,2,0,P|114:310|133:265,1,89.9999972534181,0|0,1:0|0:0,0:0:0:0:
114,113,181128,2,0,P|141:145|170:183,1,89.9999972534181,2|0,0:0|0:0,0:0:0:0:
285,332,181331,6,0,B|383:357|360:294|474:325,1,179.999994506836,0|2,1:0|0:0,0:0:0:0:
502,237,181635,2,0,P|510:172|402:135,1,179.999994506836,0|0,1:0|0:0,0:0:0:0:
419,127,181939,2,0,P|415:171|401:214,1,89.9999972534181,2|0,1:2|0:0,0:0:0:0:
277,138,182142,6,0,P|260:73|261:33,1,89.9999972534181,4|0,1:2|0:0,0:0:0:0:
110,177,182344,1,2,1:0:0:0:
110,177,182446,1,0,0:0:0:0:
110,177,182547,2,0,P|174:195|208:216,1,89.9999972534181,0|0,1:0|0:0,0:0:0:0:
159,17,182750,2,0,P|111:63|76:82,1,89.9999972534181,2|0,1:0|0:0,0:0:0:0:
11,138,182952,69,4,1:0:0:0:
202,295,183155,2,0,P|199:250|194:206,2,89.9999972534181,2|2|2,0:0|0:0|1:2,0:0:0:0:
26,376,183459,2,0,P|103:339|94:238,1,179.999994506836,2|0,0:0|0:0,0:0:0:0:
11,138,183763,2,0,P|76:153|119:156,1,89.9999972534181,2|0,1:2|0:0,0:0:0:0:
70,34,183966,1,2,0:0:0:0:
70,34,184067,2,0,P|135:19|178:16,1,89.9999972534181,2|0,0:0|1:0,0:0:0:0:
285,119,184270,5,2,0:0:0:0:
285,119,184371,2,0,P|296:182|296:235,1,89.9999972534181,2|0,0:0|0:0,0:0:0:0:
408,44,184574,1,2,1:2:0:0:
408,44,184675,2,0,P|397:107|397:160,1,89.9999972534181,2|0,0:0|0:0,0:0:0:0:
512,250,184878,1,2,0:0:0:0:
512,250,184979,2,0,P|425:279|382:201,1,179.999994506836,2|2,1:2|0:0,0:0:0:0:
380,217,185284,1,2,0:0:0:0:
380,217,185385,5,2,1:2:0:0:
178,311,185588,1,2,0:2:0:0:
178,311,185689,1,2,1:2:0:0:
101,107,185892,1,2,0:2:0:0:
101,107,185993,1,2,1:2:0:0:
256,192,186196,5,4,1:2:0:0:
441,72,186398,2,0,P|435:116|427:161,2,89.9999972534181,2|2|2,0:2|0:0|1:2,0:0:0:0:
254,7,186702,2,0,P|321:25|317:139,1,179.999994506836,2|0,0:0|0:0,0:0:0:0:
256,192,187006,2,0,P|201:181|145:178,1,89.9999972534181,2|0,1:2|0:0,0:0:0:0:
183,78,187209,1,2,0:0:0:0:
183,78,187311,2,0,P|127:81|72:93,1,89.9999972534181,2|0,0:0|1:0,0:0:0:0:
34,213,187513,69,2,0:0:0:0:
34,213,187615,2,0,P|39:272|52:321,1,89.9999972534181,2|0,0:0|0:0,0:0:0:0:
134,384,187817,2,0,P|143:339|145:295,1,89.9999972534181,2|0,1:2|0:0,0:0:0:0:
256,192,188020,1,2,0:0:0:0:
256,192,188121,2,0,P|299:243|408:209,1,179.999994506836,2|2,1:2|0:0,0:0:0:0:
491,109,188425,2,0,P|430:114|398:121,1,89.9999972534181,2|0,1:2|0:0,0:0:0:0:
256,192,188628,5,2,1:2:0:0:
378,17,188831,1,2,1:2:0:0:
378,17,188932,1,2,1:2:0:0:
140,79,189135,1,2,1:2:0:0:
140,79,189236,1,2,1:2:0:0:
140,79,189338,1,2,1:2:0:0:
140,79,189439,1,4,1:2:0:0:
140,79,189844,38,0,P|275:82|426:17,1,269.999991760254,2|0,1:2|3:0,0:0:0:0:
288,372,190250,6,0,P|162:324|28:327,1,269.999991760254,2|0,1:2|3:0,0:0:0:0:
298,46,190655,6,0,P|334:151|187:144,1,269.999991760254,2|0,1:2|3:0,0:0:0:0:
492,0,191061,6,0,B|504:78|504:78|466:171|466:171|487:276,1,269.999991760254,2|0,1:2|3:0,0:0:0:0:
167,384,191466,70,0,P|291:330|432:354,1,269.999991760254,2|0,1:2|3:0,0:0:0:0:
383,86,191871,5,0,1:0:0:0:
219,218,192074,1,0,1:0:0:0:
219,218,192175,1,0,1:0:0:0:
219,218,192277,1,2,1:2:0:0:
504,344,192479,1,2,1:2:0:0:
383,86,192682,6,0,L|358:366,1,269.999991760254,6|0,1:2|3:0,0:0:0:0:
43,102,193088,6,0,B|186:105|149:16|290:13,1,269.999991760254,2|0,1:2|3:0,0:0:0:0:
419,311,193493,70,0,P|301:313|325:198,1,269.999991760254,2|0,1:2|3:0,0:0:0:0:
99,47,193898,6,0,P|88:182|90:317,1,269.999991760254,2|0,1:2|3:0,0:0:0:0:
390,225,194304,6,0,P|417:177|408:122,3,112.500004291535,2|0|0|0,1:2|1:0|1:0|1:0,1:0:0:0:
279,96,194709,2,0,P|251:143|257:199,3,112.500004291535,2|0|0|0,1:2|1:0|1:0|1:0,1:0:0:0:
334,162,195115,5,4,1:0:0:0:
334,162,195925,70,0,P|426:169|463:246,1,179.999994506836,4|2,1:2|0:0,0:0:0:0:
418,332,196229,1,2,0:0:0:0:
399,333,196331,2,0,P|358:328|291:307,1,89.9999972534181,0|0,1:0|0:0,0:0:0:0:
226,367,196534,2,0,P|181:372|138:384,1,89.9999972534181,2|2,0:0|0:0,0:0:0:0:
49,228,196736,6,0,P|136:248|226:258,1,179.999994506836,2|2,1:2|0:0,0:0:0:0:
295,186,197040,1,2,0:0:0:0:
305,171,197142,2,0,P|263:80|196:92,1,179.999994506836,0|2,1:0|0:0,0:0:0:0:
106,132,197446,1,2,0:0:0:0:
115,147,197547,6,0,P|131:215|136:263,1,89.9999972534181,2|0,1:2|0:0,0:0:0:0:
12,327,197750,2,0,P|19:282|30:239,1,89.9999972534181,2|2,0:0|0:0,0:0:0:0:
26,88,197952,2,0,B|87:114|87:114|207:88,1,179.999994506836,0|2,1:0|0:0,0:0:0:0:
331,2,198256,1,2,0:0:0:0:
345,12,198358,6,0,P|367:44|384:91,1,89.9999972534181,2|0,1:2|0:0,0:0:0:0:
485,105,198561,2,0,P|463:137|446:184,1,89.9999972534181,2|2,0:2|0:0,0:0:0:0:
334,177,198763,2,0,P|356:209|373:256,1,89.9999972534181,2|0,1:2|0:0,0:0:0:0:
474,270,198966,2,0,P|452:302|435:349,1,89.9999972534181,2|2,0:2|0:0,0:0:0:0:
260,326,199169,70,0,B|196:340|196:340|78:308,1,179.999994506836,6|2,1:2|0:0,0:0:0:0:
53,155,199473,1,2,0:0:0:0:
69,146,199574,2,0,P|150:156|156:243,1,179.999994506836,0|2,1:0|0:0,0:0:0:0:
260,326,199878,1,2,0:0:0:0:
262,308,199979,6,0,P|272:261|289:215,1,89.9999972534181,2|0,1:2|0:0,0:0:0:0:
368,149,200182,2,0,P|412:150|457:157,1,89.9999972534181,2|2,0:0|0:0,0:0:0:0:
504,28,200385,2,0,P|410:31|323:49,1,179.999994506836,0|2,1:0|0:0,0:0:0:0:
230,0,200689,1,0,0:0:0:0:
227,16,200790,6,0,B|210:110|264:86|249:204,1,179.999994506836,2|2,1:2|0:0,0:0:0:0:
226,292,201094,1,2,0:0:0:0:
215,306,201196,2,0,P|171:324|121:317,1,89.9999972534181,0|0,1:0|0:0,0:0:0:0:
52,232,201398,2,0,P|58:184|89:145,1,89.9999972534181,2|2,0:0|0:0,0:0:0:0:
195,124,201601,1,2,1:2:0:0:
195,124,201804,6,0,P|232:153|251:199,1,89.9999972534181,2|2,0:0|0:0,0:0:0:0:
341,248,202006,2,0,P|347:200|378:161,1,89.9999972534181,0|0,1:0|0:0,0:0:0:0:
379,60,202209,2,0,P|335:77|285:71,1,89.9999972534181,2|2,0:0|0:0,0:0:0:0:
512,127,202412,70,0,P|479:214|481:303,1,179.999994506836,6|2,1:2|0:0,0:0:0:0:
394,384,202716,1,2,0:0:0:0:
377,377,202817,2,0,P|317:360|275:358,1,89.9999972534181,0|0,1:0|0:0,0:0:0:0:
174,262,203020,2,0,P|219:256|262:243,1,89.9999972534181,2|2,0:0|0:0,0:0:0:0:
379,60,203223,6,0,P|286:40|248:110,1,179.999994506836,2|2,1:2|0:0,0:0:0:0:
174,262,203527,1,2,0:0:0:0:
161,248,203628,2,0,P|137:206|122:149,1,89.9999972534181,0|0,1:0|0:0,0:0:0:0:
47,23,203831,2,0,P|33:65|10:104,1,89.9999972534181,2|2,0:0|0:0,0:0:0:0:
0,273,204034,6,0,B|111:294|74:237|179:262,1,179.999994506836,2|2,1:2|0:0,0:0:0:0:
301,286,204338,1,2,0:0:0:0:
313,298,204439,2,0,P|329:342|334:391,1,89.9999972534181,0|0,1:0|0:0,0:0:0:0:
417,225,204642,2,0,P|433:181|438:132,1,89.9999972534181,2|2,0:0|0:0,0:0:0:0:
299,0,204844,6,0,L|320:183,1,179.999994506836,2|2,1:2|0:0,0:0:0:0:
115,85,205148,1,2,0:0:0:0:
129,74,205250,2,0,P|174:55|214:50,1,89.9999972534181,0|0,1:0|0:0,0:0:0:0:
319,178,205452,2,0,P|277:195|233:201,1,89.9999972534181
35,203,205655,70,0,P|122:250|120:335,1,179.999994506836,4|2,1:2|0:0,0:0:0:0:
268,384,205959,1,2,0:0:0:0:
268,384,206061,2,0,P|289:253|319:185,1,179.999994506836,0|0,1:0|0:0,0:0:0:0:
410,124,206365,1,2,0:0:0:0:
418,139,206466,6,0,P|429:192|432:246,1,89.9999972534181,2|0,1:2|0:0,0:0:0:0:
309,354,206669,2,0,P|256:365|202:368,1,89.9999972534181,2|0,1:2|0:0,0:0:0:0:
94,245,206871,2,0,P|83:192|80:138,1,89.9999972534181,2|0,1:2|0:0,0:0:0:0:
203,30,207074,2,0,P|256:19|310:16,1,89.9999972534181,2|0,1:2|0:0,0:0:0:0:
306,209,207277,6,0,P|261:204|217:195,3,89.9999972534181,2|0|0|0,1:2|1:0|1:0|1:0,0:0:0:0:
418,139,207682,2,0,P|462:134|506:125,3,89.9999972534181,2|0|0|0,1:2|1:0|1:0|1:0,0:0:0:0:
304,110,208088,6,0,P|298:81|295:44,6,44.999998626709,0|0|0|0|0|0|0,1:0|1:0|1:0|1:0|1:0|1:0|1:0,1:0:0:0:
394,44,208493,2,0,P|400:15|403:-22,6,44.999998626709,0|0|0|0|0|0|0,1:0|1:0|1:0|1:0|1:0|1:0|1:0,1:0:0:0:
496,38,208898,6,0,P|481:162|478:265,1,209.999993591309,4|0,1:0|0:0,0:0:0:0:
494,332,209202,1,0,1:0:0:0:
509,346,209304,2,0,P|468:373|411:372,1,104.999996795654,0|0,1:0|0:0,0:0:0:0:
341,187,209506,2,0,P|382:160|439:161,1,104.999996795654,0|0,1:0|0:0,0:0:0:0:
200,380,209709,6,0,B|72:385|123:322|0:336,1,209.999993591309,0|0,1:0|0:0,0:0:0:0:
111,105,210013,2,0,P|202:154|185:251,1,209.999993591309,0|0,1:0|0:0,0:0:0:0:
10,356,210317,2,0,B|-3:295|4:247,1,104.999996795654,0|0,1:0|0:0,0:0:0:0:
9,120,210520,5,0,1:0:0:0:
9,120,210621,1,0,0:0:0:0:
9,120,210723,2,0,P|71:119|119:102,1,104.999996795654,0|0,1:0|0:0,0:0:0:0:
280,5,210925,2,0,P|270:56|268:109,1,104.999996795654,0|0,1:0|0:0,0:0:0:0:
470,163,211128,2,0,P|465:110|457:58,1,104.999996795654,0|0,1:0|0:0,0:0:0:0:
282,263,211331,6,0,P|364:259|464:343,1,209.999993591309,4|2,1:0|0:0,0:0:0:0:
284,95,211635,1,2,0:0:0:0:
267,108,211736,2,0,P|201:121|141:117,1,104.999996795654,2|0,1:1|0:0,0:0:0:0:
70,292,211939,2,0,P|61:236|38:171,1,104.999996795654,0|0,1:0|0:0,0:0:0:0:
133,23,212142,70,0,P|36:9|0:99,1,209.999993591309,4|0,1:0|0:0,0:0:0:0:
0,286,212446,2,0,B|72:292|72:292|135:270|135:270|211:277,1,209.999993591309,0|0,1:0|0:0,0:0:0:0:
346,324,212750,2,0,P|337:273|334:193,1,104.999996795654,2|0,1:2|0:0,0:0:0:0:
360,27,212952,5,4,1:0:0:0:
512,181,213155,1,2,0:0:0:0:
507,201,213256,1,2,0:0:0:0:
503,222,213358,2,0,B|382:202|420:278|301:260,1,209.999993591309,2|0,1:0|0:0,0:0:0:0:
304,261,213763,6,0,P|334:216|345:165,1,104.999996795654,0|0,1:0|0:0,0:0:0:0:
57,42,213966,2,0,P|29:86|18:137,1,104.999996795654,0|0,1:0|0:0,0:0:0:0:
242,145,214169,2,0,P|240:93|231:42,1,104.999996795654,0|0,1:0|0:0,0:0:0:0:
120,158,214371,5,0,1:0:0:0:
120,158,214473,1,0,0:0:0:0:
120,158,214574,2,0,P|122:210|132:262,1,104.999996795654,0|0,1:0|0:0,0:0:0:0:
276,223,214777,2,0,P|274:276|267:328,1,104.999996795654,0|0,1:0|0:0,0:0:0:0:
72,347,214979,70,0,B|165:263|309:283|309:283|261:336,1,314.999990386963,6|0,1:0|0:0,0:0:0:0:
72,347,215385,6,0,P|52:295|40:233,1,104.999996795654,4|0,1:2|0:0,0:0:0:0:
180,102,215588,1,0,0:0:0:0:
194,116,215689,1,0,0:0:0:0:
208,130,215790,2,0,L|198:241,1,104.999996795654,0|0,1:0|0:0,0:0:0:0:
66,141,215993,2,0,L|57:37,1,104.999996795654
248,0,216196,6,0,B|376:-17|330:49|455:31,1,209.999993591309,0|0,1:0|0:0,0:0:0:0:
512,144,216500,2,0,P|520:190|471:236,1,104.999996795654,0|0,1:0|0:0,0:0:0:0:
340,252,216702,1,0,0:0:0:0:
340,252,216804,2,0,L|355:138,1,104.999996795654,0|0,1:0|0:0,0:0:0:0:
509,369,217006,6,0,B|468:380|468:380|394:359,1,104.999996795654,0|0,1:0|0:0,0:0:0:0:
213,250,217209,1,0,0:0:0:0:
227,234,217311,1,0,0:0:0:0:
242,219,217412,2,0,L|353:208,1,104.999996795654,0|0,1:0|0:0,0:0:0:0:
239,376,217615,2,0,L|134:365,1,104.999996795654
124,167,217817,70,0,P|122:141|124:115,1,52.4999983978272,4|0,1:2|1:0,0:0:0:0:
124,115,217919,2,0,P|230:131|224:243,1,209.999993591309,0|0,1:0|0:0,0:0:0:0:
462,64,218223,2,0,P|464:38|463:12,1,52.4999983978272,4|0,1:2|1:0,0:0:0:0:
463,12,218324,2,0,P|357:28|363:140,1,209.999993591309,0|0,1:0|0:0,0:0:0:0:
464,284,218628,6,0,B|470:231|470:231|465:179,1,104.999996795654,4|0,1:0|0:0,0:0:0:0:
257,105,218831,1,0,0:0:0:0:
242,120,218932,1,0,0:0:0:0:
228,135,219034,2,0,P|234:194|249:261,1,104.999996795654,0|0,1:0|0:0,0:0:0:0:
351,384,219236,2,0,P|361:333|367:281,1,104.999996795654
180,351,219439,6,0,B|109:335|109:335|66:281|66:281|-12:263,1,209.999993591309,0|0,1:0|0:0,0:0:0:0:
124,148,219743,2,0,P|180:145|240:131,1,104.999996795654,0|0,1:0|0:0,0:0:0:0:
0,39,219946,1,0,0:0:0:0:
0,39,220047,2,0,L|16:158,1,104.999996795654,0|0,1:0|0:0,0:0:0:0:
124,284,220250,6,0,L|137:179,1,104.999996795654,0|0,1:0|0:0,0:0:0:0:
233,0,220452,2,0,L|246:105,1,104.999996795654,0|0,1:0|0:0,0:0:0:0:
288,219,220655,2,0,B|349:211|349:211|375:160|375:160|413:238|413:238|438:201|438:201|513:193,1,314.999990386963,0|0,1:0|0:0,0:0:0:0:
503,194,221061,69,0,1:0:0:0:
477,197,221162,1,0,1:0:0:0:
451,200,221263,1,0,1:0:0:0:
425,203,221365,1,0,1:0:0:0:
399,206,221466,1,0,1:0:0:0:
373,209,221567,1,0,1:0:0:0:
347,212,221669,1,0,1:0:0:0:
321,215,221770,1,0,1:0:0:0:
294,218,221871,53,4,1:2:0:0:
155,0,222074,1,0,3:0:0:0:
363,58,222277,1,2,1:2:0:0:
111,175,222479,2,0,P|104:247|106:403,1,209.999993591309,0|0,1:0|0:0,0:0:0:0:
0,77,223088,5,0,1:0:0:0:
221,224,223290,1,0,3:0:0:0:
163,0,223493,1,2,1:2:0:0:
19,242,223696,2,0,B|89:262|89:262|231:220,1,209.999993591309,0|0,1:0|0:0,0:0:0:0:
292,113,224202,1,0,0:0:0:0:
297,104,224304,6,0,L|306:164,1,52.4999983978272,0|0,1:0|0:0,0:0:0:0:
346,355,224506,2,0,B|276:375|276:375|134:333,1,209.999993591309,2|2,1:0|0:0,0:0:0:0:
144,336,225013,1,0,1:0:0:0:
144,336,225115,5,0,1:0:0:0:
290,120,225317,1,0,3:0:0:0:
87,151,225520,1,2,1:2:0:0:
294,280,225723,2,0,P|405:253|511:249,1,209.999993591309,0|0,1:0|0:0,0:0:0:0:
317,384,226331,69,0,1:0:0:0:
429,121,226534,1,0,3:0:0:0:
488,343,226736,1,2,1:2:0:0:
235,279,226939,1,0,1:0:0:0:
235,279,227142,2,0,P|223:315|217:346,3,52.4999983978272,0|0|0|0,1:0|1:0|1:0|1:0,0:0:0:0:
137,175,227547,6,0,L|145:243,1,52.4999983978272,0|0,1:0|1:0,0:0:0:0:
92,301,227750,2,0,L|86:354,1,52.4999983978272,0|0,1:0|1:0,0:0:0:0:
2,241,227952,5,0,1:0:0:0:
7,224,228054,1,0,1:0:0:0:
12,207,228155,1,0,1:0:0:0:
16,190,228256,1,0,1:0:0:0:
0,99,228358,22,0,B|115:128|81:60|209:90,1,209.999993591309,4|2,1:2|0:0,0:0:0:0:
375,45,228662,1,0,0:0:0:0:
391,31,228763,2,0,P|339:21|292:0,1,104.999996795654,0|0,1:0|0:0,0:0:0:0:
323,196,228966,2,0,P|370:173|421:164,1,104.999996795654,2|0,0:0|0:0,0:0:0:0:
512,55,229169,6,0,P|493:105|467:289,1,209.999993591309,0|2,1:0|0:0,0:0:0:0:
370,384,229473,2,0,P|346:336|337:279,1,104.999996795654,0|0,1:0|0:0,0:0:0:0:
282,90,229675,1,0,0:0:0:0:
269,107,229777,2,0,P|245:155|236:212,1,104.999996795654,2|0,1:2|0:0,0:0:0:0:
82,267,229979,6,0,P|159:180|239:208,1,209.999993591309,0|2,1:0|0:0,0:0:0:0:
121,352,230284,1,0,0:0:0:0:
101,358,230385,2,0,B|64:371|64:371|-16:354,1,104.999996795654,0|0,1:0|0:0,0:0:0:0:
96,148,230588,2,0,B|109:185|109:185|92:265,1,104.999996795654,2|0,0:0|0:0,0:0:0:0:
268,350,230790,6,0,P|321:366|382:369,1,104.999996795654,0|0,1:0|0:0,0:0:0:0:
498,242,230993,2,0,P|445:258|384:261,1,104.999996795654,2|0,1:2|0:0,0:0:0:0:
319,97,231196,1,0,1:0:0:0:
319,97,231297,1,0,1:0:0:0:
319,97,231398,2,0,P|372:81|433:78,1,104.999996795654,2|0,1:2|0:0,0:0:0:0:
395,261,231601,70,0,P|300:246|172:245,1,209.999993591309,4|2,1:0|0:0,0:0:0:0:
54,288,231905,1,0,0:0:0:0:
46,269,232006,2,0,P|43:204|69:151,1,104.999996795654,0|0,1:0|0:0,0:0:0:0:
212,15,232209,2,0,P|215:80|189:133,1,104.999996795654,0|0,1:0|0:0,0:0:0:0:
12,47,232412,6,0,B|87:57|87:57|123:100|123:100|216:119,1,209.999993591309,0|2,1:0|0:0,0:0:0:0:
373,143,232716,2,0,P|315:171|270:217,1,104.999996795654,0|0,1:0|0:0,0:0:0:0:
170,233,232919,1,0,0:0:0:0:
184,247,233020,2,0,P|216:289|237:338,1,104.999996795654,2|0,1:2|0:0,0:0:0:0:
350,384,233223,6,0,P|360:293|388:166,1,209.999993591309,0|2,1:0|0:0,0:0:0:0:
470,92,233527,1,0,0:0:0:0:
487,79,233628,2,0,P|445:44|389:37,1,104.999996795654,0|0,1:0|0:0,0:0:0:0:
249,80,233831,2,0,L|264:193,1,104.999996795654,2|0,1:2|0:0,0:0:0:0:
357,313,234034,5,0,1:0:0:0:
349,305,234135,1,0,1:0:0:0:
330,294,234236,1,0,1:0:0:0:
300,283,234338,1,0,1:0:0:0:
258,283,234439,1,0,1:0:0:0:
212,310,234540,1,0,1:0:0:0:
168,355,234642,1,0,1:0:0:0:
95,363,234743,1,0,1:0:0:0:
24,315,234844,70,0,P|7:264|-2:210,1,104.999996795654,4|0,1:0|0:0,0:0:0:0:
130,212,235047,2,0,P|147:161|156:107,1,104.999996795654,0|0,1:0|0:0,0:0:0:0:
15,6,235250,1,0,1:0:0:0:
0,21,235351,2,0,B|50:41|50:41|108:24,1,104.999996795654
292,0,235554,1,0,0:0:0:0:
288,20,235655,6,0,B|265:153|265:153|284:253,1,209.999993591309,0|0,1:0|0:0,0:0:0:0:
494,252,235959,2,0,P|488:151|387:137,1,209.999993591309,0|0,1:0|0:0,0:0:0:0:
279,226,236263,2,0,P|352:238|398:232,1,104.999996795654,0|0,1:0|0:0,0:0:0:0:
480,365,236466,6,0,P|427:362|376:374,1,104.999996795654,0|0,1:0|0:0,0:0:0:0:
256,328,236669,2,0,L|281:216,1,104.999996795654,0|0,1:0|0:0,0:0:0:0:
122,138,236871,1,0,1:0:0:0:
128,157,236973,2,0,L|153:269,1,104.999996795654
243,20,237175,1,0,0:0:0:0:
248,40,237277,6,0,P|228:127|104:122,1,209.999993591309,0|0,1:0|0:0,0:0:0:0:
0,37,237581,2,0,B|28:118|28:118|35:252,1,209.999993591309,0|0,1:0|0:0,0:0:0:0:
139,363,237885,2,0,L|150:259,1,104.999996795654,0|0,1:0|0:0,0:0:0:0:
279,227,238088,70,0,P|338:230|397:215,1,104.999996795654,0|0,1:2|0:0,0:0:0:0:
332,32,238290,2,0,B|312:68|312:68|325:146,1,104.999996795654,0|0,1:2|0:0,0:0:0:0:
490,278,238493,1,0,1:0:0:0:
486,257,238594,2,0,L|468:154,1,104.999996795654
362,361,238797,1,0,0:0:0:0:
343,352,238898,6,0,B|224:315|252:392|126:360,1,209.999993591309,0|0,1:0|0:0,0:0:0:0:
8,191,239202,2,0,P|76:159|131:279,1,209.999993591309,0|0,1:0|0:0,0:0:0:0:
247,349,239506,2,0,P|254:304|276:245,1,104.999996795654,0|0,1:0|0:0,0:0:0:0:
292,126,239709,6,0,B|236:127|236:127|194:103,1,104.999996795654,0|0,1:0|0:0,0:0:0:0:
384,0,239912,2,0,P|386:52|394:104,1,104.999996795654,0|0,1:0|0:0,0:0:0:0:
508,71,240115,1,0,1:0:0:0:
509,92,240216,2,0,P|507:144|499:196,1,104.999996795654
369,238,240419,1,0,0:0:0:0:
363,258,240520,6,0,P|402:358|506:363,1,209.999993591309,0|0,1:0|0:0,0:0:0:0:
394,104,240824,2,0,B|323:88|323:88|260:117|260:117|191:103,1,209.999993591309,0|0,1:0|0:0,0:0:0:0:
0,62,241128,1,0,1:0:0:0:
256,24,241331,70,0,L|244:128,7,89.9999972534181,0|0|0|0|0|0|0|0,1:0|0:0|0:0|0:0|0:0|0:0|0:0|0:0,0:0:0:0:
338,167,242142,2,0,L|246:216,7,89.9999972534181,0|0|0|0|0|0|0|0,1:0|0:0|0:0|0:0|0:0|0:0|0:0|0:0,0:0:0:0:
267,313,242952,2,0,L|174:266,7,89.9999972534181,0|0|0|0|0|0|0|0,1:0|0:0|0:0|0:0|0:0|0:0|0:0|0:0,0:0:0:0:
105,341,243763,2,0,L|90:237,7,89.9999972534181,0|0|0|0|0|0|0|0,1:0|0:0|0:0|0:0|0:0|0:0|0:0|0:0,0:0:0:0:
146,157,244574,5,4,0:0:0:0:
