osu file format v14

[General]
AudioFilename: audio.mp3
AudioLeadIn: 0
PreviewTime: 32605
Countdown: 0
SampleSet: Soft
StackLeniency: 0.7
Mode: 0
LetterboxInBreaks: 0
WidescreenStoryboard: 0

[Editor]
Bookmarks: 4161,11272,17939,21939,32605,39717,45050,46828,53939,57494,61050,68161,71717,75272,77050,78828,80605,82383,87717,89494
DistanceSpacing: 3.8
BeatDivisor: 4
GridSize: 4
TimelineZoom: 1.8

[Metadata]
Title:Chou no Tobu Suisou (TV Size)
TitleUnicode:蝶の飛ぶ水槽 (TV Size)
Artist:TK from Ling tosite sigure
ArtistUnicode:TK from 凛として時雨
Creator:Mao
Version:Lost Memory
Source:pet
Tags:ペット anime opening OP japanese rock j-rock altai undeadphoneguy
BeatmapID:2283411
BeatmapSetID:1092341

[Difficulty]
HPDrainRate:6
CircleSize:4.2
OverallDifficulty:8.2
ApproachRate:9.2
SliderMultiplier:2
SliderTickRate:1

[Events]
//Background and Video events
0,0,"pet.jpg",0,0
Video,400,"600 op.mp4"
//Break Periods
//Storyboard Layer 0 (Background)
//Storyboard Layer 1 (Fail)
//Storyboard Layer 2 (Pass)
//Storyboard Layer 3 (Foreground)
//Storyboard Layer 4 (Overlay)
//Storyboard Sound Samples

[TimingPoints]
606,444.444444444444,4,2,1,30,1,0
4161,-200,4,2,1,30,0,0
14828,-133.333333333333,4,2,1,40,0,0
17717,-100,4,2,1,40,0,0
17939,-200,4,2,1,40,0,0
18605,-100,4,2,1,40,0,0
20161,-125,4,2,1,40,0,0
21939,-125,4,2,1,50,0,0
32605,-166.666666666667,4,2,1,30,0,0
39717,-200,4,2,1,35,0,0
45050,-50,4,2,1,60,0,0
45272,-133.333333333333,4,2,1,60,0,0
46272,-133.333333333333,4,1,0,60,0,0
46605,-133.333333333333,4,2,1,60,0,0
46828,-666.666666666667,4,2,1,60,0,0
48605,-400,4,2,1,60,0,0
50383,-500,4,2,1,60,0,0
52161,-333.333333333333,4,2,1,60,0,0
53939,-100,4,2,1,60,0,0
54272,-100,4,2,1,30,0,0
55717,-100,4,2,1,40,0,0
56383,-100,4,2,1,50,0,0
57050,-100,4,2,1,60,0,0
57494,-71.4285714285714,4,2,1,70,0,0
61050,-62.5,4,2,1,80,0,1
65494,-50,4,2,1,80,0,1
66383,-62.5,4,2,1,80,0,1
68050,-62.5,4,2,1,80,0,0
68161,-62.5,4,2,1,80,0,1
71605,-62.5,4,2,1,80,0,0
71717,-200,4,2,1,80,0,1
71828,-200,4,2,1,80,0,0
72050,-200,4,2,1,80,0,1
72161,-200,4,2,1,80,0,0
72383,-200,4,2,1,80,0,1
72494,-200,4,2,1,80,0,0
72605,-200,4,2,1,80,0,1
72717,-200,4,2,1,80,0,0
72939,-200,4,2,1,80,0,1
73050,-200,4,2,1,80,0,0
73272,-200,4,2,1,80,0,1
73383,-200,4,2,1,80,0,0
73494,-200,4,2,1,80,0,1
73605,-200,4,2,1,80,0,0
74828,-133.333333333333,4,2,1,80,0,0
75272,-40,4,2,1,90,0,0
76605,-33.3333333333333,4,2,1,90,0,1
77050,-40,4,2,1,90,0,0
78383,-33.3333333333333,4,2,1,90,0,1
78828,-40,4,2,1,90,0,0
80161,-33.3333333333333,4,2,1,90,0,1
80494,-33.3333333333333,4,2,1,90,0,0
80605,-25,4,2,1,100,0,1
81939,-200,4,2,1,80,0,0
82383,-62.5,4,2,1,80,0,0
87717,-62.5,4,2,1,90,0,1
89383,-62.5,4,2,1,90,0,0

[Colours]
Combo1 : 219,121,240
Combo2 : 163,233,194
Combo3 : 123,158,223
Combo4 : 69,211,169
Combo5 : 77,104,213
Combo6 : 233,86,86

[HitObjects]
29,300,4161,6,0,L|38:357,1,50,2|0,0:0|0:0,0:0:0:0:
107,318,4605,2,0,L|116:390,1,50
168,273,5050,2,0,L|178:186,1,75,2|0,0:0|0:0,0:0:0:0:
193,191,5494,1,0,0:0:0:0:
124,132,5717,2,0,L|52:141,1,50,2|0,0:0|0:0,0:0:0:0:
170,56,6161,1,2,0:0:0:0:
434,106,6605,5,0,0:0:0:0:
434,106,6828,2,0,L|348:90,1,75,2|0,0:0|0:0,0:0:0:0:
500,50,7494,1,2,0:0:0:0:
488,294,11050,69,0,0:0:0:0:
488,294,11272,2,0,L|479:351,1,50,2|0,0:0|0:0,0:0:0:0:
404,309,11717,2,0,L|395:366,1,50,2|0,0:0|0:0,0:0:0:0:
370,229,12161,2,0,L|355:149,1,75,2|0,0:0|0:0,0:0:0:0:
339,150,12605,1,0,0:0:0:0:
413,87,12828,2,0,L|420:37,1,50,2|0,0:0|0:0,0:0:0:0:
473,158,13272,1,2,0:0:0:0:
243,297,13716,5,0,0:0:0:0:
243,297,13939,2,0,L|227:211,1,75,2|0,0:0|0:0,0:0:0:0:
260,380,14605,1,2,0:0:0:0:
157,277,14828,70,0,B|119:270|119:270|86:286,1,75.0000028610231,6|0,1:2|3:0,0:0:0:0:
130,367,15272,1,4,0:3:0:0:
132,354,15383,1,2,0:0:0:0:
12,314,15605,1,0,3:0:0:0:
14,327,15716,1,4,3:0:0:0:
211,37,16605,5,6,3:0:0:0:
211,37,16828,1,2,0:0:0:0:
78,14,17050,69,6,3:0:0:0:
90,32,17161,1,0,3:0:0:0:
75,58,17272,1,0,3:0:0:0:
92,86,17383,1,4,3:0:0:0:
316,86,17717,6,0,L|275:143,1,50,8|0,0:0|0:0,0:0:0:0:
309,76,17939,2,0,L|425:62,1,100,2|0,0:0|0:0,0:0:0:0:
451,342,18605,70,0,L|437:284,1,50,6|0,3:0|0:0,0:0:0:0:
474,356,18939,2,0,L|480:296,1,50,4|0,3:0|0:0,0:0:0:0:
490,377,19272,2,0,L|516:323,1,50,4|0,3:0|0:0,0:0:0:0:
495,110,19717,1,10,0:0:0:0:
495,110,19828,1,8,0:0:0:0:
468,142,19939,1,2,1:2:0:0:
429,133,20050,1,2,1:2:0:0:
400,173,20161,6,0,L|392:252,1,80,4|0,0:0|0:0,0:0:0:0:
388,295,20494,1,2,0:0:0:0:
388,295,20605,2,0,P|329:288|284:238,1,120,4|4,0:3|0:3,0:0:0:0:
268,173,21050,1,2,0:0:0:0:
258,178,21161,1,0,0:0:0:0:
188,354,21383,1,2,0:0:0:0:
181,337,21494,1,2,0:0:0:0:
189,296,21605,1,0,0:0:0:0:
151,260,21717,2,0,L|166:206,1,40,2|0,0:0|0:0,0:0:0:0:
199,89,21939,1,4,0:0:0:0:
78,364,22161,69,2,0:0:0:0:
26,303,22383,1,4,0:3:0:0:
15,223,22605,1,4,0:0:0:0:
41,147,22828,1,4,0:3:0:0:
33,139,22939,1,2,0:3:0:0:
98,91,23161,1,4,0:3:0:0:
175,71,23494,1,8,0:0:0:0:
512,17,23939,5,2,0:0:0:0:
436,41,24161,1,4,0:3:0:0:
356,33,24383,1,2,0:0:0:0:
288,75,24605,1,4,0:3:0:0:
285,86,24717,1,0,3:0:0:0:
208,61,24939,1,4,0:3:0:0:
132,87,25272,1,8,0:0:0:0:
388,366,25717,69,2,0:0:0:0:
312,342,25939,1,4,0:3:0:0:
232,350,26161,1,2,0:0:0:0:
164,308,26383,1,2,0:0:0:0:
161,297,26495,1,0,3:0:0:0:
84,322,26717,1,4,0:3:0:0:
8,296,27050,1,8,0:0:0:0:
395,194,27494,5,2,0:0:0:0:
319,220,27716,1,4,0:3:0:0:
221,125,28050,1,14,0:3:0:0:
228,138,28161,1,2,0:0:0:0:
265,149,28272,1,4,0:3:0:0:
179,215,28494,1,4,0:0:0:0:
117,151,28828,2,0,P|107:111|99:69,1,80,8|4,0:0|0:3,0:0:0:0:
47,211,29272,2,0,P|54:272|60:371,1,160,2|0,0:0|0:0,0:0:0:0:
8,120,30050,69,6,0:3:0:0:
3,134,30161,1,2,0:0:0:0:
15,27,30383,1,4,0:3:0:0:
209,96,30605,1,8,0:0:0:0:
143,54,30828,2,0,P|156:112|176:168,2,120,6|2|0,1:2|0:0|0:0,0:0:0:0:
266,42,31717,1,2,0:0:0:0:
272,29,31828,1,8,0:3:0:0:
472,28,32050,1,4,0:0:0:0:
480,42,32161,5,8,0:3:0:0:
421,102,32272,1,4,0:3:0:0:
346,64,32383,1,6,3:0:0:0:
346,64,32605,1,6,1:2:0:0:
447,195,32828,70,0,L|512:183,1,59.9999981689454,2|0,0:0|0:0,0:0:0:0:
432,185,33272,1,0,0:0:0:0:
380,269,33494,2,0,L|481:284,1,89.9999972534181,2|0,0:0|0:0,0:0:0:0:
354,239,34161,1,2,0:0:0:0:
34,343,35050,5,0,0:0:0:0:
34,343,35272,1,2,0:0:0:0:
104,283,35605,1,2,0:0:0:0:
166,351,35939,1,0,0:0:0:0:
202,362,36161,2,0,L|216:302,1,59.9999981689454,2|0,0:0|0:0,0:0:0:0:
22,14,36828,69,0,0:0:0:0:
26,28,36939,1,0,0:0:0:0:
31,42,37050,1,2,0:0:0:0:
121,42,37383,1,2,0:0:0:0:
156,124,37717,1,0,0:0:0:0:
190,108,37939,1,2,0:0:0:0:
497,11,38605,5,0,0:0:0:0:
482,6,38717,1,0,0:0:0:0:
467,1,38828,1,2,0:0:0:0:
409,69,39050,1,0,0:0:0:0:
383,34,39272,1,2,0:0:0:0:
496,100,39494,1,0,0:0:0:0:
428,161,39717,70,0,L|420:214,1,50,4|0,0:0|0:0,0:0:0:0:
454,183,40161,2,0,L|446:236,1,50,2|0,0:0|0:0,0:0:0:0:
380,283,40494,1,0,0:0:0:0:
392,295,40605,2,0,L|384:348,1,50,2|0,0:0|0:0,0:0:0:0:
478,315,41049,2,0,L|470:368,1,50,2|0,0:0|0:0,0:0:0:0:
296,375,41494,5,2,0:0:0:0:
296,375,41717,1,0,0:0:0:0:
337,182,41939,1,4,0:0:0:0:
289,273,42161,1,0,0:0:0:0:
277,276,42272,1,0,0:0:0:0:
264,278,42383,1,2,0:0:0:0:
182,218,42605,1,0,0:0:0:0:
174,320,42828,1,2,0:0:0:0:
23,364,43050,1,0,0:0:0:0:
87,301,43272,69,2,0:0:0:0:
11,271,43494,1,0,0:0:0:0:
23,347,43717,1,2,0:0:0:0:
86,179,43939,5,0,0:0:0:0:
167,203,44161,2,0,L|75:211,1,75,2|2,0:0|0:0,0:0:0:0:
220,130,44828,1,0,0:0:0:0:
15,34,45050,70,0,B|8:21|8:21|55:19|84:54,1,100,4|0,1:0|0:0,0:0:0:0:
132,125,45272,6,2,B|142:118|142:118|143:122|143:122|162:113|162:113|163:117|163:117|181:109|181:109|179:118|179:118|215:97|215:97|218:109|218:109|224:99|224:99|229:102|229:102|232:97|232:97|239:92|239:92|244:95|244:95|248:94|248:94|256:96|256:96|277:79|277:79|294:83|294:83|296:74|296:74|308:71|308:71|306:80|306:80|314:69|314:69|324:74|324:74|344:67|344:67|342:59|342:59|365:50|365:50|373:44|373:44|373:51|373:51|380:47|380:47|383:42|383:42|388:45|388:45|391:40|391:40|392:44|392:44|397:43|397:43|400:42|400:42|399:38|399:38|406:37|406:37|412:35|412:35|418:36|418:36|424:32|424:32|434:30|434:30|442:27|442:27|461:21,1,450.000017166138,2|0,0:0|0:0,0:0:0:0:
485,179,46828,70,0,L|379:145,1,104.999996795654,4|0,1:0|0:0,0:0:0:0:
212,220,48605,6,0,L|380:165,1,175,4|0,1:0|0:0,0:0:0:0:
509,320,50383,70,0,P|471:270|398:258,1,140,4|0,1:0|0:0,0:0:0:0:
256,366,52161,6,0,P|312:373|366:334,1,119.999996337891,4|2,1:0|0:0,0:0:0:0:
224,271,53383,1,0,0:0:0:0:
224,271,53439,1,0,0:0:0:0:
224,271,53494,1,4,0:0:0:0:
0,372,53939,70,0,L|122:355,1,100,4|2,1:0|0:0,0:0:0:0:
109,370,54272,1,0,1:0:0:0:
118,346,54383,1,0,1:0:0:0:
122,321,54494,1,0,1:0:0:0:
149,300,54605,5,6,1:3:0:0:
113,295,54717,1,0,1:0:0:0:
87,271,54828,1,2,1:2:0:0:
76,237,54939,1,0,1:0:0:0:
84,203,55050,1,2,1:2:0:0:
116,179,55161,1,0,1:0:0:0:
155,181,55272,1,4,1:3:0:0:
194,177,55383,1,0,1:0:0:0:
229,159,55494,1,0,1:0:0:0:
253,127,55605,1,0,1:0:0:0:
285,81,55717,69,6,1:2:0:0:
235,56,55828,1,0,1:0:0:0:
189,24,55939,1,2,1:2:0:0:
134,26,56050,1,0,1:0:0:0:
94,64,56161,1,0,1:0:0:0:
86,118,56272,1,0,1:0:0:0:
115,175,56383,5,6,1:2:0:0:
174,201,56494,1,0,1:0:0:0:
238,192,56605,1,2,1:2:0:0:
289,151,56717,1,0,1:0:0:0:
319,93,56828,1,0,1:0:0:0:
374,58,56939,1,0,1:0:0:0:
458,31,57050,69,4,1:2:0:0:
409,87,57161,1,4,1:3:0:0:
385,158,57272,1,6,1:3:0:0:
380,232,57383,1,6,1:3:0:0:
394,312,57494,6,0,L|536:338,1,139.999995727539,4|0,1:0|0:0,0:0:0:0:
384,329,57828,2,0,L|318:363,1,69.9999978637696,4|8,0:0|0:0,0:0:0:0:
190,276,58161,1,2,0:0:0:0:
176,241,58272,1,0,0:0:0:0:
114,290,58383,2,0,L|235:363,1,139.999995727539,4|0,1:0|0:0,0:0:0:0:
98,302,58717,2,0,L|26:308,1,69.9999978637696,4|8,0:0|0:0,0:0:0:0:
98,102,59050,1,4,0:0:0:0:
62,117,59161,1,2,0:0:0:0:
119,22,59272,70,0,P|127:92|142:175,1,139.999995727539,4|0,1:0|0:0,0:0:0:0:
393,362,59605,2,0,P|384:291|370:209,1,139.999995727539,4|0,1:0|0:0,0:0:0:0:
205,51,59939,2,0,P|209:89|217:134,1,69.9999978637696,4|0,1:0|0:0,0:0:0:0:
293,302,60161,5,4,1:0:0:0:
311,256,60272,1,0,1:0:0:0:
336,213,60383,1,8,0:0:0:0:
370,177,60494,1,8,0:0:0:0:
288,142,60605,69,8,0:0:0:0:
347,193,60717,1,10,1:2:0:0:
389,257,60828,1,8,0:0:0:0:
407,331,60939,1,8,0:0:0:0:
342,384,61050,38,0,P|414:350|490:325,1,160,4|2,1:0|0:0,0:0:0:0:
502,340,61383,1,0,0:0:0:0:
425,184,61494,2,0,P|349:159|276:124,1,160,10|2,0:0|0:0,0:0:0:0:
66,373,61939,1,6,3:0:0:0:
33,306,62050,1,2,0:0:0:0:
45,382,62161,2,0,P|60:303|91:219,1,160,4|8,0:0|0:2,0:0:0:0:
153,21,62605,2,0,B|179:49|179:49|187:102,1,80,2|0,0:0|0:0,0:0:0:0:
7,80,62828,2,0,P|73:34|154:-2,1,160,4|2,1:0|0:0,0:0:0:0:
271,22,63272,1,8,0:0:0:0:
153,186,63494,70,0,L|240:185,1,80,4|0,0:0|0:0,0:0:0:0:
81,136,63717,2,0,L|162:166,1,80,6|0,3:0|0:0,0:0:0:0:
184,263,63939,2,0,L|265:293,1,80,2|0,0:0|0:0,0:0:0:0:
454,369,64161,5,8,0:0:0:0:
409,376,64272,1,8,0:0:0:0:
424,301,64383,1,2,0:0:0:0:
403,289,64494,1,0,0:0:0:0:
461,231,64605,70,0,L|421:133,1,80,4|0,1:0|0:0,0:0:0:0:
398,6,64828,1,8,0:0:0:0:
323,27,64939,2,0,L|495:71,1,160,4|0,0:0|0:0,0:0:0:0:
309,10,65272,2,0,L|231:28,1,80,2|0,0:0|0:0,0:0:0:0:
44,221,65494,6,0,B|83:143|172:167|164:197|259:222|304:141,1,300,6|0,1:0|0:0,0:0:0:0:
231,370,65939,2,2,P|239:320|263:247,1,100,12|0,1:2|0:0,0:3:0:0:
52,16,66161,1,2,0:1:0:0:
52,16,66383,2,0,P|82:80|136:152,1,160,4|2,1:0|0:0,0:0:0:0:
105,344,66828,1,8,0:0:0:0:
344,318,67050,1,2,0:0:0:0:
331,290,67161,1,0,0:0:0:0:
416,365,67272,70,0,L|428:286,1,80,6|0,1:2|0:0,0:0:0:0:
450,194,67494,2,0,L|462:274,1,80,2|0,0:0|0:0,0:0:0:0:
381,121,67717,5,8,0:0:0:0:
472,92,67828,1,8,0:0:0:0:
367,104,67939,1,8,0:0:0:0:
470,70,68050,1,8,0:0:0:0:
383,22,68161,70,0,P|417:94|444:169,1,160,4|2,1:0|0:0,0:0:0:0:
441,189,68494,1,0,0:0:0:0:
281,54,68605,2,0,P|291:133|310:211,1,160,8|0,0:0|0:0,0:0:0:0:
12,55,69050,1,6,3:0:0:0:
79,22,69161,1,2,0:0:0:0:
3,34,69272,2,0,P|82:49|166:80,1,160,4|8,0:0|0:0,0:0:0:0:
121,358,69717,2,0,B|157:337|157:337|174:303,1,80,2|0,0:0|0:0,0:0:0:0:
119,158,69939,2,0,P|164:224|201:305,1,160,4|2,1:0|0:0,0:0:0:0:
45,228,70383,1,8,0:0:0:0:
291,166,70605,6,0,L|307:80,1,80,4|0,0:0|0:0,0:0:0:0:
327,245,70828,2,0,L|311:159,1,80,6|0,3:0|0:0,0:0:0:0:
220,122,71050,2,0,L|204:36,1,80,2|0,0:0|0:0,0:0:0:0:
482,32,71272,69,8,0:0:0:0:
451,55,71383,1,2,0:0:0:0:
493,116,71494,1,2,0:3:0:0:
504,122,71605,1,0,0:0:0:0:
504,198,71717,6,0,L|492:262,1,50,4|0,1:0|0:0,0:0:0:0:
354,343,72050,2,0,L|405:321,1,50,4|0,1:0|0:0,0:0:0:0:
260,174,72383,1,4,1:0:0:0:
273,183,72494,1,0,0:0:0:0:
349,135,72605,70,0,L|292:153,1,50,4|0,1:0|0:0,0:0:0:0:
93,33,72939,2,0,L|142:53,1,50,4|0,1:0|0:0,0:0:0:0:
117,285,73272,2,0,L|124:258,1,25,4|0,1:0|0:0,0:0:0:0:
36,192,73494,5,4,1:0:0:0:
71,220,73605,1,8,0:0:0:0:
90,261,73717,1,8,0:0:0:0:
94,305,73828,1,8,0:0:0:0:
47,372,73939,69,14,1:2:0:0:
72,307,74050,1,8,0:0:0:0:
124,261,74161,1,8,0:0:0:0:
190,239,74272,1,8,0:0:0:0:
244,295,74383,5,8,0:0:0:0:
164,242,74494,1,8,0:0:0:0:
154,147,74605,1,8,0:0:0:0:
192,59,74717,1,8,0:0:0:0:
76,41,74828,70,2,B|97:39|97:39|159:72|159:72|184:71,1,112.500004291535,4|0,0:0|0:0,1:0:0:0:
336,286,75272,38,0,B|342:248|342:248|360:226|360:226|350:137|350:137|413:52,1,250,6|0,1:0|0:0,0:0:0:0:
234,328,75605,2,0,B|202:306|202:306|173:304|173:304|116:235|116:235|11:221,1,250,6|0,1:0|0:0,0:0:0:0:
307,359,75939,1,6,1:0:0:0:
67,76,76383,69,4,3:0:0:0:
10,14,76494,1,4,3:0:0:0:
52,84,76605,6,2,B|125:80|125:80|173:127|173:127|194:112|194:112|227:171|227:171|430:276,1,450.000017166138,6|0,1:0|0:0,0:3:0:0:
484,70,77050,70,0,B|373:134|373:134|349:11,1,250,4|0,1:0|0:0,0:0:0:0:
288,311,77383,2,0,B|176:249|176:249|165:276|165:276|144:291|144:291|110:349,1,250,6|0,1:0|0:0,0:0:0:0:
0,153,77717,1,6,1:0:0:0:
476,357,78161,5,4,3:0:0:0:
511,267,78272,1,4,3:0:0:0:
490,357,78383,70,2,B|438:310|438:310|435:263|435:263|412:257|412:257|378:200|378:200|286:183|286:183|155:101,1,450.000017166138,6|0,1:0|0:0,0:1:0:0:
11,74,78828,6,0,B|62:14|62:14|263:34,1,250,4|0,1:0|0:0,0:0:0:0:
207,328,79161,2,0,B|202:303|202:303|217:270|217:270|214:231|214:231|113:171|113:171|87:144,1,250,6|0,1:0|0:0,0:0:0:0:
19,340,79494,1,6,1:0:0:0:
428,54,79939,69,4,3:0:0:0:
501,9,80050,1,4,3:0:0:0:
432,84,80161,6,2,B|402:97|402:97|386:115|386:115|322:125|322:125|319:143|319:143|303:139|303:139|286:178|286:178|237:170|237:170|233:227|233:227|159:222|159:222|96:281,1,450.000017166138,6|0,1:0|0:0,1:0:0:0:
0,10,80605,70,2,B|30:24|30:24|84:82|84:82|109:91|109:91|138:120|138:120|167:134|167:134|176:150|176:150|202:163|202:163|210:172|210:172|234:187|234:187|238:197|238:197|260:212|260:212|272:223|272:223|288:221|288:221|292:226|292:226|316:224,1,400,6|0,1:0|0:0,0:1:0:0:
512,374,80939,2,2,B|481:359|481:359|427:301|427:301|402:292|402:292|373:263|373:263|344:249|344:249|335:233|335:233|309:220|309:220|301:211|301:211|277:196|277:196|273:186|273:186|251:171|251:171|239:160|239:160|223:162|223:162|219:157|219:157|195:159,1,400,6|0,1:0|0:0,0:1:0:0:
272,92,81272,2,0,B|256:192|256:192|240:292,1,200,6|0,1:0|0:0,0:0:0:0:
252,371,81494,5,8,1:2:0:0:
223,283,81605,69,8,1:2:0:0:
272,207,81717,5,8,1:2:0:0:
186,147,81828,69,8,1:2:0:0:
234,22,81939,6,2,L|249:101,1,75,6|0,1:2|0:0,0:1:0:0:
4,336,82383,38,0,P|62:281|125:232,1,160,4|2,1:0|0:0,0:0:0:0:
133,252,82716,1,0,0:0:0:0:
0,129,82828,2,0,P|79:131|159:141,1,160,8|2,0:0|0:0,0:0:0:0:
500,55,83272,1,6,3:0:0:0:
433,22,83383,1,0,0:0:0:0:
507,36,83494,2,0,P|432:65|361:102,1,160,4|8,0:0|0:0,0:0:0:0:
488,303,83938,2,0,B|461:273|461:273|454:222,1,80,2|0,0:0|0:0,0:0:0:0:
366,362,84161,2,0,P|396:280|439:212,1,160,4|0,1:0|0:0,0:0:0:0:
456,375,84605,1,8,0:0:0:0:
265,212,84827,6,0,L|281:298,1,80,4|0,0:0|0:0,0:0:0:0:
301,133,85050,2,0,L|285:219,1,80,6|0,0:0|0:0,0:0:0:0:
194,256,85272,2,0,L|178:342,1,80,2|0,0:0|0:0,0:0:0:0:
208,72,85494,1,8,0:0:0:0:
27,166,85716,1,6,0:3:0:0:
131,169,85827,1,0,0:0:0:0:
40,142,85938,70,0,L|15:58,1,80,4|0,1:0|0:0,0:0:0:0:
75,305,86161,1,2,0:0:0:0:
162,293,86272,2,0,L|-10:249,1,160,8|0,0:0|0:0,0:0:0:0:
177,323,86605,2,0,L|259:303,1,80,2|0,0:0|0:0,0:0:0:0:
295,142,86828,2,0,L|148:41,1,160,6|0,1:2|0:0,0:0:0:0:
298,175,87161,2,0,L|381:184,1,80,2|8,0:0|0:0,0:0:0:0:
506,42,87383,1,2,0:0:0:0:
390,24,87494,2,0,L|473:14,1,80,4|0,0:0|0:0,0:0:0:0:
500,165,87717,21,14,0:0:0:0:
477,153,87828,1,8,0:0:0:0:
507,214,87939,5,12,0:0:0:0:
478,191,88050,1,8,0:0:0:0:
496,257,88161,69,12,0:0:0:0:
464,228,88272,1,8,0:0:0:0:
467,297,88383,5,12,0:0:0:0:
436,263,88494,1,8,0:0:0:0:
378,367,88606,69,12,0:0:0:0:
389,334,88717,1,8,0:0:0:0:
342,329,88828,5,12,0:0:0:0:
348,278,88939,1,8,0:0:0:0:
293,306,89051,69,12,0:0:0:0:
295,247,89162,1,8,0:0:0:0:
231,301,89272,5,12,0:0:0:0:
228,237,89383,1,2,0:0:0:0:
