osu file format v14

[General]
AudioFilename: audio.mp3
AudioLeadIn: 0
PreviewTime: 32605
Countdown: 0
SampleSet: Soft
StackLeniency: 0.7
Mode: 0
LetterboxInBreaks: 0
WidescreenStoryboard: 1

[Editor]
Bookmarks: 4161,11272,17939,21939,32605,39717,45050,46828,53939,57494,61050,68161,71717,75272,77050,78828,80605,82383,87717,89494
DistanceSpacing: 1.1
BeatDivisor: 4
GridSize: 4
TimelineZoom: 1

[Metadata]
Title:Chou no Tobu Suisou (TV Size)
TitleUnicode:蝶の飛ぶ水槽 (TV Size)
Artist:TK from Ling tosite sigure
ArtistUnicode:TK from 凛として時雨
Creator:Mao
Version:Hard
Source:pet
Tags:ペット anime opening OP japanese rock j-rock altai undeadphoneguy
BeatmapID:2283410
BeatmapSetID:1092341

[Difficulty]
HPDrainRate:5
CircleSize:4.2
OverallDifficulty:7
ApproachRate:8
SliderMultiplier:2
SliderTickRate:1

[Events]
//Background and Video events
0,0,"pet.jpg",0,0
Video,400,"600 op.mp4"
//Break Periods
2,32805,38967
//Storyboard Layer 0 (Background)
//Storyboard Layer 1 (Fail)
//Storyboard Layer 2 (Pass)
//Storyboard Layer 3 (Foreground)
//Storyboard Layer 4 (Overlay)
//Storyboard Sound Samples

[TimingPoints]
606,444.444444444444,4,2,1,30,1,0
4161,-200,4,2,1,30,0,0
14828,-133.333333333333,4,2,1,40,0,0
46171,-133.333333333333,4,2,1,60,0,0
46828,-285.714285714286,4,2,1,60,0,0
53939,-200,4,2,1,60,0,0
59272,-100,4,2,1,60,0,0
61050,-76.9230769230769,4,2,1,80,0,1
65050,-76.9230769230769,4,2,1,80,0,1
71717,-133.333333333333,4,2,1,80,0,1
75272,-100,4,2,1,90,0,0
76605,-57.1428571428571,4,2,1,90,0,1
77050,-100,4,2,1,90,0,0
78383,-56.8181818181818,4,2,1,90,0,1
78828,-133.333333333333,4,2,1,90,0,0
80161,-57.1428571428571,4,2,1,90,0,1
80605,-50,4,2,1,100,0,1
81939,-333.333333333333,4,2,1,100,0,0
82383,-80,4,2,1,80,0,0
87717,-100,4,2,1,80,0,1
89494,-100,4,2,1,80,0,0

[Colours]
Combo1 : 219,121,240
Combo2 : 163,233,194
Combo3 : 123,158,223
Combo4 : 69,211,169
Combo5 : 77,104,213
Combo6 : 233,86,86

[HitObjects]
442,132,4161,6,0,P|476:100|467:35,2,100,2|0|2,0:0|0:0|0:0,0:0:0:0:
316,50,5494,1,0,0:0:0:0:
316,50,5717,2,0,P|268:43|209:29,1,100,2|2,0:0|0:0,0:0:0:0:
61,132,6605,1,0,0:0:0:0:
61,132,6828,2,0,P|71:168|74:206,2,75,2|0|2,0:0|0:0|0:0,0:0:0:0:
461,366,11050,5,0,0:0:0:0:
461,366,11272,2,0,P|474:319|510:284,2,100,2|2|2,0:0|0:0|0:0,0:0:0:0:
324,255,12605,1,0,0:0:0:0:
324,255,12828,2,0,L|217:276,1,100,2|2,0:0|0:0,0:0:0:0:
40,362,13716,1,0,0:0:0:0:
40,362,13939,2,0,P|41:337|70:291,2,75,2|0|2,0:0|0:0|0:0,0:0:0:0:
122,360,14828,70,0,P|112:274|94:213,2,150.000005722046,6|4|4,1:2|0:3|3:0,0:0:0:0:
451,53,16605,1,6,3:0:0:0:
451,53,17050,2,0,P|402:62|344:30,1,112.500004291535,6|4,3:0|3:0,0:0:0:0:
493,147,17717,2,0,B|439:162|439:162|384:325,1,225.000008583069,8|0,0:0|0:0,0:0:0:0:
468,374,18605,5,6,3:0:0:0:
470,333,18939,1,4,3:0:0:0:
495,305,19272,1,4,3:0:0:0:
272,353,19717,2,0,L|215:368,3,37.5000014305115,10|8|2|2,0:0|0:0|1:2|1:2,0:0:0:0:
301,367,20161,70,0,P|304:304|323:252,1,112.500004291535,4|2,0:0|0:0,0:0:0:0:
296,250,20605,2,0,P|312:196|315:140,1,112.500004291535,4|0,0:3|0:0,0:0:0:0:
331,127,21050,1,2,0:0:0:0:
364,51,21272,1,4,0:0:0:0:
286,25,21494,2,0,P|236:25|229:123,1,150.000005722046,2|4,0:0|0:0,0:0:0:0:
171,179,22161,5,2,0:0:0:0:
94,148,22383,1,4,0:3:0:0:
36,206,22605,1,4,0:0:0:0:
72,280,22828,2,0,L|47:395,2,112.500004291535,4|4|8,0:3|0:3|0:0,0:0:0:0:
213,365,23939,69,2,0:0:0:0:
269,305,24161,1,4,0:3:0:0:
348,327,24383,1,2,0:0:0:0:
404,266,24606,2,0,P|455:278|522:304,2,112.500004291535,4|4|8,0:3|0:3|0:0,0:0:0:0:
473,115,25717,5,2,0:0:0:0:
432,43,25939,1,4,0:3:0:0:
350,30,26161,1,2,0:0:0:0:
301,97,26384,2,0,P|307:149|327:225,2,112.500004291535,2|4|8,0:0|0:3|0:0,0:0:0:0:
152,24,27494,69,2,0:0:0:0:
133,104,27716,1,4,0:3:0:0:
53,125,27938,1,0,0:0:0:0:
36,206,28161,2,0,L|51:349,1,112.500004291535,2|4,0:0|0:0,0:0:0:0:
155,379,28828,6,0,P|199:351|195:240,1,150.000005722046,8|2,0:0|0:0,0:0:0:0:
170,186,29494,2,0,P|220:215|281:207,1,112.500004291535,0|0,0:0|0:0,0:0:0:0:
342,107,30161,2,0,P|361:54|397:-3,1,112.500004291535,2|0,0:0|0:0,0:0:0:0:
410,4,30605,1,8,0:0:0:0:
453,74,30828,70,0,P|499:56|505:-10,2,112.500004291535,6|2|0,1:2|0:0|0:0,0:0:0:0:
414,148,31717,1,2,0:0:0:0:
414,148,31828,1,2,0:0:0:0:
461,221,32050,1,4,0:0:0:0:
461,221,32161,2,0,L|464:261,2,37.5000014305115,8|4|0,0:3|0:3|0:0,0:0:0:0:
495,146,32605,5,6,1:2:0:0:
58,52,39717,69,4,0:0:0:0:
303,22,40383,1,0,0:0:0:0:
303,22,40605,1,2,0:0:0:0:
212,254,41272,1,0,0:0:0:0:
212,254,41494,1,2,0:0:0:0:
177,8,42161,5,0,0:0:0:0:
185,20,42272,1,0,0:0:0:0:
193,31,42383,1,2,0:0:0:0:
190,113,42605,1,0,0:0:0:0:
263,151,42828,1,2,0:0:0:0:
272,69,43050,2,0,P|321:30|405:37,1,150.000005722046,0|0,0:0|0:0,0:0:0:0:
479,240,43939,1,0,0:0:0:0:
479,240,44161,2,0,L|465:351,2,112.500004291535,2|0|0,0:0|0:0|0:0,0:0:0:0:
489,157,45050,1,4,1:0:0:0:
256,192,45161,12,0,46383,0:0:0:0:
44,182,46828,70,0,P|132:221|195:108,1,244.999992523194,4|0,1:0|0:0,0:0:0:0:
245,40,48605,2,0,P|228:102|198:293,1,244.999992523194,4|0,1:0|0:0,0:0:0:0:
218,365,50383,2,0,P|235:300|381:328,1,244.999992523194,4|0,1:0|0:0,0:0:0:0:
320,371,52161,2,0,P|334:326|366:159,1,209.999993591309,4|0,1:0|0:0,0:0:0:0:
505,17,53939,6,0,L|519:62,5,25,4|0|2|0|0|0,1:0|0:0|0:0|1:0|1:0|1:0,0:0:0:0:
432,46,54605,2,0,L|420:14,5,25,6|0|2|0|2|0,1:3|1:0|1:2|1:0|1:2|1:0,0:0:0:0:
419,129,55272,1,4,1:3:0:0:
419,129,55383,1,0,1:0:0:0:
419,129,55494,2,0,L|373:139,1,25,0|0,1:0|1:0,0:0:0:0:
382,210,55717,70,0,L|417:242,5,25,6|0|2|0|0|0,1:2|1:0|1:2|1:0|1:0|1:0,0:0:0:0:
456,296,56383,1,6,1:2:0:0:
456,296,56494,1,0,1:0:0:0:
456,296,56605,2,0,L|481:320,3,25,2|0|0|0,1:2|1:0|1:0|1:0,0:0:0:0:
410,367,57050,1,4,1:2:0:0:
384,351,57161,1,4,1:3:0:0:
354,351,57272,1,6,1:3:0:0:
327,336,57383,1,6,1:3:0:0:
297,339,57494,5,4,1:0:0:0:
174,220,57939,1,8,0:0:0:0:
119,380,58383,1,4,1:0:0:0:
8,250,58828,1,8,0:0:0:0:
8,250,59272,70,0,L|112:228,1,100,4|0,1:0|0:0,0:0:0:0:
150,173,59605,2,0,L|239:126,1,100,4|0,1:0|0:0,0:0:0:0:
254,56,59939,1,4,1:0:0:0:
117,14,60161,5,4,1:0:0:0:
95,26,60272,1,0,1:0:0:0:
72,37,60383,1,8,0:0:0:0:
49,47,60494,1,8,0:0:0:0:
27,60,60605,2,0,L|34:121,1,50,8|10,0:0|1:2,0:0:0:0:
43,189,60828,2,0,L|50:251,1,50,8|8,0:0|0:0,0:0:0:0:
62,315,61050,6,0,P|98:263|158:239,1,129.999994049073,4|2,1:0|0:0,0:0:0:0:
213,341,61494,2,0,P|305:330|407:321,1,194.999991073609,10|0,0:0|0:0,0:0:0:0:
433,355,61939,1,6,3:0:0:0:
508,265,62161,2,0,L|484:137,1,129.999994049073,4|8,0:0|0:2,0:0:0:0:
499,21,62605,1,2,0:0:0:0:
382,8,62828,6,0,P|329:106|409:219,1,259.999988098145,4|8,1:0|0:0,0:0:0:0:
92,351,63717,1,6,3:0:0:0:
92,351,63939,1,2,0:0:0:0:
25,254,64161,1,8,0:0:0:0:
25,254,64383,1,2,0:0:0:0:
91,157,64605,70,0,L|219:173,1,129.999994049073,4|8,1:0|0:0,0:0:0:0:
244,177,64939,2,0,L|225:37,1,129.999994049073,4|0,0:0|0:0,0:0:0:0:
207,37,65272,1,2,0:0:0:0:
366,11,65494,6,0,B|357:67|414:87|422:68|482:91|475:151,1,194.999991073609,6|0,1:0|0:0,0:0:0:0:
458,170,65939,1,12,1:2:0:0:
338,168,66161,2,0,B|327:242|402:269|412:244|492:274|483:353,1,259.999988098145,2|2,0:1|0:0,0:0:0:0:
369,382,66828,1,8,0:0:0:0:
293,292,67050,69,2,0:0:0:0:
180,323,67272,1,6,1:2:0:0:
68,359,67494,1,2,0:0:0:0:
18,252,67717,1,8,0:0:0:0:
26,213,67828,1,8,0:0:0:0:
34,174,67939,1,8,0:0:0:0:
44,136,68050,1,8,0:0:0:0:
58,99,68161,6,0,P|131:136|157:230,1,129.999994049073,4|2,1:0|0:0,0:0:0:0:
247,106,68605,2,0,P|304:26|416:21,1,194.999991073609,8|0,0:0|0:0,0:0:0:0:
407,30,69050,1,6,3:0:0:0:
457,135,69272,2,0,P|385:138|338:202,1,129.999994049073,4|8,0:0|0:0,0:0:0:0:
313,289,69716,1,2,0:0:0:0:
405,361,69939,70,0,P|443:231|534:146,1,259.999988098145,4|8,1:0|0:0,0:0:0:0:
269,18,70828,1,6,3:0:0:0:
269,18,71050,1,2,0:0:0:0:
217,124,71272,1,8,0:0:0:0:
217,124,71494,1,2,0:3:0:0:
145,40,71717,6,0,B|118:25|118:25|17:45,2,112.500004291535,4|4|4,1:0|1:0|1:0,0:0:0:0:
1,144,72605,2,0,B|28:159|28:159|129:139,2,112.500004291535,4|4|4,1:0|1:0|1:0,0:0:0:0:
78,241,73494,69,4,1:0:0:0:
46,326,73717,1,8,0:0:0:0:
46,326,73828,1,8,0:0:0:0:
46,326,73939,2,0,L|51:390,3,37.5000014305115,14|8|8|8,1:2|0:0|0:0|0:0,0:0:0:0:
148,294,74383,1,8,0:0:0:0:
180,301,74494,1,8,0:0:0:0:
212,308,74605,1,8,0:0:0:0:
244,316,74717,1,8,0:0:0:0:
266,291,74828,2,0,L|353:371,1,112.500004291535,4|0,0:0|0:0,0:0:0:0:
427,351,75272,22,0,B|420:300|420:300|459:270,1,100,6|0,1:0|0:0,0:0:0:0:
512,270,75605,2,0,B|519:219|519:219|480:189,1,100,6|0,1:0|0:0,0:0:0:0:
407,208,75939,2,0,B|400:157|400:157|439:127,1,100,6|0,1:0|0:0,0:0:0:0:
512,2,76383,1,4,3:0:0:0:
323,37,76605,2,2,B|326:87|326:87|344:99|344:99|293:196,1,175.00000166893,6|0,1:0|0:0,0:1:0:0:
215,121,77050,6,0,B|236:73|236:73|216:17,1,100,4|0,1:0|0:0,0:0:0:0:
177,11,77383,2,0,B|156:54|156:54|107:73,1,100,6|0,1:0|0:0,0:0:0:0:
51,23,77717,2,0,B|30:71|30:71|50:127,1,100,6|0,1:0|0:0,0:0:0:0:
2,228,78161,1,4,3:0:0:0:
147,185,78383,2,2,B|159:203|159:203|156:218|156:218|176:258|176:258|157:317|157:317|163:349,1,176.000005371094,6|0,1:0|0:0,0:1:0:0:
267,322,78828,70,0,L|285:212,1,75.0000028610231,4|0,1:0|0:0,0:0:0:0:
317,234,79161,2,0,L|348:303,1,75.0000028610231,6|0,1:0|0:0,0:0:0:0:
397,233,79495,2,0,L|403:154,1,75.0000028610231,6|0,1:0|0:0,0:0:0:0:
333,50,79939,1,4,3:0:0:0:
476,14,80161,2,2,B|486:66|486:66|477:72|477:72|504:150|504:150|508:255,1,175.00000166893,6|0,1:0|0:0,0:1:0:0:
496,322,80605,6,0,B|426:338|426:338|417:332|417:332|398:341|398:341|354:343|354:343|333:357|333:357|288:374,1,200,6|0,1:0|0:0,0:0:0:0:
241,336,80939,2,0,B|171:352|171:352|162:346|162:346|143:355|143:355|99:357|99:357|78:371|78:371|33:388,1,200,6|0,1:0|0:0,0:0:0:0:
0,328,81272,1,6,1:0:0:0:
109,243,81494,1,8,1:2:0:0:
72,208,81605,1,8,1:2:0:0:
72,157,81717,1,8,1:2:0:0:
35,122,81828,1,8,1:2:0:0:
28,77,81939,1,6,1:2:0:0:
368,28,82383,38,0,P|295:65|269:159,1,125,4|0,1:0|0:0,0:0:0:0:
167,76,82828,2,0,P|247:133|252:245,1,187.5,8|0,0:0|0:0,0:0:0:0:
236,250,83272,2,0,P|282:292|301:361,1,125,6|0,3:0|0:0,0:0:0:0:
340,369,83605,2,0,L|471:352,1,125,8|0,0:0|0:0,0:0:0:0:
502,366,83939,2,0,P|482:307|437:265,1,125,2|4,0:0|1:0,0:0:0:0:
502,174,84383,1,2,0:0:0:0:
244,43,84828,5,4,0:0:0:0:
351,9,85050,1,6,0:0:0:0:
351,9,85272,1,2,0:0:0:0:
359,124,85494,1,8,0:0:0:0:
359,124,85716,1,6,0:3:0:0:
247,137,85939,70,0,L|108:119,1,125,4|0,1:0|0:0,0:0:0:0:
99,100,86272,2,0,L|18:220,1,125,8|0,0:0|0:0,0:0:0:0:
17,229,86605,1,2,0:0:0:0:
43,338,86827,6,0,P|103:285|206:307,1,187.5,6|2,1:2|0:0,0:0:0:0:
210,321,87272,1,8,0:0:0:0:
306,378,87494,1,4,0:0:0:0:
388,307,87717,5,14,0:0:0:0:
388,307,87939,1,12,0:0:0:0:
339,237,88161,1,12,0:0:0:0:
339,237,88383,1,12,0:0:0:0:
379,147,88605,1,12,0:0:0:0:
379,147,88828,1,12,0:0:0:0:
318,61,89050,1,12,0:0:0:0:
318,61,89272,1,12,0:0:0:0:
