osu file format v14

[General]
AudioFilename: Acoustic Installation.mp3
AudioLeadIn: 0
PreviewTime: 294748
Countdown: 1
SampleSet: Soft
StackLeniency: 0.7
Mode: 0
LetterboxInBreaks: 1
WidescreenStoryboard: 1

[Editor]
Bookmarks: 38054,47053,106221,119935,133586,154190,202190,241618,269034
DistanceSpacing: 1.4
BeatDivisor: 4
GridSize: 8
TimelineZoom: 1

[Metadata]
Title:Acoustic Installation
TitleUnicode:Acoustic Installation
Artist:TK from Ling tosite sigure
ArtistUnicode:TK from 凛として時雨
Creator:Kaneki_Uchiha
Version:Insane
Source:
Tags:TK Lingtositesigure AcousticInstallation Touka
BeatmapID:977604
BeatmapSetID:447998

[Difficulty]
HPDrainRate:7
CircleSize:5
OverallDifficulty:8
ApproachRate:9
SliderMultiplier:1.6
SliderTickRate:1

[Events]
//Background and Video events
0,0,"Touka.png",0,0
//Break Periods
2,38254,46453
2,67270,70403
2,77682,90167
2,147463,153590
//Storyboard Layer 0 (Background)
//Storyboard Layer 1 (Fail)
//Storyboard Layer 2 (Pass)
//Storyboard Layer 3 (Foreground)
//Storyboard Sound Samples

[TimingPoints]
364,428.571428571429,4,2,1,100,1,0
3792,425.531914893617,4,2,1,100,1,0
7196,434.782608695652,4,2,1,100,1,0
10674,422.535211267606,4,2,1,100,1,0
14054,431.654676258993,4,2,1,100,1,0
17507,425.531914893617,4,2,1,100,1,0
20911,428.571428571429,4,2,1,100,1,0
22625,441.176470588235,4,2,1,100,1,0
24389,425.531914893617,4,2,1,100,1,0
27793,428.571428571429,4,2,1,100,1,0
34650,425.531914893617,4,2,1,100,1,0
38054,428.571428571429,4,2,1,100,1,0
46625,428.571428571429,4,2,1,100,1,0
47053,425.531914893617,4,2,1,100,1,0
52159,428.571428571429,4,2,1,100,1,0
57301,431.654676258993,4,2,1,100,1,0
64207,425.531914893617,4,2,1,100,1,0
65909,422.535211267606,4,2,1,100,1,0
69289,428.571428571429,4,2,1,100,1,0
71003,444.444444444444,4,2,1,100,1,0
72780,425.531914893617,4,2,1,100,1,0
74482,428.571428571429,4,2,1,100,1,0
91624,422.535211267606,4,2,1,100,1,0
92469,422.535211267606,4,2,1,100,1,0
94159,431.654676258993,4,2,1,100,1,0
97612,428.571428571429,4,2,1,100,1,0
102754,425.531914893617,4,2,1,100,1,0
106158,428.571428571429,4,2,1,100,1,0
140443,425.531914893617,4,2,1,100,1,0
145549,428.571428571429,4,2,1,100,1,0
154190,428.571428571429,4,2,1,100,1,0
241618,425.531914893617,4,2,1,100,1,0
243320,428.571428571429,4,2,1,100,1,0
296462,425.531914893617,4,1,0,100,1,1
296462,-83.3333333333333,4,1,0,100,0,1
299866,428.571428571429,4,1,0,100,1,1
299866,-83.3333333333333,4,1,0,100,0,1
303294,431.654676258993,4,1,0,100,1,1
303294,-83.3333333333333,4,1,0,100,0,1
306747,425.531914893617,4,1,0,100,1,1
306747,-83.3333333333333,4,1,0,100,0,1
310151,431.654676258993,4,1,0,100,1,1
310151,-83.3333333333333,4,1,0,100,0,1
313604,428.571428571429,4,1,0,100,1,1
313604,-83.3333333333333,4,1,0,100,0,1
320461,425.531914893617,4,1,0,100,1,1
320461,-83.3333333333333,4,1,0,100,0,1
323865,428.571428571429,4,1,0,100,1,1
323865,-83.3333333333333,4,1,0,100,0,1
335864,425.531914893617,4,1,0,100,1,1
335864,-83.3333333333333,4,1,0,100,0,1
337566,-100,4,1,0,100,0,0
339268,434.782608695652,4,2,1,100,1,0
341007,428.571428571429,4,2,1,100,1,0
344435,431.654676258993,4,2,1,100,1,0

[Colours]
Combo1 : 128,128,128
Combo2 : 0,202,0
Combo3 : 18,124,255
Combo4 : 242,24,57
Combo5 : 255,192,0
Combo6 : 0,128,128
Combo7 : 255,255,0
Combo8 : 128,64,64

[HitObjects]
256,192,3792,12,0,6770,0:0:0:0:
64,112,7196,6,0,L|88:80,4,40
136,240,7848,2,0,L|112:288,4,40
232,296,8500,1,0,0:0:0:0:
288,296,8609,1,0,0:0:0:0:
336,264,8717,1,0,0:0:0:0:
416,192,8935,6,0,L|440:152,4,40
352,104,9587,2,0,L|360:56,4,40
248,152,10239,1,0,0:0:0:0:
216,104,10348,1,0,0:0:0:0:
168,80,10456,1,0,0:0:0:0:
104,176,10674,6,0,L|144:200,4,40
96,288,11307,2,0,L|64:320,4,40
208,312,11941,1,0,0:0:0:0:
264,312,12047,1,0,0:0:0:0:
312,288,12152,1,0,0:0:0:0:
416,248,12364,6,0,L|456:264,4,40
336,168,12997,2,0,L|304:200,4,40
416,88,13631,1,0,0:0:0:0:
368,64,13737,1,0,0:0:0:0:
312,64,13843,1,0,0:0:0:0:
200,64,14054,6,0,L|152:88,1,40
80,160,14377,2,0,L|120:192,1,40
152,288,14701,1,0,0:0:0:0:
240,216,14917,1,0,0:0:0:0:
312,304,15133,1,0,0:0:0:0:
400,232,15348,1,0,0:0:0:0:
416,176,15456,1,0,0:0:0:0:
392,128,15564,1,0,0:0:0:0:
312,48,15780,6,0,L|304:88,1,40
320,200,16104,2,0,L|280:160,1,40
192,120,16428,1,0,0:0:0:0:
104,56,16643,1,0,0:0:0:0:
56,160,16859,1,0,0:0:0:0:
104,264,17075,1,0,0:0:0:0:
144,304,17183,1,0,0:0:0:0:
200,304,17291,1,0,0:0:0:0:
312,336,17507,6,0,L|320:280,1,40
224,232,17826,2,0,L|272:240,1,40
368,200,18145,1,0,0:0:0:0:
448,120,18358,1,0,0:0:0:0:
344,72,18570,1,0,0:0:0:0:
272,160,18783,1,0,0:0:0:0:
216,160,18889,1,0,0:0:0:0:
168,128,18996,1,0,0:0:0:0:
88,56,19209,6,0,L|128:72,3,40
176,56,19634,1,0,0:0:0:0:
280,104,19847,2,0,L|328:96,3,40
368,80,20272,1,0,0:0:0:0:
408,184,20485,1,0,0:0:0:0:
424,240,20592,1,0,0:0:0:0:
392,288,20698,1,0,0:0:0:0:
288,320,20911,6,0,L|256:288,3,40
256,240,21339,1,0,0:0:0:0:
144,216,21553,2,0,L|112:264,3,40
72,280,21982,1,0,0:0:0:0:
64,168,22196,1,0,0:0:0:0:
104,128,22303,1,0,0:0:0:0:
160,112,22411,1,0,0:0:0:0:
264,144,22625,6,0,L|288:104,3,40
320,64,23066,1,0,0:0:0:0:
360,168,23286,2,0,L|384:120,3,40
424,96,23727,1,0,0:0:0:0:
448,208,23948,1,0,0:0:0:0:
440,264,24058,1,0,0:0:0:0:
416,312,24169,1,0,0:0:0:0:
320,248,24389,6,0,L|272:312,1,80
216,320,24708,1,0,0:0:0:0:
48,304,25027,2,0,L|104:232,1,80
152,232,25346,1,0,0:0:0:0:
72,88,25665,1,0,0:0:0:0:
120,56,25771,1,0,0:0:0:0:
176,64,25878,1,0,0:0:0:0:
248,152,26091,6,0,L|328:112,1,80
376,112,26410,1,0,0:0:0:0:
416,272,26729,2,0,L|336:256,1,80
288,224,27048,1,0,0:0:0:0:
152,320,27367,1,0,0:0:0:0:
96,296,27474,1,0,0:0:0:0:
64,248,27580,1,0,0:0:0:0:
96,144,27793,6,0,L|176:88,1,80
216,96,28114,1,0,0:0:0:0:
224,264,28435,2,0,L|280:192,1,80
264,144,28757,1,0,0:0:0:0:
432,152,29078,1,0,0:0:0:0:
464,200,29185,1,0,0:0:0:0:
432,248,29293,1,0,0:0:0:0:
328,296,29507,6,0,L|272:232,1,80
288,184,29828,1,0,0:0:0:0:
152,88,30150,1,0,0:0:0:0:
184,192,30364,1,0,0:0:0:0:
96,264,30578,1,0,0:0:0:0:
192,320,30793,1,0,0:0:0:0:
248,304,30900,1,0,0:0:0:0:
288,264,31007,1,0,0:0:0:0:
392,312,31221,6,0,L|416:264,1,40
432,168,31543,2,0,L|384:200,1,40
288,176,31864,2,0,L|272:136,1,40
232,40,32185,2,0,L|192:72,1,40
104,120,32507,1,0,0:0:0:0:
80,168,32614,1,0,0:0:0:0:
112,208,32721,1,0,0:0:0:0:
120,320,32935,6,0,L|208:328,1,80
248,304,33257,1,0,0:0:0:0:
344,168,33578,1,0,0:0:0:0:
424,240,33793,1,0,0:0:0:0:
440,128,34007,1,0,0:0:0:0:
336,80,34221,1,0,0:0:0:0:
280,64,34328,1,0,0:0:0:0:
224,64,34435,1,0,0:0:0:0:
120,112,34650,6,0,L|104:160,1,40
136,256,34969,2,0,L|96:288,1,40
216,304,35288,2,0,L|248:264,1,40
344,224,35607,2,0,L|384:240,1,40
448,144,35926,1,0,0:0:0:0:
416,96,36032,1,0,0:0:0:0:
360,80,36139,1,0,0:0:0:0:
248,56,36352,6,0,L|208:48,3,40
168,88,36777,1,0,0:0:0:0:
112,184,36990,2,0,L|88:224,1,40
152,312,37309,2,0,L|160:264,1,40
256,216,37628,2,0,L|288:248,1,40
336,256,37841,1,0,0:0:0:0:
392,240,37947,1,0,0:0:0:0:
424,192,38054,1,0,0:0:0:0:
80,80,47053,5,0,0:0:0:0:
128,104,47159,1,0,0:0:0:0:
80,208,47372,1,0,0:0:0:0:
192,328,47691,1,0,0:0:0:0:
304,312,47904,2,0,L|360:248,1,80
344,144,48329,5,0,0:0:0:0:
432,216,48542,1,0,0:0:0:0:
416,104,48755,2,0,L|440:64,1,40
384,40,48967,2,0,L|360:80,1,40
232,176,49393,1,0,0:0:0:0:
160,88,49606,6,0,L|104:88,3,40
104,144,50031,2,0,L|160:144,3,40
160,200,50457,5,0,0:0:0:0:
120,240,50563,1,0,0:0:0:0:
176,336,50776,1,0,0:0:0:0:
328,264,51095,1,0,0:0:0:0:
432,304,51308,2,0,L|456:224,1,80
440,176,51627,6,0,L|416:120,1,40
312,160,51946,1,0,0:0:0:0:
344,56,52159,2,0,L|288:64,1,40
192,56,52480,2,0,L|216:96,1,40
120,152,52801,1,0,0:0:0:0:
128,264,53016,6,0,L|104:296,3,40
152,328,53444,2,0,L|176:296,3,40
232,312,53873,5,0,0:0:0:0:
280,280,53980,1,0,0:0:0:0:
232,176,54194,2,0,L|240:136,1,40
336,80,54516,1,0,0:0:0:0:
440,120,54730,2,0,L|464:208,1,80
408,296,55159,5,0,0:0:0:0:
320,232,55373,1,0,0:0:0:0:
248,320,55587,2,0,L|208:312,1,40
136,224,55909,2,0,L|112:256,1,40
56,160,56230,1,0,0:0:0:0:
144,88,56444,6,0,L|184:80,3,40
216,120,56873,2,0,L|256:144,3,40
296,112,57301,5,0,0:0:0:0:
344,88,57408,1,0,0:0:0:0:
408,184,57624,2,0,L|384:224,1,40
288,272,57948,1,0,0:0:0:0:
184,224,58164,2,0,L|168:304,1,80
88,224,58595,5,0,0:0:0:0:
128,120,58811,1,0,0:0:0:0:
232,152,59027,2,0,L|272:120,1,40
376,136,59351,1,0,0:0:0:0:
344,304,59675,1,0,0:0:0:0:
232,296,59890,6,0,L|192:304,1,40
144,272,60106,1,0,0:0:0:0:
168,224,60214,2,0,L|224:216,1,40
232,168,60430,1,0,0:0:0:0:
184,136,60538,2,0,L|136:144,1,40
96,112,60754,5,0,0:0:0:0:
144,80,60862,1,0,0:0:0:0:
256,72,61077,1,0,0:0:0:0:
256,240,61401,2,0,L|208:312,1,80
320,320,61833,6,0,L|368:296,1,40
400,264,62049,1,0,0:0:0:0:
376,152,62265,1,0,0:0:0:0:
344,48,62480,2,0,L|304:72,1,40
280,120,62696,2,0,L|232:96,1,40
88,152,63128,5,0,0:0:0:0:
136,184,63236,1,0,0:0:0:0:
88,216,63344,1,0,0:0:0:0:
136,248,63452,1,0,0:0:0:0:
288,320,63775,2,0,L|328:312,2,40
376,240,64207,5,0,0:0:0:0:
400,192,64313,1,0,0:0:0:0:
344,96,64526,1,0,0:0:0:0:
176,64,64845,2,0,L|136:96,2,40
104,152,65270,6,0,L|144:184,1,40
160,224,65483,1,0,0:0:0:0:
112,256,65589,1,0,0:0:0:0:
160,288,65696,1,0,0:0:0:0:
112,320,65802,1,0,0:0:0:0:
160,352,65909,6,0,L|240:352,1,80
280,312,66225,1,0,0:0:0:0:
432,232,66542,1,0,0:0:0:0:
344,160,66754,2,0,L|304:128,3,40
440,344,71003,6,0,L|400:320,1,40
320,256,71336,1,0,0:0:0:0:
152,256,71669,1,0,0:0:0:0:
72,328,71891,1,0,0:0:0:0:
48,216,72114,6,0,L|72:168,1,40
112,152,72336,2,0,L|144:184,1,40
192,168,72558,1,0,0:0:0:0:
208,56,72780,2,0,L|160:48,2,40
256,80,73099,1,0,0:0:0:0:
400,168,73418,6,0,L|432:248,1,80
344,312,73843,1,0,0:0:0:0:
288,328,73950,1,0,0:0:0:0:
232,312,74056,1,0,0:0:0:0:
88,144,74482,6,0,L|104:192,1,40
192,112,74803,2,0,L|232:144,1,40
320,80,75124,1,0,0:0:0:0:
368,184,75339,5,0,0:0:0:0:
416,216,75446,1,0,0:0:0:0:
368,248,75553,1,0,0:0:0:0:
416,280,75660,2,0,L|392:328,1,40
288,296,75982,2,0,L|248:320,2,40
120,312,76517,5,0,0:0:0:0:
96,264,76624,2,0,L|128:184,1,80
312,64,77267,1,0,0:0:0:0:
360,96,77374,1,0,0:0:0:0:
368,152,77482,1,0,0:0:0:0:
256,192,90767,12,0,92046,0:0:0:0:
96,88,92469,5,0,0:0:0:0:
96,88,92574,1,0,0:0:0:0:
96,88,92680,1,0,0:0:0:0:
96,88,92785,2,0,L|176:88,1,80
328,168,93314,1,0,0:0:0:0:
328,168,93419,1,0,0:0:0:0:
328,168,93525,1,0,0:0:0:0:
328,168,93630,2,0,L|240:168,1,80
96,232,94159,5,0,0:0:0:0:
96,232,94266,1,0,0:0:0:0:
96,232,94374,1,0,0:0:0:0:
96,232,94482,2,0,L|184:232,1,80
328,304,95022,1,0,0:0:0:0:
328,304,95130,1,0,0:0:0:0:
328,304,95238,1,0,0:0:0:0:
328,304,95346,2,0,L|248:304,1,80
376,200,95885,5,0,0:0:0:0:
312,112,96101,2,0,L|272:120,2,40
200,96,96533,2,0,L|168:136,1,40
64,144,96856,2,0,L|72:192,1,40
96,296,97180,1,0,0:0:0:0:
152,312,97288,1,0,0:0:0:0:
208,288,97396,1,0,0:0:0:0:
256,312,97504,2,0,L|304:288,1,40
392,248,97826,5,0,0:0:0:0:
392,248,97933,1,0,0:0:0:0:
392,248,98040,1,0,0:0:0:0:
360,144,98254,1,0,0:0:0:0:
360,144,98362,1,0,0:0:0:0:
256,96,98576,1,0,0:0:0:0:
256,96,98683,1,0,0:0:0:0:
160,152,98897,1,0,0:0:0:0:
160,152,99004,1,0,0:0:0:0:
160,152,99112,2,0,L|136:192,1,40
96,224,99326,5,0,0:0:0:0:
96,224,99433,1,0,0:0:0:0:
96,224,99540,1,0,0:0:0:0:
96,224,99647,2,0,L|136:256,1,40
224,296,99969,2,0,L|248:264,1,40
304,264,100183,1,0,0:0:0:0:
304,264,100290,1,0,0:0:0:0:
304,264,100397,1,0,0:0:0:0:
304,264,100504,2,0,L|360:208,1,80
320,40,101040,5,0,0:0:0:0:
320,40,101147,1,0,0:0:0:0:
320,40,101254,1,0,0:0:0:0:
320,40,101362,2,0,L|232:24,1,80
96,112,101897,1,0,0:0:0:0:
104,120,102004,1,0,0:0:0:0:
104,120,102112,1,0,0:0:0:0:
104,120,102219,2,0,L|64:200,1,80
152,336,102754,5,0,0:0:0:0:
152,336,102860,1,0,0:0:0:0:
152,336,102966,1,0,0:0:0:0:
152,336,103073,2,0,L|176:256,1,80
208,96,103605,1,0,0:0:0:0:
208,96,103711,1,0,0:0:0:0:
208,96,103817,1,0,0:0:0:0:
208,96,103924,2,0,L|296:80,1,80
312,128,104243,6,0,L|360:144,2,40
352,232,104668,2,0,L|384:272,2,40
296,224,104988,2,0,L|288:176,2,40
248,248,105307,2,0,L|208:272,1,40
160,288,105519,1,0,0:0:0:0:
112,256,105626,1,0,0:0:0:0:
96,200,105732,1,0,0:0:0:0:
112,144,105839,1,0,0:0:0:0:
168,128,105945,2,0,L|256:104,1,80
304,112,106265,5,0,0:0:0:0:
304,112,106372,1,0,0:0:0:0:
304,112,106479,2,0,L|384:152,1,80
384,200,106800,2,0,L|320:248,1,80
312,304,107122,1,0,0:0:0:0:
312,304,107229,1,0,0:0:0:0:
312,304,107336,2,0,L|232:328,1,80
200,280,107658,2,0,L|112:264,1,80
96,216,107979,5,0,0:0:0:0:
96,216,108086,1,0,0:0:0:0:
96,216,108193,2,0,L|176:176,1,80
136,136,108515,2,0,L|184:112,1,40
280,104,108836,1,0,0:0:0:0:
336,112,108943,1,0,0:0:0:0:
376,152,109050,1,0,0:0:0:0:
400,200,109158,1,0,0:0:0:0:
408,256,109265,1,0,0:0:0:0:
384,304,109372,2,0,L|304:328,1,80
256,296,109693,5,0,0:0:0:0:
256,296,109800,1,0,0:0:0:0:
256,296,109908,2,0,L|176:320,1,80
144,272,110229,2,0,L|184:200,1,80
152,160,110550,1,0,0:0:0:0:
152,160,110658,1,0,0:0:0:0:
152,160,110765,2,0,L|216:104,1,80
256,144,111086,2,0,L|336:112,1,80
376,144,111408,5,0,0:0:0:0:
376,144,111515,1,0,0:0:0:0:
376,144,111622,2,0,L|416:224,1,80
376,256,111943,2,0,L|320:328,1,80
280,288,112265,1,0,0:0:0:0:
280,288,112372,1,0,0:0:0:0:
280,288,112479,2,0,L|192:304,1,80
184,248,112800,2,0,L|96:232,1,80
88,176,113122,5,0,0:0:0:0:
88,176,113229,1,0,0:0:0:0:
88,176,113336,2,0,L|160:128,2,80
112,296,113979,1,0,0:0:0:0:
152,256,114086,1,0,0:0:0:0:
192,296,114193,1,0,0:0:0:0:
232,256,114300,1,0,0:0:0:0:
272,296,114408,1,0,0:0:0:0:
312,256,114515,2,0,L|400:256,1,80
416,208,114836,5,0,0:0:0:0:
416,208,114943,1,0,0:0:0:0:
416,208,115050,2,0,L|408:128,1,80
376,80,115372,1,0,0:0:0:0:
376,80,115479,2,0,L|296:56,1,80
240,64,115800,1,0,0:0:0:0:
240,64,115908,2,0,L|192:88,1,40
168,128,116122,1,0,0:0:0:0:
168,128,116229,2,0,L|128:200,1,80
120,256,116550,5,0,0:0:0:0:
120,256,116658,1,0,0:0:0:0:
120,256,116765,2,0,L|184:320,1,80
216,272,117086,2,0,L|304:312,1,80
336,280,117408,1,0,0:0:0:0:
336,280,117515,1,0,0:0:0:0:
336,280,117622,2,0,L|424:248,1,80
408,200,117943,2,0,L|328:176,1,80
344,120,118265,5,0,0:0:0:0:
344,120,118372,1,0,0:0:0:0:
344,120,118479,2,0,L|280:64,1,80
248,112,118800,2,0,L|168:96,1,80
128,136,119122,1,0,0:0:0:0:
128,136,119229,1,0,0:0:0:0:
128,136,119336,2,0,L|72:200,1,80
104,240,119658,1,0,0:0:0:0:
208,208,119872,6,0,L|184:240,2,40
240,160,120193,1,0,0:0:0:0:
280,200,120300,1,0,0:0:0:0:
320,160,120408,1,0,0:0:0:0:
280,128,120515,2,0,L|336:64,1,80
368,112,120836,2,0,L|392:80,1,40
448,80,121050,2,0,L|456:128,1,40
448,176,121265,2,0,L|392:168,1,40
392,280,121586,6,0,L|416:232,2,40
336,296,121908,1,0,0:0:0:0:
224,296,122122,1,0,0:0:0:0:
224,296,122229,1,0,0:0:0:0:
168,280,122336,1,0,0:0:0:0:
168,280,122443,1,0,0:0:0:0:
120,248,122550,1,0,0:0:0:0:
120,248,122658,1,0,0:0:0:0:
96,200,122765,2,0,L|120:120,1,80
160,88,123086,1,0,0:0:0:0:
272,112,123300,6,0,L|248:152,2,40
328,112,123622,1,0,0:0:0:0:
384,112,123729,1,0,0:0:0:0:
440,112,123836,1,0,0:0:0:0:
440,168,123943,2,0,L|352:168,1,80
304,168,124265,2,0,L|304:216,1,40
360,224,124479,2,0,L|408:224,1,40
456,224,124693,2,0,L|456:264,1,40
360,328,125015,6,0,L|408:328,2,40
304,328,125336,1,0,0:0:0:0:
192,328,125550,1,0,0:0:0:0:
192,328,125658,1,0,0:0:0:0:
136,328,125765,1,0,0:0:0:0:
136,328,125872,1,0,0:0:0:0:
80,328,125979,1,0,0:0:0:0:
80,328,126086,1,0,0:0:0:0:
80,272,126193,2,0,L|160:272,1,80
216,272,126515,1,0,0:0:0:0:
136,192,126729,6,0,L|88:152,2,40
168,144,127050,1,0,0:0:0:0:
216,112,127158,1,0,0:0:0:0:
272,104,127265,1,0,0:0:0:0:
328,112,127372,2,0,L|384:168,1,80
440,160,127693,2,0,L|432:208,1,40
376,216,127908,2,0,L|408:248,1,40
456,256,128122,2,0,L|432:296,1,40
328,312,128443,6,0,L|360:280,2,40
288,272,128765,1,0,0:0:0:0:
184,312,128979,1,0,0:0:0:0:
184,312,129086,1,0,0:0:0:0:
152,264,129193,1,0,0:0:0:0:
152,264,129300,1,0,0:0:0:0:
96,256,129408,1,0,0:0:0:0:
96,256,129515,1,0,0:0:0:0:
48,280,129622,2,0,L|96:208,1,80
144,192,129943,1,0,0:0:0:0:
128,80,130158,6,0,L|88:72,2,40
176,104,130479,1,0,0:0:0:0:
168,160,130586,1,0,0:0:0:0:
216,184,130693,1,0,0:0:0:0:
200,240,130800,2,0,L|264:288,1,80
232,336,131122,2,0,L|280:336,1,40
328,352,131336,2,0,L|360:312,1,40
408,304,131550,2,0,L|400:256,1,40
424,152,131872,6,0,L|464:184,2,40
368,160,132193,1,0,0:0:0:0:
312,64,132408,1,0,0:0:0:0:
312,64,132515,1,0,0:0:0:0:
280,112,132622,1,0,0:0:0:0:
280,112,132729,1,0,0:0:0:0:
224,96,132836,1,0,0:0:0:0:
224,96,132943,1,0,0:0:0:0:
192,144,133050,2,0,L|120:104,1,80
80,144,133372,1,0,0:0:0:0:
112,248,133586,5,0,0:0:0:0:
112,248,133693,1,0,0:0:0:0:
112,248,133800,1,0,0:0:0:0:
112,248,133908,2,0,L|160:320,1,80
200,280,134229,2,0,L|240:312,1,40
280,272,134443,2,0,L|320:280,1,40
360,240,134658,2,0,L|408:232,1,40
472,144,134979,2,0,L|432:64,1,80
384,56,135300,5,0,0:0:0:0:
384,56,135408,1,0,0:0:0:0:
384,56,135515,1,0,0:0:0:0:
384,56,135622,2,0,L|320:104,1,80
280,144,135943,2,0,L|248:112,1,40
224,72,136158,2,0,L|184:96,1,40
168,144,136372,2,0,L|112:128,1,40
64,48,136693,2,0,L|32:128,1,80
56,176,137015,5,0,0:0:0:0:
56,176,137122,1,0,0:0:0:0:
56,176,137229,1,0,0:0:0:0:
56,176,137336,2,0,L|80:256,1,80
40,296,137658,2,0,L|80:312,1,40
128,320,137872,2,0,L|168:296,1,40
216,288,138086,2,0,L|248:320,1,40
360,320,138408,2,0,L|440:280,1,80
440,232,138729,5,0,0:0:0:0:
440,232,138836,1,0,0:0:0:0:
440,232,138943,1,0,0:0:0:0:
440,232,139050,2,0,L|416:144,1,80
408,96,139372,2,0,L|368:136,1,40
320,128,139586,2,0,L|296:88,1,40
240,96,139800,2,0,L|208:136,1,40
104,136,140122,2,0,L|72:104,2,40
104,192,140443,5,0,0:0:0:0:
160,192,140549,1,0,0:0:0:0:
216,192,140655,1,0,0:0:0:0:
408,192,142145,5,0,0:0:0:0:
352,192,142251,1,0,0:0:0:0:
296,192,142357,1,0,0:0:0:0:
256,40,143847,5,0,0:0:0:0:
256,96,143953,1,0,0:0:0:0:
256,152,144060,1,0,0:0:0:0:
256,344,145549,5,0,0:0:0:0:
256,288,145656,1,0,0:0:0:0:
256,232,145763,1,0,0:0:0:0:
256,192,147263,5,0,0:0:0:0:
96,96,154190,5,0,0:0:0:0:
200,64,154404,1,0,0:0:0:0:
