osu file format v14

[General]
AudioFilename: audio.mp3
AudioLeadIn: 0
PreviewTime: 144879
Countdown: 0
SampleSet: Soft
StackLeniency: 0.4
Mode: 0
LetterboxInBreaks: 0
WidescreenStoryboard: 0

[Editor]
DistanceSpacing: 1.3
BeatDivisor: 8
GridSize: 32
TimelineZoom: 1.6

[Metadata]
Title:unravel
TitleUnicode:unravel
Artist:TK from Ling Tosite Sigure
ArtistUnicode:TK from 凛として時雨
Creator:handsome
Version:V
Source:Tokyo Ghoul
Tags:anime
BeatmapID:1163028
BeatmapSetID:549212

[Difficulty]
HPDrainRate:5
CircleSize:2
OverallDifficulty:9
ApproachRate:9.4
SliderMultiplier:2
SliderTickRate:1

[Events]
//Background and Video events
0,0,"my nigga.jpg",0,0
//Break Periods
2,88519,93113
2,95409,101231
//Storyboard Layer 0 (Background)
//Storyboard Layer 1 (Fail)
//Storyboard Layer 2 (Pass)
//Storyboard Layer 3 (Foreground)
//Storyboard Sound Samples

[TimingPoints]
1014,444.444444444444,4,2,1,30,1,0
1014,-166.666666666667,4,2,1,30,0,0
8319,446.096654275093,4,2,1,50,1,0
8319,-125,4,2,1,50,0,0
11887,444.444444444444,4,2,1,50,1,0
11887,-125,4,2,1,50,0,0
12331,431.654676258993,4,2,1,50,1,0
12546,-125,4,2,1,50,0,0
12762,444.444444444444,4,2,1,50,1,0
12762,-125,4,2,1,50,0,0
13650,444.444444444444,4,2,1,50,1,0
13650,-125,4,2,1,50,0,0
16761,461.538461538462,4,2,1,50,1,0
16761,-125,4,2,1,50,0,0
17222,444.444444444444,4,2,1,50,1,0
18555,437.956204379562,4,2,1,50,1,0
18555,-125,4,2,1,50,0,0
19867,447.761194029851,4,2,1,50,1,0
19868,-125,4,2,1,50,0,0
20762,444.444444444444,4,2,1,50,1,0
20762,-125,4,2,1,50,0,0
26539,-83.3333333333333,4,2,1,50,0,0
27095,-83.3333333333333,4,2,1,60,0,0
27316,-83.3333333333333,4,2,1,70,0,0
27428,445.103857566766,4,2,1,50,1,0
27539,-100,4,2,1,80,0,0
27761,-100,4,2,1,90,0,0
27873,444.444444444444,4,2,1,90,1,0
28761,454.545454545455,4,2,1,90,1,0
29670,413.793103448276,4,2,1,70,1,0
30083,444.444444444444,4,2,1,40,1,0
30971,-166.666666666667,4,2,1,70,0,0
31416,444.444444444444,4,2,1,70,1,0
33193,-100,4,2,1,80,0,0
33860,-50,4,2,1,60,0,0
34082,-100,4,2,1,60,0,0
34971,-100,4,2,1,80,0,0
35638,-50,4,2,1,60,0,0
35860,-33.3333333333333,4,2,1,60,0,0
36749,-100,4,2,1,80,0,0
37415,-50,4,2,1,60,0,0
37637,-100,4,2,1,60,0,0
38527,-100,4,2,1,80,0,0
39193,-50,4,2,1,60,0,0
39415,-33.3333333333333,4,2,1,60,0,0
40304,-33.3333333333333,4,2,1,40,0,0
42082,-166.666666666667,4,2,1,40,0,0
56304,454.545454545455,4,2,1,60,1,0
57213,439.56043956044,4,2,1,60,1,0
57652,449.438202247191,4,2,1,60,1,0
58101,444.444444444444,4,2,1,60,1,0
58989,431.654676258993,4,2,1,60,1,0
59420,451.127819548872,4,2,1,60,1,0
60322,444.444444444444,4,2,1,60,1,0
61210,-100,4,2,1,80,0,0
61654,444.444444444444,4,2,1,60,1,0
63431,-333.333333333333,4,2,1,60,0,1
64098,-166.666666666667,4,2,1,60,0,1
64320,-33.3333333333333,4,2,1,80,0,1
64987,-333.333333333333,4,2,1,60,0,1
65876,-166.666666666667,4,2,1,60,0,1
66098,-25,4,2,1,90,0,1
66765,-333.333333333333,4,2,1,60,0,1
67654,-166.666666666667,4,2,1,60,0,1
67876,-33.3333333333333,4,2,1,80,0,1
68542,-333.333333333333,4,2,1,60,0,1
69431,-166.666666666667,4,2,1,60,0,1
69653,-25,4,2,1,90,0,1
70320,-333.333333333333,4,2,1,60,0,1
71209,-166.666666666667,4,2,1,60,0,1
71431,-33.3333333333333,4,2,1,80,0,1
72097,-333.333333333333,4,2,1,60,0,1
73209,-25,4,2,1,60,0,1
73876,-333.333333333333,4,2,1,50,0,0
76765,-33.3333333333333,4,2,1,60,0,0
77209,-50,4,2,1,60,0,0
77431,-33.3333333333333,4,2,1,70,0,1
79765,-40,4,2,1,70,0,1
80098,-50,4,2,1,70,0,1
80542,-66.6666666666667,4,2,1,70,0,1
80987,-33.3333333333333,4,2,1,70,0,1
84098,-50,4,2,1,70,0,1
84542,-25,4,2,1,70,0,1
86542,-1000,4,2,1,50,0,0
87431,-1000,4,2,1,40,0,0
88320,-1000,4,2,1,30,0,0
93653,-166.666666666667,4,2,1,30,0,0
98987,446.096654275093,4,2,1,30,1,0
100771,444.444444444444,4,2,1,40,1,0
102548,436.363636363636,4,2,1,50,1,0
103420,451.127819548872,4,2,1,50,1,0
104322,444.444444444444,4,2,1,50,1,0
105655,472.44094488189,4,2,1,50,1,0
106127,375,4,2,1,50,1,0
106314,434.782608695652,4,2,1,50,1,0
106966,444.444444444444,4,2,1,50,1,0
107854,444.444444444444,4,2,1,50,1,0
109187,451.127819548872,4,2,1,60,1,0
109187,-50,4,2,1,60,0,0
109638,-50,4,2,1,60,0,0
110991,444.444444444444,4,2,1,60,1,0
111213,-38.4615384615385,4,2,1,70,0,0
111435,444.444444444444,4,2,1,70,1,0
111435,-38.4615384615385,4,2,1,70,0,0
112990,-31.25,4,2,1,80,0,0
115879,-25,4,2,1,100,0,0
116768,-100,4,2,1,80,0,0
116879,-100,4,2,1,40,0,0
118546,-100,4,2,1,80,0,0
118657,-100,4,2,1,40,0,0
119434,-100,4,2,1,80,0,0
119545,-100,4,2,1,40,0,0
120323,-100,4,2,1,80,0,0
120434,-100,4,2,1,40,0,0
122101,-100,4,2,1,80,0,0
122212,-100,4,2,1,60,0,0
123879,-100,4,2,1,80,0,0
123990,-100,4,2,1,40,0,0
125657,-100,4,2,1,80,0,0
125768,-100,4,2,1,40,0,0
126546,-100,4,2,1,80,0,0
126657,-100,4,2,1,40,0,0
127434,-100,4,2,1,80,0,0
127545,-100,4,2,1,40,0,0
129217,-100,4,2,1,80,0,0
129328,-100,4,2,1,60,0,0
130101,-100,4,2,1,80,0,0
130990,-100,4,2,1,60,0,0
138101,-100,4,2,1,80,0,0
138212,-100,4,2,1,40,0,0
139879,-100,4,2,1,80,0,0
139990,-100,4,2,1,40,0,0
141657,-100,4,2,1,80,0,0
141768,-100,4,2,1,50,0,0
143434,-100,4,2,1,100,0,0
143545,-100,4,2,1,60,0,0
145212,-166.666666666667,4,2,1,40,0,0
148768,-125,4,2,1,50,0,0
152323,-125,4,2,1,60,0,0
155879,-125,4,2,1,70,0,0
157212,-125,4,2,1,80,0,0
157657,-250,4,2,1,70,0,0
158546,-100,4,2,1,60,0,0
159434,-333.333333333333,4,2,1,60,0,1
160101,-166.666666666667,4,2,1,60,0,1
160323,-33.3333333333333,4,2,1,80,0,1
160990,-333.333333333333,4,2,1,60,0,1
161879,-166.666666666667,4,2,1,60,0,1
162101,-25,4,2,1,90,0,1
162768,-333.333333333333,4,2,1,60,0,1
163657,-166.666666666667,4,2,1,60,0,1
163879,-33.3333333333333,4,2,1,80,0,1
164545,-333.333333333333,4,2,1,60,0,1
165434,-166.666666666667,4,2,1,60,0,1
165656,-25,4,2,1,90,0,1
166323,-333.333333333333,4,2,1,60,0,1
167212,-166.666666666667,4,2,1,60,0,1
167434,-33.3333333333333,4,2,1,80,0,1
168100,-333.333333333333,4,2,1,60,0,1
169212,-25,4,2,1,90,0,1
169879,-333.333333333333,4,2,1,50,0,0
172768,-33.3333333333333,4,2,1,70,0,0
173212,-50,4,2,1,70,0,0
173434,-33.3333333333333,4,2,1,70,0,1
175768,-40,4,2,1,70,0,1
176101,-50,4,2,1,70,0,1
176545,-66.6666666666667,4,2,1,70,0,1
176990,-33.3333333333333,4,2,1,70,0,1
180101,-50,4,2,1,70,0,1
180546,-33.3333333333333,4,2,1,70,0,1
182546,-33.3333333333333,4,2,1,60,0,0
183434,-33.3333333333333,4,2,1,50,0,0
184323,-333.333333333333,4,2,1,50,0,0
187879,-166.666666666667,4,2,1,50,0,0
191434,-166.666666666667,4,2,1,60,0,0
192101,-83.3333333333333,4,2,1,60,0,0
192323,-166.666666666667,4,2,1,60,0,0
193212,-166.666666666667,4,2,1,65,0,0
193879,-83.3333333333333,4,2,1,65,0,0
194101,-166.666666666667,4,2,1,65,0,0
194990,-166.666666666667,4,2,1,70,0,0
195657,-83.3333333333333,4,2,1,70,0,0
196768,-83.3333333333333,4,2,1,75,0,0
197656,-166.666666666667,4,2,1,80,0,0
198323,-25,4,2,1,80,0,1
200323,-25,4,2,1,75,0,1
200657,-33.3333333333333,4,2,1,70,0,1
200990,-50,4,2,1,65,0,1
201212,-50,4,2,1,60,0,1
201879,-25,4,2,1,80,0,1
204768,-25,4,2,1,70,0,1
205434,-25,4,2,1,80,0,1
207212,-50,4,2,1,80,0,1
207434,-1000,4,2,1,50,0,0
208323,-1000,4,2,1,40,0,0
209212,420.168067226891,4,2,1,70,1,0
209212,-1000,4,2,1,30,0,0
209632,400,4,2,1,70,1,0
209832,476.190476190476,4,2,1,70,1,0
210070,428.571428571429,4,2,1,70,1,0
210284,461.538461538462,4,2,1,70,1,0
210514,441.176470588235,4,2,1,70,1,0
210734,500,4,2,1,70,1,0
210984,434.782608695652,4,2,1,70,1,0
211418,454.545454545455,4,2,1,70,1,0
211872,428.571428571429,4,2,1,70,1,0
212086,461.538461538462,4,2,1,70,1,0
212316,446.096654275093,4,2,1,70,1,0
216330,431.654676258993,4,2,1,70,1,0
216761,444.444444444444,4,2,1,70,1,0
218094,444.444444444444,4,2,1,70,1,0
223427,442.80442804428,4,2,1,50,1,0
225198,447.761194029851,4,2,1,50,1,0
226093,428.571428571429,4,2,1,50,1,0
226950,444.444444444444,4,2,1,30,1,0
228061,461.538461538462,4,2,1,30,1,0
228753,444.444444444444,4,2,1,10,1,0

[Colours]
Combo1 : 85,162,255
Combo2 : 185,233,255

[HitObjects]
103,58,791,5,0,0:0:0:0:
164,142,1014,2,0,P|138:225|110:271,1,119.999996337891,2|0,0:0|0:0,0:0:0:0:
275,349,1902,5,0,0:0:0:0:
275,349,2125,1,0,0:0:0:0:
405,214,2569,6,0,P|431:263|453:343,2,119.999996337891,2|0|0,0:0|0:0|0:0,0:0:0:0:
461,124,3902,1,0,0:0:0:0:
288,34,4347,5,0,0:0:0:0:
288,34,4569,1,2,0:0:0:0:
207,99,5236,5,0,0:0:0:0:
207,99,5458,1,2,0:0:0:0:
119,55,5902,5,0,0:0:0:0:
119,55,6125,1,2,0:0:0:0:
61,228,8125,5,0,0:0:0:0:
133,293,8319,2,0,P|115:230|146:133,1,160,2|0,0:0|0:0,0:0:0:0:
301,50,8988,2,0,P|237:70|191:72,1,80,2|0,0:0|0:0,0:0:0:0:
127,34,9434,5,0,0:0:0:0:
170,164,9657,2,0,P|202:186|239:202,1,80,2|0,0:0|0:0,0:0:0:0:
350,239,10103,5,2,0:0:0:0:
331,135,10326,1,2,0:0:0:0:
395,52,10549,1,2,0:0:0:0:
500,45,10772,1,2,0:0:0:0:
481,63,11218,2,0,P|473:125|488:176,1,80
451,320,11664,5,0,0:0:0:0:
512,232,11887,2,0,P|430:271|345:262,1,160,2|0,0:0|0:0,0:0:0:0:
314,147,12546,2,0,P|274:198|264:235,1,80,2|0,0:0|0:0,0:0:0:0:
219,350,12984,5,0,0:0:0:0:
409,366,13206,2,0,P|401:301|382:268,1,80,2|0,0:0|0:0,0:0:0:0:
427,201,13650,6,0,P|352:233|280:238,2,120,2|2|2,0:0|0:0|0:0,0:0:0:0:
371,111,14538,2,0,P|411:70|436:31,2,80,2|2|2,0:0|0:0|0:0,0:0:0:0:
281,58,15205,5,0,0:0:0:0:
191,111,15427,2,0,P|189:155|201:202,1,80,2|0,0:0|0:0,0:0:0:0:
179,327,15872,2,0,P|146:296|121:255,1,80,2|0,0:0|0:0,0:0:0:0:
96,162,16316,5,2,0:0:0:0:
96,162,16538,1,0,0:0:0:0:
425,322,16991,5,2,0:0:0:0:
460,224,17444,1,2,0:0:0:0:
415,130,17888,1,2,0:0:0:0:
316,98,18333,1,2,0:0:0:0:
419,91,18773,5,0,0:0:0:0:
419,91,18992,1,2,0:0:0:0:
243,166,19649,5,0,0:0:0:0:
298,249,19868,2,0,P|222:210|113:219,1,160,2|0,0:0|0:0,0:0:0:0:
72,275,20538,1,2,0:0:0:0:
171,310,20762,1,0,1:0:0:0:
85,147,21428,5,2,0:0:0:0:
0,188,21650,2,0,P|23:112|22:39,2,120,2|2|2,0:0|0:0|0:0,0:0:0:0:
132,35,22539,6,0,P|209:23|305:76,1,160,2|0,0:0|0:0,0:0:0:0:
297,161,23206,2,0,P|308:243|344:313,1,160,2|0,0:0|0:0,0:0:0:0:
382,97,23873,2,0,P|424:126|475:141,1,80,2|0,0:0|0:0,0:0:0:0:
458,20,24317,1,0,1:0:0:0:
274,206,24984,5,2,0:0:0:0:
364,259,25206,2,0,P|424:250|496:218,2,120,2|2|2,0:0|0:0|0:0,0:0:0:0:
222,328,26095,6,0,P|201:320|151:308,3,40,4|0|0|0,0:0|0:0|0:0|0:0,0:0:0:0:
78,262,26539,2,0,P|117:243|163:195,1,59.9999981689454
238,169,26761,5,0,0:0:0:0:
196,126,26872,1,0,0:0:0:0:
177,70,26983,1,0,0:0:0:0:
185,11,27095,5,0,1:0:0:0:
276,24,27206,1,0,1:0:0:0:
338,92,27317,1,0,1:0:0:0:
342,185,27428,1,0,1:0:0:0:
286,258,27539,1,0,1:0:0:0:
195,278,27650,1,0,1:0:0:0:
113,237,27761,1,0,1:0:0:0:
76,152,27872,5,4,1:0:0:0:
472,250,28761,5,4,1:0:0:0:
157,163,29215,6,0,P|159:191|169:221,1,50,0|0,1:0|1:0,0:0:0:0:
286,120,29442,2,0,P|267:141|253:169,1,50,0|0,1:0|1:0,0:0:0:0:
260,261,29670,5,0,0:0:0:0:
260,261,29773,1,0,0:0:0:0:
183,331,29980,1,0,0:0:0:0:
183,331,30083,1,0,0:0:0:0:
92,279,30305,1,0,0:0:0:0:
92,279,30416,1,0,0:0:0:0:
113,177,30638,1,0,0:0:0:0:
113,177,30749,1,2,0:0:0:0:
217,165,30971,2,2,L|201:59,1,89.9999972534181,2|0,0:1|0:0,0:1:0:0:
218,59,31416,5,0,1:0:0:0:
114,10,31527,1,0,1:0:0:0:
471,0,31749,5,2,1:3:0:0:
218,59,31971,5,0,1:0:0:0:
114,10,32082,1,0,1:0:0:0:
471,0,32304,5,0,1:0:0:0:
455,122,32415,1,0,1:0:0:0:
381,221,32526,1,0,1:0:0:0:
267,269,32637,1,0,1:0:0:0:
145,254,32748,1,4,1:0:0:0:
124,269,33193,5,0,1:0:0:0:
360,323,33304,1,2,1:1:0:0:
159,164,33527,5,0,1:0:0:0:
314,121,33638,1,2,1:1:0:0:
267,293,33860,6,0,L|248:184,1,100,4|0,1:3|0:0,0:0:0:0:
439,65,34082,5,4,3:2:0:0:
428,167,34193,1,0,3:0:0:0:
416,268,34304,2,0,L|354:286,1,50,0|0,3:0|3:0,0:0:0:0:
434,27,34527,5,4,3:2:0:0:
442,160,34638,1,0,3:0:0:0:
451,292,34749,2,0,L|375:329,1,50,0|0,3:0|3:0,0:0:0:0:
116,373,34971,5,0,1:0:0:0:
154,121,35082,1,2,1:0:0:0:
261,342,35304,5,0,1:0:0:0:
235,195,35415,1,2,1:0:0:0:
46,283,35638,6,0,L|161:258,1,100,4|0,1:3|0:0,0:0:0:0:
426,211,35860,1,4,1:2:0:0:
61,22,36082,6,0,L|31:191,2,150.000005722046,0|2|0,1:0|1:0|0:0,0:0:0:0:
261,342,36415,2,0,L|231:173,2,150.000005722046,0|2|0,1:0|1:0|0:0,0:0:0:0:
496,0,36749,5,0,1:0:0:0:
287,67,36860,1,2,1:0:0:0:
502,188,37082,5,0,1:0:0:0:
330,159,37193,1,2,1:0:0:0:
400,22,37415,6,0,L|420:146,1,100,4|0,1:3|0:0,0:0:0:0:
398,276,37638,5,4,3:2:0:0:
301,303,37749,1,0,3:0:0:0:
203,332,37860,2,0,L|196:395,1,50,0|0,3:0|3:0,0:0:0:0:
437,273,38082,5,4,3:2:0:0:
305,288,38194,1,0,3:0:0:0:
173,302,38305,2,0,L|149:382,1,50,0|0,3:0|3:0,0:0:0:0:
55,11,38527,5,0,1:0:0:0:
99,224,38638,1,2,1:0:0:0:
214,47,38860,5,0,1:0:0:0:
191,182,38971,1,2,1:0:0:0:
3,98,39193,6,0,L|135:123,1,100,4|0,1:3|0:0,0:0:0:0:
421,174,39415,1,4,1:2:0:0:
42,336,39638,6,0,L|268:294,2,150.000005722046,0|2|0,1:0|1:0|0:0,0:0:0:0:
336,99,39971,2,0,L|188:71,2,150.000005722046,0|2|0,1:0|1:0|0:0,0:0:0:0:
310,354,40304,5,2,0:0:0:0:
310,354,40415,1,2,0:0:0:0:
370,281,40638,1,2,0:0:0:0:
312,201,40971,1,2,0:1:0:0:
452,153,41193,5,2,0:0:0:0:
452,153,41304,1,2,0:0:0:0:
392,80,41527,1,2,0:0:0:0:
450,0,41860,1,2,0:1:0:0:
355,76,42082,6,0,P|277:49|227:45,1,119.999996337891,4|0,0:1|0:0,0:0:0:0:
147,68,42749,1,0,0:0:0:0:
47,306,43415,6,0,P|72:295|118:290,1,59.9999981689454
162,367,43860,2,0,P|175:292|206:230,1,119.999996337891,2|0,0:0|0:0,0:0:0:0:
133,176,44527,1,0,0:0:0:0:
455,212,45415,5,0,0:0:0:0:
389,286,45638,2,0,P|347:276|296:255,2,89.9999972534181,2|0|0,0:0|0:0|0:0,0:0:0:0:
265,171,46749,1,0,0:0:0:0:
166,196,47193,1,0,0:0:0:0:
391,26,48971,5,0,0:0:0:0:
322,98,49193,1,4,0:1:0:0:
346,196,49415,1,0,0:0:0:0:
346,196,49527,1,0,0:0:0:0:
287,276,50304,1,0,0:0:0:0:
25,163,50749,5,0,0:0:0:0:
120,117,50971,2,0,P|137:80|152:22,2,89.9999972534181,2|0|0,0:0|0:0|0:0,0:0:0:0:
25,163,52082,1,0,0:0:0:0:
90,304,52749,6,0,P|144:272|224:266,1,119.999996337891,2|0,0:0|0:0,0:0:0:0:
356,295,53415,2,0,P|318:228|273:193,1,119.999996337891
217,114,54082,1,0,0:0:0:0:
217,114,54304,1,0,0:0:0:0:
450,203,55193,5,0,0:0:0:0:
75,164,56082,5,0,0:0:0:0:
132,27,56304,1,4,1:1:0:0:
75,164,56531,5,0,0:0:0:0:
132,27,56644,1,0,0:0:0:0:
333,33,56985,5,0,0:0:0:0:
371,114,57213,1,0,1:0:0:0:
333,33,57432,5,0,0:0:0:0:
371,114,57542,1,0,0:0:0:0:
253,290,57876,5,0,0:0:0:0:
106,248,58101,1,0,1:0:0:0:
253,290,58323,5,0,0:0:0:0:
106,248,58434,1,0,0:0:0:0:
336,351,58767,5,0,0:0:0:0:
352,263,58989,1,0,1:0:0:0:
336,351,59204,5,0,0:0:0:0:
352,263,59312,1,0,0:0:0:0:
451,104,59645,5,0,0:0:0:0:
491,293,59871,1,4,1:0:0:0:
451,104,60096,5,0,0:0:0:0:
491,293,60209,1,0,0:0:0:0:
173,323,60544,5,0,0:0:0:0:
56,261,60766,2,0,P|52:193|62:148,1,100,0|0,1:0|0:0,0:0:0:0:
38,28,61210,5,0,1:0:0:0:
86,107,61284,1,0,1:0:0:0:
158,165,61358,1,0,1:0:0:0:
246,195,61432,1,0,1:0:0:0:
339,193,61506,1,0,1:0:0:0:
425,159,61580,1,0,1:0:0:0:
436,341,62320,5,0,0:0:0:0:
165,66,62542,2,0,P|214:23|325:-3,1,150,4|0,1:0|0:0,0:0:0:0:
56,40,62987,2,0,P|22:122|16:205,1,150,4|0,1:0|0:0,0:0:0:0:
81,284,63431,6,0,L|113:278,1,29.9999990844727,4|0,1:2|0:0,0:0:0:0:
262,123,63765,2,0,L|251:153,1,29.9999990844727,4|0,1:2|0:0,0:0:0:0:
310,360,64098,2,0,L|289:335,1,29.9999990844727,4|0,1:2|0:0,0:0:0:0:
280,326,64320,6,0,L|468:294,2,150.000005722046,0|0|0,1:0|1:0|1:0,0:0:0:0:
59,215,64654,2,0,L|207:241,2,150.000005722046,0|0|0,1:0|1:0|1:0,0:0:0:0:
170,337,64987,5,0,1:0:0:0:
110,117,65098,1,0,1:0:0:0:
314,14,65209,2,0,L|350:-2,1,29.9999990844727,4|0,1:2|0:0,0:0:0:0:
325,168,65542,2,0,L|361:152,1,29.9999990844727,4|0,1:2|0:0,0:0:0:0:
336,322,65876,2,0,L|372:306,1,29.9999990844727,4|0,1:2|0:0,0:0:0:0:
381,302,66098,6,0,L|432:99,2,200,0|0|0,1:0|1:0|1:0,0:0:0:0:
46,36,66431,2,0,L|97:239,2,200,0|0|0,1:0|1:0|1:0,0:0:0:0:
62,328,66765,5,0,1:0:0:0:
197,246,66876,1,0,1:0:0:0:
336,322,66987,2,0,L|364:337,1,29.9999990844727,4|0,1:2|0:0,0:0:0:0:
194,88,67320,2,0,L|192:56,1,29.9999990844727,4|0,1:2|0:0,0:0:0:0:
62,328,67654,2,0,L|35:344,1,29.9999990844727,4|0,1:2|0:0,0:0:0:0:
23,353,67876,6,0,L|-12:160,2,150.000005722046,0|0|0,1:0|1:0|1:0,0:0:0:0:
128,180,68209,2,0,L|154:32,2,150.000005722046,0|0|0,1:0|1:0|1:0,0:0:0:0:
24,98,68542,5,0,1:0:0:0:
251,32,68654,1,0,1:0:0:0:
421,195,68765,2,0,L|432:236,1,29.9999990844727,4|0,1:2|0:0,0:0:0:0:
288,247,69098,2,0,L|299:288,1,29.9999990844727,4|0,1:2|0:0,0:0:0:0:
155,299,69431,2,0,L|166:340,1,29.9999990844727,4|0,1:2|0:0,0:0:0:0:
169,346,69653,6,0,L|466:383,2,200,0|0|0,1:0|1:0|1:0,0:0:0:0:
506,105,69987,2,0,L|209:142,2,200,0|0|0,1:0|1:0|1:0,0:0:0:0:
474,218,70320,5,0,1:0:0:0:
264,28,70431,1,0,1:0:0:0:
48,180,70542,2,0,L|77:177,1,29.9999990844727,4|0,1:2|0:0,0:0:0:0:
287,291,70876,2,0,L|270:266,1,29.9999990844727,4|0,1:2|0:0,0:0:0:0:
264,28,71209,2,0,L|250:54,1,29.9999990844727,4|0,1:2|0:0,0:0:0:0:
243,68,71431,6,0,L|84:48,2,150.000005722046,0|0|0,1:0|1:0|1:0,0:0:0:0:
491,200,71765,2,0,L|332:220,2,150.000005722046,0|0|0,1:0|1:0|1:0,0:0:0:0:
404,52,72098,5,0,1:0:0:0:
221,200,72209,1,0,1:0:0:0:
35,56,72320,2,0,L|43:7,1,44.999998626709,4|0,1:2|0:0,0:0:0:0:
138,17,72765,2,0,L|130:61,1,44.999998626709,4|0,1:2|0:0,0:0:0:0:
126,81,73209,6,0,L|379:48,2,200,0|0|0,1:0|1:0|1:0,0:0:0:0:
512,217,73542,2,0,L|258:184,2,200,0|0|0,1:0|1:0|1:0,0:0:0:0:
432,32,73876,5,0,1:0:0:0:
205,168,73987,1,0,0:0:0:0:
419,323,74098,2,0,L|469:307,2,44.999998626709,4|4|4,1:2|1:2|1:2,0:0:0:0:
313,369,74987,2,0,L|263:353,2,44.999998626709,4|4|4,1:2|1:2|1:2,0:0:0:0:
34,328,75876,5,2,0:0:0:0:
134,148,76209,1,2,0:0:0:0:
333,203,76542,1,2,0:0:0:0:
34,328,76987,5,0,1:0:0:0:
134,148,77098,1,0,1:0:0:0:
333,203,77209,2,0,P|333:262|357:337,1,100,0|0,1:0|1:0,0:0:0:0:
507,145,77431,6,0,P|461:119|322:117,1,150.000005722046,0|0,1:0|0:0,0:0:0:0:
415,2,77653,2,0,P|362:2|240:70,1,150.000005722046,4|0,1:2|0:0,0:0:0:0:
208,365,77876,5,0,1:0:0:0:
261,151,77987,2,0,L|295:308,2,150.000005722046,0|0|0,1:0|0:0|0:0,0:0:0:0:
172,6,78320,6,0,P|146:52|144:191,1,150.000005722046,0|0,1:0|0:0,0:0:0:0:
29,98,78542,2,0,P|29:151|97:273,1,150.000005722046,4|0,1:2|0:0,0:0:0:0:
392,305,78765,5,0,1:0:0:0:
178,252,78876,2,0,L|335:218,2,150.000005722046,0|0|0,1:0|0:0|0:0,0:0:0:0:
512,153,79209,2,0,L|365:121,1,150.000005722046,0|0,1:0|1:0,0:0:0:0:
87,26,79431,6,0,P|49:63|12:197,2,150.000005722046,4|0|0,1:2|0:0|0:0,0:0:0:0:
158,297,79765,2,0,P|132:251|130:112,2,125,4|0|0,1:2|0:0|0:0,0:0:0:0:
269,107,80098,2,0,P|243:152|241:292,2,100,4|0|0,1:2|0:0|0:0,0:0:0:0:
512,216,80431,5,0,1:0:0:0:
426,164,80542,2,0,L|308:183,1,75.0000028610231,0|0,1:0|0:0,0:0:0:0:
5,239,80765,1,4,1:0:0:0:
5,239,80987,6,0,P|51:265|190:267,1,150.000005722046,0|0,1:0|0:0,0:0:0:0:
97,382,81209,2,0,P|150:382|272:314,1,150.000005722046,4|0,1:2|0:0,0:0:0:0:
304,19,81432,5,0,1:0:0:0:
251,233,81543,2,0,L|217:76,2,150.000005722046,0|0|0,1:0|0:0|0:0,0:0:0:0:
340,378,81876,6,0,P|366:332|368:193,1,150.000005722046,0|0,1:0|0:0,0:0:0:0:
483,286,82098,2,0,P|483:233|415:111,1,150.000005722046,4|0,1:2|0:0,0:0:0:0:
120,79,82321,5,0,1:0:0:0:
334,132,82431,2,0,L|177:166,2,150.000005722046,0|0|0,1:0|0:0|0:0,0:0:0:0:
0,231,82765,2,0,L|147:263,1,150.000005722046,0|0,1:0|1:0,0:0:0:0:
386,384,82987,6,0,P|341:323|323:251,2,150.000005722046,4|0|0,1:2|0:0|0:0,0:0:0:0:
474,10,83320,2,0,P|443:78|390:130,2,150.000005722046,4|0|0,1:2|0:0|0:0,0:0:0:0:
107,119,83653,2,0,P|181:110|252:131,2,150.000005722046,4|0|0,1:2|0:0|0:0,0:0:0:0:
266,15,83987,5,0,1:0:0:0:
6,66,84098,2,0,L|-2:188,1,100,0|0,1:0|0:0,0:0:0:0:
201,338,84320,5,0,1:0:0:0:
197,235,84431,1,0,1:0:0:0:
110,292,84542,2,0,P|180:268|309:275,1,200,0|0,1:0|0:0,0:0:0:0:
223,138,84765,2,0,P|295:152|403:222,1,200,4|0,1:2|0:0,0:0:0:0:
397,61,84987,2,0,P|452:109|511:224,1,200,0|0,1:0|0:0,0:0:0:0:
37,365,85208,6,0,P|98:323|224:297,1,200,0|0,1:0|0:0,0:0:0:0:
106,187,85431,2,0,P|179:181|301:221,1,200,0|0,1:0|0:0,0:0:0:0:
254,67,85653,2,0,P|319:99|406:194,1,200,4|0,1:2|0:0,0:0:0:0:
442,37,85876,2,0,P|482:97|509:223,1,200,0|0,1:0|0:0,0:0:0:0:
313,381,86098,5,0,1:0:0:0:
205,258,86209,1,0,1:0:0:0:
363,295,86320,1,0,1:0:0:0:
214,358,86431,1,0,1:0:0:0:
298,219,86542,2,0,L|307:179,2,40,4|4|4,1:0|1:0|1:0,0:0:0:0:
149,158,93653,6,0,P|103:144|43:112,2,89.9999972534181,2|0|0,0:0|0:0|0:0,0:0:0:0:
242,106,94765,1,0,0:0:0:0:
345,141,95209,1,0,0:0:0:0:
417,72,101771,5,0,1:0:0:0:
441,192,101882,1,0,1:0:0:0:
417,72,102104,5,0,1:0:0:0:
441,192,102215,1,0,1:0:0:0:
385,301,102326,1,0,1:0:0:0:
273,352,102437,1,0,1:0:0:0:
154,322,102548,6,0,P|144:265|116:200,1,100,4|0,1:0|0:0,0:0:0:0:
261,302,102875,2,0,P|264:251|259:202,1,100,0|0,1:0|0:0,0:0:0:0:
178,127,103202,5,0,0:0:0:0:
438,43,103420,1,0,1:0:0:0:
178,127,103645,5,0,0:0:0:0:
438,43,103758,1,0,1:0:0:0:
241,52,104096,5,0,0:0:0:0:
375,118,104322,1,0,1:0:0:0:
241,52,104544,5,0,0:0:0:0:
375,118,104655,1,0,1:0:0:0:
178,127,104988,5,0,0:0:0:0:
438,43,105210,1,0,1:0:0:0:
178,127,105433,5,0,0:0:0:0:
438,43,105544,1,0,1:0:0:0:
398,316,105891,5,0,0:0:0:0:
387,214,106009,1,0,0:0:0:0:
478,256,106127,2,0,P|430:272|381:280,1,100,4|0,1:0|0:0,0:0:0:0:
233,308,106422,2,0,P|187:285|147:256,1,100,0|0,1:0|0:0,0:0:0:0:
6,117,106748,5,0,0:0:0:0:
73,360,106966,1,0,1:0:0:0:
6,117,107188,5,0,0:0:0:0:
73,360,107299,1,0,1:0:0:0:
80,183,107632,5,0,0:0:0:0:
0,294,107854,1,0,1:0:0:0:
80,183,108076,5,0,0:0:0:0:
0,294,108187,1,0,1:0:0:0:
6,117,108520,5,0,0:0:0:0:
73,360,108742,1,0,1:0:0:0:
6,117,108965,5,0,0:0:0:0:
73,360,109076,1,0,1:0:0:0:
114,259,109187,1,0,1:0:0:0:
195,186,109299,1,0,1:0:0:0:
300,156,109412,1,0,1:0:0:0:
407,175,109525,1,0,1:0:0:0:
495,240,109638,6,0,L|362:219,1,100,4|0,1:0|0:0,0:0:0:0:
365,83,109863,5,0,1:0:0:0:
216,282,109976,2,0,L|315:298,2,100,0|0|0,1:0|0:0|0:0,0:0:0:0:
0,255,110314,6,0,L|133:234,1,100,0|0,1:0|0:0,0:0:0:0:
181,169,110540,2,0,L|314:148,1,100,4|0,1:0|0:0,0:0:0:0:
512,201,110765,5,0,1:0:0:0:
365,83,110878,2,0,L|498:62,2,100,0|0|0,1:0|0:0|0:0,0:0:0:0:
428,356,111213,6,0,L|407:223,1,129.999994049073,0|0,1:0|0:0,0:0:0:0:
201,297,111435,2,0,L|180:164,1,129.999994049073,4|0,1:0|0:0,0:0:0:0:
99,31,111657,5,0,1:0:0:0:
307,159,111768,2,0,L|286:26,2,129.999994049073,0|0|0,1:0|0:0|0:0,0:0:0:0:
43,358,112101,6,0,L|64:225,1,129.999994049073,0|0,1:0|0:0,0:0:0:0:
326,263,112323,2,0,L|347:130,1,129.999994049073,4|0,1:0|0:0,0:0:0:0:
20,113,112546,5,0,1:0:0:0:
197,14,112657,2,0,L|177:143,2,129.999994049073,0|0|0,1:0|0:0|0:0,0:0:0:0:
460,38,112990,6,0,L|491:238,1,160,0|0,1:0|0:0,0:0:0:0:
199,159,113212,2,0,L|230:359,1,160,4|0,1:0|0:0,0:0:0:0:
84,263,113435,5,0,1:0:0:0:
382,380,113546,2,0,L|357:221,2,160,0|0|0,1:0|0:0|0:0,0:0:0:0:
50,14,113879,6,0,L|18:214,1,160,0|0,1:0|0:0,0:0:0:0:
442,135,114101,2,0,L|410:335,1,160,0|0,1:0|0:0,0:0:0:0:
189,226,114323,2,0,L|164:384,1,160,0|0,1:0|0:0,0:0:0:0:
347,73,114546,5,0,3:0:0:0:
311,77,114620,1,0,3:0:0:0:
276,82,114694,1,0,3:0:0:0:
241,87,114768,1,0,3:0:0:0:
206,92,114842,1,0,3:0:0:0:
170,97,114916,1,0,3:0:0:0:
135,102,114990,1,0,3:0:0:0:
40,115,115879,6,0,B|76:39|76:39|175:79|225:266|87:341,1,400,4|0,1:2|0:0,0:0:0:0:
23,340,116212,2,0,B|198:363|198:363|220:351|220:351|449:374,1,400,4|0,1:2|0:0,0:0:0:0:
415,272,116546,2,0,B|394:168|394:168|406:290,1,200,4|0,1:2|0:0,0:0:0:0:
382,104,116768,6,2,L|370:34,15,50,6|2|2|2|2|2|2|2|2|2|2|2|2|2|2|2,1:1|0:1|0:1|0:1|0:1|0:1|0:1|0:1|0:1|0:1|0:1|0:1|0:1|0:1|0:1|0:1,0:1:0:0:
386,125,118546,5,6,1:1:0:0:
430,13,118657,1,2,0:1:0:0:
386,125,118768,5,2,0:1:0:0:
430,13,118879,1,2,0:1:0:0:
386,125,118990,5,2,0:1:0:0:
430,13,119101,1,2,0:1:0:0:
386,125,119212,5,2,0:1:0:0:
430,13,119323,1,2,0:1:0:0:
292,104,119434,5,6,1:0:0:0:
280,15,119545,1,2,0:1:0:0:
292,104,119656,5,2,0:1:0:0:
280,15,119767,1,2,0:1:0:0:
292,104,119878,5,2,0:1:0:0:
280,15,119989,1,2,0:1:0:0:
292,104,120100,5,2,0:1:0:0:
280,15,120211,1,2,0:1:0:0:
191,78,120323,5,6,1:0:0:0:
189,86,120434,1,2,0:1:0:0:
198,83,120545,1,2,0:1:0:0:
198,73,120656,1,2,0:1:0:0:
189,69,120767,1,2,0:1:0:0:
183,78,120878,1,2,0:1:0:0:
188,90,120990,1,2,0:1:0:0:
202,85,121101,1,2,0:1:0:0:
202,70,121212,1,2,0:1:0:0:
188,65,121323,1,2,0:1:0:0:
179,78,121434,1,2,0:1:0:0:
186,94,121545,1,2,0:1:0:0:
205,88,121656,1,2,0:1:0:0:
205,68,121767,1,2,0:1:0:0:
186,61,121878,1,2,0:1:0:0:
174,78,121990,1,2,0:1:0:0:
191,78,122101,5,6,1:0:0:0:
110,114,122212,1,2,0:1:0:0:
72,193,122323,1,2,0:1:0:0:
93,278,122434,1,2,0:1:0:0:
164,330,122545,1,2,0:1:0:0:
252,324,122656,1,2,0:1:0:0:
316,263,122767,1,2,0:1:0:0:
316,173,122879,1,2,0:1:0:0:
393,128,122990,1,2,0:1:0:0:
471,173,123101,1,2,0:1:0:0:
471,263,123212,1,2,0:1:0:0:
393,307,123324,1,2,0:1:0:0:
316,263,123435,1,2,0:1:0:0:
244,211,123546,1,2,0:1:0:0:
156,217,123657,1,2,0:1:0:0:
93,278,123768,1,2,0:1:0:0:
68,362,123879,6,2,L|8:373,15,50,6|2|2|2|2|2|2|2|2|2|2|2|2|2|2|2,0:1|0:1|0:1|0:1|0:1|0:1|0:1|0:1|0:1|0:1|0:1|0:1|0:1|0:1|0:1|0:1,0:1:0:0:
81,360,125657,5,6,1:0:0:0:
199,336,125768,1,2,0:1:0:0:
81,360,125879,5,2,0:1:0:0:
199,336,125990,1,2,0:1:0:0:
81,360,126101,5,2,0:1:0:0:
199,336,126212,1,2,0:1:0:0:
81,360,126323,5,2,0:1:0:0:
199,336,126434,1,2,0:1:0:0:
81,244,126546,5,6,1:0:0:0:
172,243,126657,1,2,0:1:0:0:
81,244,126768,5,2,0:1:0:0:
172,243,126879,1,2,0:1:0:0:
81,244,126990,5,2,0:1:0:0:
172,243,127101,1,2,0:1:0:0:
81,244,127212,5,2,0:1:0:0:
172,243,127323,1,2,0:1:0:0:
142,146,127434,5,6,1:0:0:0:
140,154,127545,1,2,0:1:0:0:
149,151,127656,1,2,0:1:0:0:
149,141,127767,1,2,0:1:0:0:
140,137,127878,1,2,0:1:0:0:
134,146,127989,1,2,0:1:0:0:
139,158,128101,1,2,0:1:0:0:
153,153,128212,1,2,0:1:0:0:
153,138,128323,1,2,0:1:0:0:
139,133,128434,1,2,0:1:0:0:
130,146,128545,1,2,0:1:0:0:
137,162,128656,1,2,0:1:0:0:
156,156,128767,1,2,0:1:0:0:
156,136,128878,1,2,0:1:0:0:
137,129,128989,1,2,0:1:0:0:
125,146,129101,1,2,0:1:0:0:
142,146,129211,5,6,1:0:0:0:
196,74,129323,1,2,0:1:0:0:
285,62,129434,1,2,0:1:0:0:
356,117,129545,1,2,0:1:0:0:
368,206,129656,1,2,0:1:0:0:
314,277,129767,1,2,0:1:0:0:
224,288,129879,1,2,0:1:0:0:
153,235,129990,1,2,0:1:0:0:
109,137,130101,5,6,1:0:0:0:
178,44,130213,1,2,0:1:0:0:
293,28,130324,1,2,0:1:0:0:
385,99,130435,1,2,0:1:0:0:
400,214,130546,1,2,0:1:0:0:
331,306,130657,1,2,0:1:0:0:
215,321,130768,1,2,0:1:0:0:
123,252,130879,1,2,0:1:0:0:
74,129,130990,6,0,P|86:194|81:263,1,100,6|0,1:0|0:0,0:0:0:0:
175,89,131323,2,0,P|203:148|216:216,2,100,0|0|0,1:0|0:0|0:0,0:0:0:0:
336,329,131879,6,0,P|348:264|343:195,1,100,6|0,1:0|0:0,0:0:0:0:
437,369,132212,2,0,P|465:309|478:241,2,100,0|0|0,1:0|0:0|0:0,0:0:0:0:
476,104,132768,6,0,P|413:126|356:165,1,100,2|0,1:0|0:0,0:0:0:0:
372,174,133101,1,0,0:0:0:0:
269,46,133212,6,0,P|240:105|228:174,1,100,0|0,1:0|0:0,0:0:0:0:
244,169,133545,1,0,0:0:0:0:
78,129,133657,6,0,P|116:188|157:294,1,150,4|0,1:0|0:0,0:0:0:0:
232,384,134101,2,0,P|270:325|311:219,1,150,4|0,1:0|0:0,0:0:0:0:
48,335,134546,6,0,P|110:312|167:273,1,100,2|0,1:0|0:0,0:0:0:0:
316,315,134879,2,0,P|343:254|356:187,1,100,0|0,1:0|0:0,0:0:0:0:
211,134,135212,2,0,P|220:190|227:209,1,50,0|0,1:0|0:0,0:0:0:0:
48,335,135434,6,0,P|110:312|167:273,1,100,2|0,1:0|0:0,0:0:0:0:
316,315,135767,2,0,P|343:254|356:187,1,100,0|0,1:0|0:0,0:0:0:0:
211,134,136100,2,0,P|220:190|227:209,1,50,0|0,1:0|0:0,0:0:0:0:
457,160,136323,5,4,1:0:0:0:
431,22,136657,1,0,1:0:0:0:
325,114,136990,1,0,1:0:0:0:
457,160,137212,5,4,1:0:0:0:
431,22,137546,1,0,1:0:0:0:
325,114,137879,1,0,1:0:0:0:
457,160,138101,5,6,1:0:0:0:
431,22,138212,1,2,0:1:0:0:
439,165,138323,5,2,0:1:0:0:
378,38,138434,1,2,0:1:0:0:
423,175,138546,5,2,0:1:0:0:
331,68,138657,1,2,0:1:0:0:
409,187,138768,5,2,0:1:0:0:
293,108,138879,1,2,0:1:0:0:
308,207,138990,6,0,P|301:237|296:296,7,50,2|0|0|0|0|0|0|0,0:1|0:0|0:0|0:0|0:0|0:0|0:0|0:0,0:0:0:0:
214,144,139879,5,6,1:0:0:0:
188,282,139990,1,2,0:1:0:0:
196,139,140101,5,2,0:1:0:0:
135,266,140212,1,2,0:1:0:0:
180,129,140324,5,2,0:1:0:0:
88,236,140435,1,2,0:1:0:0:
166,117,140546,5,2,0:1:0:0:
50,196,140657,1,2,0:1:0:0:
65,97,140768,6,0,P|58:67|53:8,7,50,2|0|0|0|0|0|0|0,0:1|0:0|0:0|0:0|0:0|0:0|0:0|0:0,0:0:0:0:
314,61,141657,5,6,1:0:0:0:
154,23,141768,1,2,0:1:0:0:
268,137,141879,5,2,0:1:0:0:
165,81,141990,1,2,0:1:0:0:
229,192,142101,5,2,0:1:0:0:
161,128,142212,1,2,0:1:0:0:
187,227,142323,5,2,0:1:0:0:
148,163,142434,1,2,0:1:0:0:
147,245,142546,5,2,0:1:0:0:
130,187,142657,1,2,0:1:0:0:
114,242,142768,5,2,0:1:0:0:
113,199,142879,1,2,0:1:0:0:
92,233,142990,5,2,0:1:0:0:
99,204,143101,1,2,0:1:0:0:
78,223,143212,5,2,0:1:0:0:
88,204,143323,1,2,0:1:0:0:
70,213,143434,5,6,1:0:0:0:
262,133,143546,1,2,0:1:0:0:
160,288,143657,5,2,0:1:0:0:
281,174,143769,1,2,0:1:0:0:
246,318,143878,5,2,0:1:0:0:
306,199,143990,1,2,0:1:0:0:
319,316,144100,5,2,0:1:0:0:
331,210,144212,1,2,0:1:0:0:
372,294,144322,5,2,0:1:0:0:
352,211,144434,1,2,0:1:0:0:
399,256,144545,5,2,0:1:0:0:
366,206,144657,1,2,0:1:0:0:
408,225,144767,5,2,0:1:0:0:
374,200,144879,1,2,0:1:0:0:
399,200,144990,6,0,L|425:150,2,33.3333333333333,0|0|0,1:0|0:0|0:0,0:0:0:0:
419,156,145212,6,0,P|407:94|387:43,2,89.9999972534181,4|0|0,1:0|0:0|0:0,0:0:0:0:
288,171,146101,2,0,P|292:108|286:53,2,89.9999972534181,0|0|0,1:0|0:0|0:0,0:0:0:0:
148,256,146990,6,0,P|136:318|116:369,2,89.9999972534181,0|0|0,1:0|0:0|0:0,0:0:0:0:
17,241,147879,2,0,P|21:303|15:358,2,89.9999972534181,0|0|0,1:0|0:0|0:0,0:0:0:0:
42,65,148768,6,0,P|89:44|133:37,1,80,4|0,1:0|0:0,0:0:0:0:
135,47,149101,1,0,0:0:0:0:
221,129,149434,5,0,0:0:0:0:
221,129,149657,2,0,P|269:147|305:173,1,80,0|0,1:0|0:0,0:0:0:0:
299,182,149990,1,0,0:0:0:0:
395,7,150323,5,0,0:0:0:0:
395,7,150546,2,0,P|374:54|367:98,1,80,0|0,1:0|0:0,0:0:0:0:
377,100,150879,1,0,0:0:0:0:
459,186,151212,5,0,0:0:0:0:
459,186,151435,2,0,P|477:234|503:270,1,80,0|0,1:0|0:0,0:0:0:0:
512,264,151768,1,0,0:0:0:0:
370,352,152101,5,0,0:0:0:0:
226,322,152323,1,4,1:0:0:0:
370,352,152546,5,0,0:0:0:0:
226,322,152657,1,0,1:0:0:0:
250,131,152990,5,0,0:0:0:0:
265,219,153212,1,0,1:0:0:0:
250,131,153434,5,0,0:0:0:0:
265,219,153546,1,0,1:0:0:0:
48,343,153879,5,0,0:0:0:0:
73,182,154101,1,0,1:0:0:0:
48,343,154323,5,0,0:0:0:0:
73,182,154434,1,0,1:0:0:0:
293,30,154768,5,0,0:0:0:0:
205,45,154990,1,0,1:0:0:0:
293,30,155212,5,0,0:0:0:0:
205,45,155324,1,0,1:0:0:0:
454,269,155657,5,0,0:0:0:0:
216,240,155879,1,4,1:0:0:0:
454,269,156101,5,0,3:0:0:0:
216,240,156212,1,0,3:0:0:0:
302,216,156323,1,0,3:0:0:0:
353,141,156434,1,0,3:0:0:0:
342,52,156545,1,0,3:0:0:0:
423,14,156657,1,0,3:0:0:0:
484,78,156768,1,0,3:0:0:0:
441,156,156879,1,0,3:0:0:0:
353,141,156990,1,0,3:0:0:0:
265,126,157101,1,0,3:0:0:0:
177,111,157212,5,0,1:0:0:0:
51,284,157322,1,0,1:0:0:0:
254,218,157434,1,0,1:0:0:0:
51,152,157545,1,0,1:0:0:0:
177,325,157657,2,0,P|164:272|164:251,2,60,4|4|4,1:2|1:2|1:2,0:0:0:0:
248,76,158546,6,0,P|199:33|88:7,1,150,0|0,1:0|0:0,0:0:0:0:
357,50,158991,2,0,P|391:132|397:215,1,150,4|0,1:2|0:0,0:0:0:0:
218,335,159434,6,0,L|225:365,1,29.9999990844727,4|0,1:2|0:0,0:0:0:0:
271,185,159768,2,0,L|306:162,1,29.9999990844727,4|0,1:2|0:0,0:0:0:0:
116,214,160101,2,0,L|88:206,1,29.9999990844727,4|0,1:2|0:0,0:0:0:0:
72,201,160323,6,0,L|42:15,2,150.000005722046,0|0|0,1:0|1:0|1:0,0:0:0:0:
200,314,160657,2,0,L|230:128,2,150.000005722046,0|0|0,1:0|1:0|1:0,0:0:0:0:
107,376,160990,5,0,1:0:0:0:
322,259,161101,1,0,1:0:0:0:
200,46,161212,2,0,L|188:85,1,29.9999990844727,4|0,1:2|0:0,0:0:0:0:
326,84,161546,2,0,L|314:123,1,29.9999990844727,0|0,1:0|0:0,0:0:0:0:
452,122,161879,2,0,L|440:161,1,29.9999990844727,0|0,1:0|0:0,0:0:0:0:
439,170,162101,6,0,L|212:202,2,200,0|0|0,1:0|1:0|1:0,0:0:0:0:
17,64,162434,2,0,L|215:91,2,200,0|0|0,1:0|1:0|1:0,0:0:0:0:
115,201,162768,5,0,1:0:0:0:
324,88,162879,1,0,1:0:0:0:
471,275,162990,2,0,L|433:259,1,29.9999990844727,4|0,1:2|0:0,0:0:0:0:
235,308,163323,2,0,L|266:283,1,29.9999990844727,4|0,1:2|0:0,0:0:0:0:
324,88,163657,2,0,L|329:127,1,29.9999990844727,4|0,1:2|0:0,0:0:0:0:
331,132,163879,6,0,L|168:105,2,150.000005722046,0|0|0,1:0|1:0|1:0,0:0:0:0:
148,226,164212,2,0,L|-15:253,2,150.000005722046,0|0|0,1:0|1:0|1:0,0:0:0:0:
68,123,164546,5,0,1:0:0:0:
297,247,164657,1,0,1:0:0:0:
483,65,164768,2,0,L|444:54,1,29.9999990844727,4|0,1:2|0:0,0:0:0:0:
456,205,165101,2,0,L|417:194,1,29.9999990844727,4|0,1:2|0:0,0:0:0:0:
429,345,165434,2,0,L|390:334,1,29.9999990844727,4|0,1:2|0:0,0:0:0:0:
381,329,165657,6,0,L|355:114,2,200,0|0|0,1:0|1:0|1:0,0:0:0:0:
111,185,165990,2,0,L|85:400,2,200,0|0|0,1:0|1:0|1:0,0:0:0:0:
319,22,166323,5,0,1:0:0:0:
203,149,166434,1,0,1:0:0:0:
33,113,166546,2,0,L|3:106,1,29.9999990844727,4|0,1:2|0:0,0:0:0:0:
319,22,166879,2,0,L|339:0,1,29.9999990844727,4|0,1:2|0:0,0:0:0:0:
256,314,167212,2,0,L|265:342,1,29.9999990844727,4|0,1:2|0:0,0:0:0:0:
270,356,167434,6,0,L|91:319,2,150.000005722046,0|0|0,1:0|1:0|1:0,0:0:0:0:
486,186,167768,2,0,L|307:223,2,150.000005722046,0|0|0,1:0|1:0|1:0,0:0:0:0:
450,312,168101,5,0,1:0:0:0:
283,125,168212,1,0,1:0:0:0:
58,223,168323,2,0,L|3:230,1,44.999998626709,4|0,1:2|0:0,0:0:0:0:
30,132,168768,2,0,L|74:126,1,44.999998626709,4|0,1:2|0:0,0:0:0:0:
94,124,169212,6,0,L|58:353,2,200,0|0|0,1:0|1:0|1:0,0:0:0:0:
265,203,169546,2,0,L|229:-26,2,200,0|0|0,1:0|1:0|1:0,0:0:0:0:
129,0,169879,5,0,1:0:0:0:
382,101,169990,1,0,1:0:0:0:
168,269,170101,2,0,L|122:262,2,44.999998626709,4|4|4,1:2|1:2|1:2,0:0:0:0:
265,203,170990,2,0,L|311:196,2,44.999998626709,4|4|4,1:2|1:2|1:2,0:0:0:0:
64,341,171879,5,2,0:0:0:0:
50,133,172212,1,2,0:0:0:0:
239,42,172546,1,2,0:0:0:0:
64,341,172990,5,0,1:0:0:0:
50,133,173101,1,0,1:0:0:0:
239,42,173212,2,0,P|309:67|361:113,1,100,0|0,1:0|1:0,0:0:0:0:
303,368,173434,6,0,P|335:301|341:226,1,150.000005722046,0|0,1:0|0:0,0:0:0:0:
224,269,173656,2,0,P|219:194|186:127,1,150.000005722046,4|0,1:2|0:0,0:0:0:0:
490,23,173878,5,0,1:0:0:0:
312,116,173989,2,0,L|462:126,2,150.000005722046,0|0|0,1:0|0:0|0:0,0:0:0:0:
5,133,174324,6,0,P|72:165|147:171,1,150.000005722046,0|0,1:0|0:0,0:0:0:0:
104,54,174546,2,0,P|179:49|246:16,1,150.000005722046,4|0,1:2|0:0,0:0:0:0:
350,320,174768,5,0,1:0:0:0:
257,142,174879,2,0,L|247:292,2,150.000005722046,0|0|0,1:0|0:0|0:0,0:0:0:0:
121,374,175212,2,0,L|111:224,1,150.000005722046,0|0,1:0|1:0,0:0:0:0:
18,87,175434,6,0,P|74:38|145:13,2,150.000005722046,4|0|0,1:2|0:0|0:0,0:0:0:0:
358,124,175768,2,0,P|291:91|215:86,2,125,4|0|0,1:2|0:0|0:0,0:0:0:0:
131,259,176101,2,0,P|187:210|258:185,2,100,4|0|0,1:2|0:0|0:0,0:0:0:0:
350,319,176434,5,0,1:0:0:0:
253,384,176546,2,0,L|236:257,1,75.0000028610231,0|0,1:0|0:0,0:0:0:0:
209,16,176768,1,4,1:0:0:0:
209,16,176990,6,0,P|177:83|171:158,1,150.000005722046,0|0,1:0|0:0,0:0:0:0:
288,115,177212,2,0,P|293:190|326:257,1,150.000005722046,4|0,1:2|0:0,0:0:0:0:
22,361,177434,5,0,1:0:0:0:
200,268,177545,2,0,L|50:258,2,150.000005722046,0|0|0,1:0|0:0|0:0,0:0:0:0:
507,251,177879,6,0,P|440:219|365:213,1,150.000005722046,0|0,1:0|0:0,0:0:0:0:
408,330,178102,2,0,P|333:335|266:368,1,150.000005722046,4|0,1:2|0:0,0:0:0:0:
162,64,178324,5,0,1:0:0:0:
255,242,178435,2,0,L|265:92,2,150.000005722046,0|0|0,1:0|0:0|0:0,0:0:0:0:
391,10,178768,2,0,L|401:160,1,150.000005722046,0|0,1:0|1:0,0:0:0:0:
247,297,178990,6,0,P|179:329|105:335,2,150.000005722046,4|0|0,1:2|0:0|0:0,0:0:0:0:
0,222,179323,2,0,P|5:147|37:80,2,150.000005722046,4|0|0,1:2|0:0|0:0,0:0:0:0:
189,44,179657,2,0,P|251:85|292:147,2,150.000005722046,4|0|0,1:2|0:0|0:0,0:0:0:0:
145,187,179990,5,0,1:0:0:0:
383,16,180101,2,0,L|398:115,1,100,0|0,1:0|0:0,0:0:0:0:
437,313,180323,5,0,1:0:0:0:
359,228,180434,1,0,1:0:0:0:
471,205,180546,2,0,P|468:280|443:351,1,150.000005722046,0|0,1:0|0:0,0:0:0:0:
330,137,180768,2,0,P|347:210|341:285,1,150.000005722046,4|0,1:2|0:0,0:0:0:0:
177,107,180990,2,0,P|212:173|226:247,1,150.000005722046,0|0,1:0|0:0,0:0:0:0:
484,69,181212,6,0,P|501:142|495:217,1,150.000005722046,0|0,1:0|0:0,0:0:0:0:
331,39,181434,2,0,P|366:105|380:179,1,150.000005722046,0|0,1:0|0:0,0:0:0:0:
175,50,181656,2,0,P|226:105|259:173,1,150.000005722046,4|0,1:2|0:0,0:0:0:0:
27,101,181878,2,0,P|91:141|140:198,1,150.000005722046,0|0,1:0|0:0,0:0:0:0:
373,271,182101,5,0,1:0:0:0:
321,343,182213,1,0,1:0:0:0:
235,316,182324,1,0,1:0:0:0:
235,226,182435,1,0,1:0:0:0:
321,198,182546,5,4,3:0:0:0:
337,208,182657,1,0,3:0:0:0:
354,215,182768,1,0,3:0:0:0:
373,219,182879,1,0,3:0:0:0:
391,220,182990,1,0,3:0:0:0:
410,218,183101,1,0,3:0:0:0:
428,212,183212,1,0,3:0:0:0:
444,204,183323,1,0,3:0:0:0:
459,192,183435,5,0,3:0:0:0:
461,200,183546,1,0,3:0:0:0:
452,197,183657,1,0,3:0:0:0:
452,187,183768,1,0,3:0:0:0:
461,183,183879,1,0,3:0:0:0:
467,192,183990,1,0,3:0:0:0:
462,204,184102,1,0,3:0:0:0:
448,199,184213,1,0,3:0:0:0:
459,192,184323,6,0,P|455:168|455:140,2,44.999998626709,4|4|0,1:2|1:2|0:0,0:0:0:0:
352,183,185212,2,0,P|354:160|362:131,2,44.999998626709,4|4|0,1:2|1:2|0:0,0:0:0:0:
267,34,186101,6,0,P|263:57|263:86,2,44.999998626709,4|4|0,1:2|1:2|0:0,0:0:0:0:
160,43,186990,2,0,P|162:65|170:95,2,44.999998626709,4|4|0,1:2|1:2|0:0,0:0:0:0:
440,353,187879,6,0,P|459:291|459:240,1,89.9999972534181,4|0,1:2|0:0,0:0:0:0:
390,195,188323,1,0,1:0:0:0:
285,309,188546,6,0,P|276:344|273:377,1,59.9999981689454,0|0,1:0|0:0,0:0:0:0:
174,312,188990,2,0,P|175:348|181:380,1,59.9999981689454,0|0,1:0|0:0,0:0:0:0:
111,214,189434,6,0,P|102:179|99:146,1,59.9999981689454,0|0,1:0|0:0,0:0:0:0:
0,211,189878,2,0,P|1:174|7:142,1,59.9999981689454,0|0,1:0|0:0,0:0:0:0:
83,22,190323,1,0,1:0:0:0:
251,242,190546,5,4,3:2:0:0:
290,252,190657,1,0,3:0:0:0:
331,253,190768,1,0,3:0:0:0:
371,244,190879,1,0,3:0:0:0:
408,225,190990,1,0,3:0:0:0:
439,197,191101,1,0,3:0:0:0:
461,163,191212,1,0,3:0:0:0:
475,124,191323,1,0,3:0:0:0:
479,84,191434,6,0,P|446:53|414:34,1,59.9999981689454,4|0,1:2|0:0,0:0:0:0:
323,54,191768,2,0,P|277:55|241:65,1,59.9999981689454,4|0,1:2|0:0,0:0:0:0:
191,143,192101,2,0,P|159:176|140:208,1,59.9999981689454,4|0,1:2|0:0,0:0:0:0:
251,242,192323,5,0,3:0:0:0:
290,252,192434,1,0,3:0:0:0:
331,253,192545,1,0,3:0:0:0:
371,244,192656,1,0,3:0:0:0:
408,225,192767,1,0,3:0:0:0:
439,197,192878,1,0,3:0:0:0:
461,163,192989,1,0,3:0:0:0:
475,124,193100,1,0,3:0:0:0:
479,84,193211,6,0,P|446:53|414:34,1,59.9999981689454,4|0,1:2|0:0,0:0:0:0:
323,54,193546,2,0,P|277:55|241:65,1,59.9999981689454,4|0,1:2|0:0,0:0:0:0:
191,143,193879,2,0,P|159:176|140:208,1,59.9999981689454,4|0,1:2|0:0,0:0:0:0:
251,242,194102,5,0,3:0:0:0:
290,252,194213,1,0,3:0:0:0:
331,253,194324,1,0,3:0:0:0:
371,244,194435,1,0,3:0:0:0:
408,225,194546,1,0,3:0:0:0:
439,197,194657,1,0,3:0:0:0:
461,163,194768,1,0,3:0:0:0:
475,124,194879,1,0,3:0:0:0:
479,84,194990,6,0,P|446:53|414:34,1,59.9999981689454,4|0,1:2|0:0,0:0:0:0:
323,54,195323,2,0,P|277:55|241:65,1,59.9999981689454,4|0,1:2|0:0,0:0:0:0:
191,143,195657,2,0,P|159:176|140:208,1,59.9999981689454,4|0,1:2|0:0,0:0:0:0:
251,242,195879,5,0,3:0:0:0:
290,252,195990,1,0,3:0:0:0:
331,253,196101,1,0,3:0:0:0:
371,244,196212,1,0,3:0:0:0:
408,225,196323,1,0,3:0:0:0:
439,197,196434,1,0,3:0:0:0:
461,163,196545,1,0,3:0:0:0:
475,124,196656,1,0,3:0:0:0:
479,84,196767,6,0,P|446:53|414:34,2,59.9999981689454,0|0|0,1:2|1:0|1:0,0:0:0:0:
323,54,197101,2,0,P|277:55|241:65,2,59.9999981689454,4|0|0,1:2|1:0|1:0,0:0:0:0:
191,143,197434,2,0,P|159:176|140:208,1,59.9999981689454,4|0,1:2|1:0,0:0:0:0:
195,366,197657,5,0,1:0:0:0:
309,283,197768,1,0,1:0:0:0:
316,143,197879,1,0,1:0:0:0:
213,50,197990,1,0,1:0:0:0:
74,72,198101,1,0,1:0:0:0:
5,195,198212,1,0,1:0:0:0:
59,325,198323,6,0,L|28:85,1,200,0|0,1:0|0:0,0:0:0:0:
155,222,198546,2,0,L|185:-17,1,200,4|0,1:2|0:0,0:0:0:0:
468,378,198768,5,0,1:0:0:0:
174,334,198879,2,0,L|413:304,2,200,0|0|0,1:0|0:0|0:0,0:0:0:0:
476,255,199212,6,0,L|506:16,1,200,0|0,1:0|0:0,0:0:0:0:
324,187,199434,2,0,L|294:-47,1,200,4|0,1:2|0:0,0:0:0:0:
26,340,199657,5,0,1:0:0:0:
198,140,199768,2,0,L|-41:110,2,200,0|0|0,1:0|0:0|0:0,0:0:0:0:
174,334,200101,2,0,L|413:304,1,200,0|0,1:0|1:0,0:0:0:0:
468,2,200323,6,0,L|443:200,2,200,4|0|0,1:2|0:0|0:0,0:0:0:0:
263,288,200657,2,0,L|238:89,2,150.000005722046,4|0|0,1:2|0:0|0:0,0:0:0:0:
98,23,200990,2,0,L|76:190,1,100,4|0,1:2|0:0,0:0:0:0:
54,372,201212,5,0,1:0:0:0:
45,265,201323,1,0,1:0:0:0:
77,163,201434,1,0,1:0:0:0:
147,81,201545,1,0,1:0:0:0:
243,32,201656,1,0,1:0:0:0:
350,24,201767,1,0,1:0:0:0:
453,59,201879,6,0,L|484:299,1,200,0|0,1:0|0:0,0:0:0:0:
357,162,202101,2,0,L|327:401,1,200,4|0,1:2|0:0,0:0:0:0:
44,6,202324,5,0,1:0:0:0:
338,50,202435,2,0,L|99:80,2,200,0|0|0,1:0|0:0|0:0,0:0:0:0:
36,129,202768,6,0,L|6:368,1,200,0|0,1:0|0:0,0:0:0:0:
188,197,202990,2,0,L|218:431,1,200,4|0,1:2|0:0,0:0:0:0:
486,44,203213,5,0,1:0:0:0:
314,244,203324,2,0,L|553:274,2,200,0|0|0,1:0|0:0|0:0,0:0:0:0:
338,50,203657,2,0,L|99:80,1,200,0|0,1:0|1:0,0:0:0:0:
44,382,203879,6,0,L|68:183,2,200,4|0|0,1:2|0:0|0:0,0:0:0:0:
223,19,204212,2,0,L|247:218,2,200,4|0|0,1:2|0:0|0:0,0:0:0:0:
375,384,204546,2,0,L|399:185,1,200,4|0,1:2|0:0,0:0:0:0:
457,11,204768,5,0,1:0:0:0:
466,118,204879,1,0,1:0:0:0:
434,220,204990,1,0,1:0:0:0:
364,302,205101,1,0,1:0:0:0:
268,351,205212,1,0,1:0:0:0:
161,359,205323,1,0,1:0:0:0:
59,325,205434,6,0,L|28:85,1,200,0|0,1:2|0:0,0:0:0:0:
96,42,205657,2,0,L|65:282,1,200,4|0,1:2|0:0,0:0:0:0:
157,339,205879,2,0,L|126:99,1,200,4|0,1:2|0:0,0:0:0:0:
194,28,206101,2,0,L|163:268,1,200,4|0,1:2|0:0,0:0:0:0:
255,353,206323,2,0,L|224:113,1,200,4|0,1:2|0:0,0:0:0:0:
292,14,206546,2,0,L|261:254,1,200,4|0,1:2|0:0,0:0:0:0:
353,367,206768,2,0,L|322:127,1,200,4|0,1:2|0:0,0:0:0:0:
390,0,206991,2,0,L|359:240,1,200,4|0,1:2|0:0,0:0:0:0:
512,192,207212,6,0,L|412:179,1,100,4|0,1:2|0:0,0:0:0:0:
40,191,207434,2,0,L|0:186,2,40,4|4|4,1:2|1:2|1:2,0:0:0:0:
