osu file format v14

[General]
AudioFilename: audio.mp3
AudioLeadIn: 0
PreviewTime: -1
Countdown: 0
SampleSet: Soft
StackLeniency: 0.7
Mode: 0
LetterboxInBreaks: 0
WidescreenStoryboard: 1

[Editor]
Bookmarks: 6222,27962,48611,55222,66611,76999
DistanceSpacing: 1.1
BeatDivisor: 8
GridSize: 16
TimelineZoom: 2.899999

[Metadata]
Title:Unravel (TV Edit)
TitleUnicode:Unravel (TV Edit)
Artist:TK from Ling Tosite Sigure
ArtistUnicode:TK from Ling Tosite Sigure
Creator:Nosforever12
Version:Expert
Source:Tokyo Ghoul
Tags:
BeatmapID:1809992
BeatmapSetID:786461

[Difficulty]
HPDrainRate:7
CircleSize:4
OverallDifficulty:9.8
ApproachRate:9.8
SliderMultiplier:1.4
SliderTickRate:1

[Events]
//Background and Video events
0,0,"pic.jpg",0,0
//Break Periods
2,40921,48788
//Storyboard Layer 0 (Background)
//Storyboard Layer 1 (Fail)
//Storyboard Layer 2 (Pass)
//Storyboard Layer 3 (Foreground)
//Storyboard Sound Samples

[TimingPoints]
0,444.444444444444,4,2,0,30,1,0
6000,-50,4,2,0,30,0,0
8777,-66.6666666666667,4,2,0,30,0,0
10111,-50,4,2,0,30,0,0
10833,-40,4,2,0,30,0,0
12388,-66.6666666666667,4,2,0,30,0,0
22777,-66.6666666666667,4,2,0,50,0,0
26555,-50,4,2,0,50,0,0
28166,-50,4,2,0,75,0,0
31888,-50,4,2,0,100,0,0
32779,-33.3333333333333,4,2,0,100,0,0
34333,-33.3333333333333,4,2,0,75,0,0
35444,-80,4,2,0,100,0,0
36144,-33.3333333333333,4,2,0,75,0,0
37277,-80,4,2,0,100,0,0
37888,-66.6666666666667,4,2,0,75,0,0
38999,-80,4,2,0,100,0,0
39666,-66.6666666666667,4,2,0,75,0,0
39999,-33.3333333333333,4,2,0,75,0,0
49499,-50,4,2,0,75,0,0
55055,-50,4,2,0,100,0,0
60319,-44.4444444444445,4,2,0,100,0,0
63944,-44.4444444444445,4,2,0,100,0,0
63944,-50,4,2,0,100,0,0
64611,-80,4,2,0,100,0,0
66833,-45.4545454545455,4,2,0,100,0,0
69111,-45.4545454545455,4,2,0,100,0,0
78111,-71.4285714285714,4,2,0,100,0,0
80611,-50,4,2,0,100,0,0
81395,-50,4,2,0,100,0,0
82444,-50,4,2,0,75,0,0
83555,-50,4,2,0,75,0,0
84499,-50,4,2,0,25,0,0

[Colours]
Combo1 : 237,183,249
Combo2 : 112,104,125

[HitObjects]
222,201,8666,6,0,B|115:227,1,105,0|0,0:3|0:3,0:3:0:0:
120,226,8888,2,0,P|137:270|209:294,2,105.000004005432
344,280,9555,1,0,0:0:0:0:
358,120,9999,2,0,L|293:187,1,78.7500030040742
304,177,10222,2,0,B|386:229|359:318|351:321,1,165
176,320,10666,5,0,0:0:0:0:
219,135,10888,2,0,P|270:128|360:65,1,131.25
358,73,11111,2,0,P|401:109|442:201,1,131.25
447,206,11333,1,0,0:0:0:0:
72,120,12222,5,0,0:0:0:0:
198,325,12444,2,0,P|300:331|364:265,1,183.750007009506
370,258,12888,2,0,B|298:212|298:212|349:154|413:163|413:163|384:76,1,288.750011014939
388,67,13555,2,0,L|287:71,1,78.7500030040742
283,77,13777,2,0,P|228:140|181:156,1,131.25000500679
170,184,14222,5,0,0:0:0:0:
322,227,14555,1,0,0:0:0:0:
337,238,14666,1,0,0:0:0:0:
207,323,14888,1,0,0:0:0:0:
207,323,14999,1,0,0:0:0:0:
207,323,15111,2,0,L|247:212,1,105.000004005432
88,116,15777,5,0,0:0:0:0:
72,240,15999,1,0,0:0:0:0:
208,192,16444,1,0,0:0:0:0:
208,304,16888,1,0,0:0:0:0:
208,304,17111,1,0,0:0:0:0:
306,59,17555,6,0,B|362:91|333:136|378:169,1,131.25000500679
437,231,17999,1,0,0:0:0:0:
272,308,18444,2,0,B|221:275|212:183|212:183|174:254|105:239,1,262.500010013581
208,88,19277,5,0,0:0:0:0:
104,76,19555,1,0,0:0:0:0:
344,144,20222,1,0,0:0:0:0:
313,244,20444,2,0,P|281:300|185:332,2,137.5
232,156,21111,1,0,0:0:0:0:
92,144,21333,2,0,B|56:188|60:224|72:260,2,105.000004005432
180,124,21999,2,0,L|195:71,1,52.5000020027161
255,158,22222,1,0,0:0:0:0:
324,259,22555,1,0,0:0:0:0:
371,139,22777,1,0,0:0:0:0:
371,139,22944,6,0,B|387:83|437:73|437:73|448:95,2,105.000004005432
256,208,23611,1,0,0:0:0:0:
152,280,23777,2,0,B|64:256|56:176,1,137.5
120,96,24222,1,0,0:0:0:0:
232,48,24444,2,0,B|248:160|352:80|408:208,1,240.625
136,72,25555,5,0,0:0:0:0:
425,178,25777,1,0,0:0:0:0:
313,306,26166,1,0,0:0:0:0:
348,49,26444,1,0,0:0:0:0:
216,288,26666,2,0,B|216:232|216:232|-80:352|400:160|-120:192|200:160|200:160|152:96,2,428.999980361939
128,232,28444,2,0,L|104:200,3,35
351,93,28777,1,0,0:0:0:0:
380,326,28944,1,0,0:0:0:0:
380,326,28999,1,0,0:0:0:0:
380,326,29055,1,0,0:0:0:0:
357,204,29333,2,0,L|323:186,8,23.3333333333333
169,80,29666,2,0,L|188:94,10,23.3333333333333
95,203,30222,5,0,0:0:0:0:
221,317,30444,1,0,0:0:0:0:
222,306,30555,1,0,0:0:0:0:
223,298,30666,1,0,0:0:0:0:
239,87,30888,2,0,L|232:192,1,105
231,192,31111,5,0,0:0:0:0:
377,90,31333,1,0,0:0:0:0:
376,98,31444,1,0,0:0:0:0:
375,109,31555,1,0,0:0:0:0:
368,208,31777,1,0,0:0:0:0:
368,312,31999,5,4,0:0:0:0:
124,107,32111,1,4,0:0:0:0:
112,298,32333,1,4,0:0:0:0:
325,71,32555,1,4,0:0:0:0:
420,167,32666,1,4,0:0:0:0:
50,241,32888,2,0,B|148:225|45:384|175:287,1,140.000005340576
248,280,33277,2,0,L|272:256,12,27.5
390,112,33777,5,0,0:0:0:0:
96,112,33888,1,0,0:0:0:0:
256,224,34111,1,4,0:0:0:0:
238,240,34222,1,4,0:0:0:0:
84,299,34444,1,0,0:0:0:0:
67,257,34518,1,0,0:0:0:0:
59,217,34592,1,0,0:0:0:0:
59,177,34666,1,0,0:0:0:0:
67,132,34740,1,0,0:0:0:0:
83,97,34814,1,0,0:0:0:0:
117,72,34888,1,0,0:0:0:0:
160,63,34962,1,0,0:0:0:0:
203,77,35037,1,0,0:0:0:0:
218,109,35111,1,0,0:0:0:0:
212,152,35185,1,0,0:0:0:0:
185,176,35259,1,0,0:0:0:0:
157,179,35333,1,0,0:0:0:0:
119,303,35555,5,0,0:0:0:0:
382,117,35666,1,0,0:0:0:0:
240,328,35888,1,4,0:0:0:0:
258,307,35999,1,4,0:0:0:0:
332,220,36222,1,0,0:0:0:0:
330,256,36296,1,0,0:0:0:0:
357,287,36370,1,0,0:0:0:0:
400,287,36444,1,0,0:0:0:0:
428,272,36518,1,0,0:0:0:0:
442,229,36593,1,0,0:0:0:0:
433,186,36667,1,0,0:0:0:0:
408,152,36741,1,0,0:0:0:0:
373,136,36815,1,0,0:0:0:0:
328,128,36889,1,0,0:0:0:0:
288,128,36963,1,0,0:0:0:0:
248,136,37037,1,0,0:0:0:0:
206,153,37111,1,0,0:0:0:0:
169,336,37333,5,0,0:0:0:0:
447,195,37444,1,0,0:0:0:0:
318,220,37666,1,4,0:0:0:0:
303,205,37777,1,4,0:0:0:0:
119,74,37916,6,0,L|130:108,4,26.2500010013581
410,263,38194,6,0,L|386:251,4,26.2500010013581
113,317,38472,6,0,L|162:317,4,26.2500010013581
347,93,38749,6,0,L|396:93,4,26.2500010013581
173,140,39111,5,2,0:0:0:0:
460,325,39222,1,0,0:0:0:0:
359,45,39444,1,4,0:0:0:0:
343,329,39555,1,4,0:0:0:0:
351,47,39777,6,0,P|374:67|390:85,1,52.5000020027161
165,327,39999,2,0,B|267:264|198:95|312:90,1,262.500010013581
69,201,40444,2,0,L|93:250,1,52.5000020027161
93,250,40610,1,0,0:0:0:0:
93,250,40721,1,0,0:0:0:0:
363,270,49555,6,0,B|419:271|373:190|423:214|423:214,1,87.5
431,205,49777,1,0,0:0:0:0:
367,158,49944,5,0,0:0:0:0:
367,158,50055,2,0,L|337:176,1,35
230,231,50277,1,0,0:0:0:0:
110,275,50444,2,0,B|37:281|89:206|47:201,1,105
43,182,50666,1,0,0:0:0:0:
105,139,50777,1,0,0:0:0:0:
105,139,50888,2,0,L|120:171,1,35
353,276,51111,1,0,0:0:0:0:
252,279,51333,5,0,0:0:0:0:
252,279,51388,1,0,0:0:0:0:
252,279,51444,2,0,P|257:235|252:181,1,70
256,132,51777,1,0,0:0:0:0:
256,132,51833,1,0,0:0:0:0:
256,132,51888,1,0,0:0:0:0:
126,278,52111,1,0,0:0:0:0:
252,279,52222,5,0,0:0:0:0:
252,279,52388,2,0,P|241:244|254:211,1,63.250001206398
256,132,52666,1,0,0:0:0:0:
256,132,52722,1,0,0:0:0:0:
256,132,52777,1,0,0:0:0:0:
316,325,52999,1,0,0:0:0:0:
120,210,53111,5,0,0:0:0:0:
270,221,53333,1,0,0:0:0:0:
143,335,53555,1,0,0:0:0:0:
143,335,53611,1,0,0:0:0:0:
143,335,53666,1,0,0:0:0:0:
240,151,53888,1,0,0:0:0:0:
367,268,54055,1,0,0:0:0:0:
367,268,54222,2,0,B|271:206|249:312|179:279,1,175
188,283,54555,1,0,0:0:0:0:
311,113,54888,1,8,0:0:0:0:
131,105,55777,1,0,0:0:0:0:
159,141,55851,1,0,0:0:0:0:
175,185,55925,1,0,0:0:0:0:
186,230,55999,1,0,0:0:0:0:
205,273,56073,1,0,0:0:0:0:
243,298,56147,1,0,0:0:0:0:
290,305,56221,1,0,0:0:0:0:
396,210,56444,2,0,P|410:252|407:295,1,70
274,110,56666,1,0,0:0:0:0:
180,108,56722,1,0,0:0:0:0:
180,108,56888,2,0,P|99:149|51:211,1,140
337,146,57222,1,0,0:0:0:0:
165,215,57333,1,0,0:0:0:0:
263,288,57388,1,0,0:0:0:0:
263,288,57555,6,0,B|275:262|335:254|335:254|320:215|356:185,1,140
416,87,57888,1,0,0:0:0:0:
347,308,57999,1,0,0:0:0:0:
255,128,58111,1,0,0:0:0:0:
442,297,58222,1,0,0:0:0:0:
144,320,58444,5,0,0:0:0:0:
104,296,58499,1,0,0:0:0:0:
80,264,58555,1,0,0:0:0:0:
72,218,58611,1,0,0:0:0:0:
80,184,58666,1,0,0:0:0:0:
58,61,58777,1,0,0:0:0:0:
192,80,58888,2,0,B|248:64|288:152|344:104,1,140
400,106,59222,1,0,0:0:0:0:
450,153,59333,2,0,B|364:170|448:277|420:268,1,140
421,281,59611,1,0,0:0:0:0:
308,298,59777,1,0,0:0:0:0:
148,258,59888,1,0,0:0:0:0:
250,136,59999,1,0,0:0:0:0:
220,320,60111,1,0,0:0:0:0:
160,163,60222,1,0,0:0:0:0:
320,202,60333,1,0,0:0:0:0:
96,256,60444,2,0,P|88:192|136:136,1,123.750004720688
256,56,60777,1,0,0:0:0:0:
225,250,60888,5,0,0:0:0:0:
393,232,60999,1,0,0:0:0:0:
360,320,61111,2,0,B|272:320|224:256|216:232,1,157.500006008148
190,194,61555,1,0,0:0:0:0:
344,148,61666,1,0,0:0:0:0:
249,133,61777,1,0,0:0:0:0:
219,278,61888,1,0,0:0:0:0:
380,230,61999,5,0,0:0:0:0:
289,338,62111,1,0,0:0:0:0:
395,324,62222,1,0,0:0:0:0:
471,211,62444,1,0,0:0:0:0:
474,182,62518,1,0,0:0:0:0:
471,153,62592,1,0,0:0:0:0:
463,126,62666,1,0,0:0:0:0:
449,100,62740,1,0,0:0:0:0:
430,78,62814,1,0,0:0:0:0:
408,60,62888,1,0,0:0:0:0:
289,114,62999,1,0,0:0:0:0:
285,275,63222,1,0,0:0:0:0:
138,216,63333,1,0,0:0:0:0:
197,160,63444,1,0,0:0:0:0:
210,302,63555,1,0,0:0:0:0:
132,292,63666,1,0,0:0:0:0:
266,205,63777,1,0,0:0:0:0:
124,70,63999,1,0,0:0:0:0:
76,90,64073,1,0,0:0:0:0:
45,132,64147,1,0,0:0:0:0:
48,255,64333,1,0,0:0:0:0:
82,297,64407,1,0,0:0:0:0:
133,314,64481,1,0,0:0:0:0:
187,304,64555,1,0,0:0:0:0:
235,277,64629,1,0,0:0:0:0:
280,245,64703,1,0,0:0:0:0:
326,216,64777,1,0,0:0:0:0:
378,201,64851,1,0,0:0:0:0:
431,203,64925,1,0,0:0:0:0:
336,84,65111,1,0,0:0:0:0:
351,293,65222,1,0,0:0:0:0:
191,175,65333,1,0,0:0:0:0:
69,232,65555,5,0,0:0:0:0:
96,125,65777,1,0,0:0:0:0:
114,97,65851,1,0,0:0:0:0:
138,76,65925,1,0,0:0:0:0:
167,61,65999,1,0,0:0:0:0:
199,54,66073,1,0,0:0:0:0:
300,182,66222,1,0,0:0:0:0:
176,299,66444,1,0,0:0:0:0:
201,320,66518,1,0,0:0:0:0:
242,328,66592,1,0,0:0:0:0:
300,182,66722,1,0,0:0:0:0:
444,288,66888,2,0,B|352:245|490:154|398:109,1,183.750001752377
356,58,67333,2,0,B|258:83|317:245|229:243,1,231.000007049561
86,169,67777,1,0,0:0:0:0:
88,143,67851,1,0,0:0:0:0:
97,119,67925,1,0,0:0:0:0:
111,98,67999,1,0,0:0:0:0:
131,81,68073,1,0,0:0:0:0:
194,271,68222,1,0,0:0:0:0:
320,88,68333,1,0,0:0:0:0:
164,160,68444,1,0,0:0:0:0:
321,287,68666,1,0,0:0:0:0:
340,287,68740,1,0,0:0:0:0:
359,284,68814,1,0,0:0:0:0:
377,277,68888,1,0,0:0:0:0:
393,267,68962,1,0,0:0:0:0:
55,284,69111,2,2,P|92:238|161:185,1,115.50000352478
162,187,69333,2,2,B|225:220|201:356|281:342,1,192.500005874634
262,342,69666,2,2,B|329:313|316:252|316:252|408:199,1,192.500005874634
382,213,69999,2,0,B|393:301|393:301|447:309|544:147|445:139|453:150,1,269.500008224488
474,160,70444,2,0,B|437:105|331:150|317:64,1,196.875007510186
143,220,70944,2,0,B|183:273|156:311|191:330,1,115.50000352478
191,333,71166,1,0,0:0:0:0:
61,106,71333,1,0,0:0:0:0:
195,171,71444,1,0,0:0:0:0:
326,130,71611,2,0,B|347:151|410:123|438:147,1,115.50000352478
446,154,71833,1,0,0:0:0:0:
189,172,71999,1,0,0:0:0:0:
303,258,72111,1,0,0:0:0:0:
252,112,72222,1,0,0:0:0:0:
177,274,72333,1,0,0:0:0:0:
315,62,72499,1,0,0:0:0:0:
91,164,72611,1,0,0:0:0:0:
187,186,72722,1,0,0:0:0:0:
187,186,72888,2,0,P|211:242|267:266,1,107.249995090485
205,41,73166,1,0,0:0:0:0:
108,122,73277,1,0,0:0:0:0:
270,155,73388,1,0,0:0:0:0:
129,54,73499,1,0,0:0:0:0:
145,187,73611,1,0,0:0:0:0:
261,80,73722,1,0,0:0:0:0:
209,195,73833,1,0,0:0:0:0:
384,64,74055,2,8,P|416:144|392:224,1,142.99999345398
219,277,74444,2,0,B|135:258|177:352|79:333,1,154.000004699707
75,332,74722,1,0,0:0:0:0:
334,199,74888,1,0,0:0:0:0:
193,223,74999,1,0,0:0:0:0:
311,311,75111,1,0,0:0:0:0:
260,146,75222,1,0,0:0:0:0:
110,171,75333,1,0,0:0:0:0:
260,146,75555,2,0,P|300:90|308:34,1,107.249995090485
184,295,75833,1,0,0:0:0:0:
317,178,75999,1,0,0:0:0:0:
366,78,76222,1,0,0:0:0:0:
88,280,76444,1,0,0:0:0:0:
233,151,76611,1,0,0:0:0:0:
386,80,76777,1,0,0:0:0:0:
352,224,76944,1,0,0:0:0:0:
265,323,77111,2,0,P|289:243|265:155,1,142.99999345398
256,56,77555,1,8,0:0:0:0:
176,192,78222,1,0,0:0:0:0:
208,128,78444,1,0,0:0:0:0:
240,192,78555,1,0,0:0:0:0:
208,256,78666,1,0,0:0:0:0:
272,256,78777,1,0,0:0:0:0:
304,192,78888,1,0,0:0:0:0:
272,128,78999,1,0,0:0:0:0:
240,192,79111,1,0,0:0:0:0:
208,128,79222,1,0,0:0:0:0:
176,192,79333,1,0,0:0:0:0:
208,256,79444,1,0,0:0:0:0:
240,192,79555,1,0,0:0:0:0:
418,243,79722,1,0,0:0:0:0:
344,152,79833,1,0,0:0:0:0:
280,271,79999,2,0,B|338:255|389:345|458:308,1,171.499994766236
453,312,80444,1,0,0:0:0:0:
403,285,80666,2,0,B|519:264|404:228|375:223|375:223|313:187|353:150,1,210
329,137,81111,1,0,0:0:0:0:
120,184,81611,2,0,B|64:272|64:272|184:280|352:40|352:40|360:216|360:216|368:392|184:336|184:336|256:224|216:40|216:40|160:96|104:96|104:96|40:120|472:224|480:336|480:336|312:360|280:256|280:256|376:232|448:160|448:160|464:208,1,2303.125,8|8,0:0|0:0,0:0:0:0:
